VERSION	0.00.00	1.05.00
FES_MODE	0
BPM_DEF	180.000	180.000	180.000	180.000
MET_DEF	4	4
RESOLUTION	384
CLK_DEF	384
COMPATIBLE_CODE	MA2

BPM	0	0	180.000
MET	0	0	4	4

NMTAP	3	0	6
NMTAP	3	96	6
NMTAP	3	192	6
NMTAP	4	0	5
NMTAP	4	96	5
NMTAP	4	192	5
NMTAP	5	0	4
NMTAP	5	96	4
NMTAP	5	192	4
NMTAP	6	0	2
NMTAP	6	0	3
NMTAP	6	192	2
NMTAP	6	192	3
NMTAP	7	0	1
NMTAP	7	96	1
NMTAP	7	192	1
NMTAP	8	0	2
NMTAP	8	96	2
NMTAP	8	192	2
NMTAP	9	0	3
NMTAP	9	96	3
NMTAP	9	192	3
NMTAP	10	0	4
NMTAP	10	0	5
NMTAP	11	0	3
NMTAP	11	96	3
NMTAP	11	192	2
NMTAP	12	0	1
NMTAP	12	96	1
NMTAP	12	192	0
NMTAP	13	0	7
NMTAP	13	96	7
NMTAP	13	192	6
NMTAP	14	0	5
NMTAP	14	96	5
NMTAP	14	192	4
NMTAP	14	192	5
NMTAP	15	0	4
NMTAP	15	96	4
NMTAP	15	192	5
NMTAP	16	0	6
NMTAP	16	96	6
NMTAP	16	192	7
NMTAP	17	0	0
NMTAP	17	96	0
NMTAP	17	192	1
NMTAP	18	0	2
NMTAP	18	96	2
NMTAP	18	192	2
NMTAP	18	192	3
NMTTP	19	0	1	B	0	L1
NMTTP	19	96	2	B	0	L1
NMTTP	19	192	3	B	0	L1
NMTTP	20	0	6	B	0	L1
NMTTP	20	96	5	B	0	L1
NMTTP	20	192	4	B	0	L1
NMTTP	21	0	1	B	0	L1
NMTTP	21	96	2	B	0	L1
NMTTP	21	192	3	B	0	L1
NMTTP	21	288	4	B	0	L1
NMTTP	22	0	0	C	1	L1
EXHLD	23	0	1	192
EXHLD	23	192	0	192
EXHLD	24	0	7	192
EXTAP	24	192	6
NMHLD	25	0	6	192
NMHLD	25	192	7	192
NMHLD	26	0	0	192
NMTAP	26	192	1
NMHLD	27	0	1	192
NMHLD	27	192	2	192
NMHLD	28	0	3	192
NMTAP	28	192	4
NMHLD	29	0	6	192
NMHLD	29	192	5	192
NMHLD	30	0	4	192
NMTAP	30	192	3
NMSTR	31	0	3
NMSUR	31	0	3	96	480	4
NMTAP	33	0	5
NMTAP	33	96	5
NMTAP	33	192	6
NMTAP	33	288	6
NMTAP	34	0	7
NMTAP	34	96	7
NMTAP	34	192	0
NMTAP	34	192	1
NMTAP	35	0	2
NMTAP	35	96	2
NMTAP	35	192	1
NMTAP	35	288	1
NMTAP	36	0	0
NMTAP	36	96	0
NMTAP	36	192	6
NMTAP	36	192	7
NMTAP	37	0	6
NMTAP	37	96	6
NMTAP	37	192	5
NMTAP	37	288	5
NMTAP	38	0	4
NMTAP	38	96	4
NMTAP	38	192	2
NMTAP	38	192	3
NMTAP	39	0	1
NMTAP	39	96	1
NMTAP	39	192	2
NMTAP	39	288	2
NMTAP	40	0	3
NMTAP	40	96	3
BXTAP	40	192	4
BXTAP	40	192	5
NMTAP	41	0	6
NMTAP	41	96	6
NMTAP	41	192	6
NMTAP	41	288	6
NMTAP	41	288	7
NMTAP	42	0	5
NMTAP	42	96	5
NMTAP	42	192	5
NMTAP	42	288	4
NMTAP	42	288	5
NMTAP	43	0	3
NMTAP	43	96	3
NMTAP	43	192	3
NMTAP	43	288	2
NMTAP	43	288	3
NMTAP	44	0	1
NMTAP	44	96	1
NMTAP	44	192	0
NMTAP	44	192	1
NMTAP	45	0	1
NMTAP	45	96	1
NMTAP	45	192	1
NMTAP	45	288	0
NMTAP	45	288	1
NMTAP	46	0	2
NMTAP	46	96	2
NMTAP	46	192	2
NMTAP	46	288	2
NMTAP	46	288	3
NMTAP	47	0	4
NMTAP	47	96	4
NMTAP	47	192	4
NMTAP	47	288	4
NMTAP	47	288	5
NMTAP	48	0	6
NMTAP	48	96	6
NMTAP	48	192	6
NMTAP	48	192	7
NMHLD	49	0	5	192
NMTAP	49	192	4
NMHLD	50	0	3	192
NMTAP	50	192	4
NMSTR	51	0	5
NMSI_	51	0	5	96	192	2
NMSTR	52	0	1
NMSI_	52	0	1	96	192	4
NMSTR	53	0	6
NMSUL	53	0	6	96	480	3
NMSTR	55	0	2
NMSI_	55	0	2	96	192	7
NMSTR	56	0	6
NMSI_	56	0	6	96	192	2
NMSTR	57	0	1
NMSXR	57	0	1	96	480	4
NMTTP	59	0	6	B	0	L1
NMTTP	59	96	5	B	0	L1
NMTTP	59	192	4	B	0	L1
NMTTP	60	0	1	B	0	L1
NMTTP	60	96	2	B	0	L1
NMTTP	60	192	3	B	0	L1
NMTTP	61	0	6	B	0	L1
NMTTP	61	96	5	B	0	L1
NMTTP	61	192	4	B	0	L1
NMTTP	61	288	3	B	0	L1
NMTTP	62	0	0	C	1	L1
EXTAP	63	0	6
EXTAP	63	96	6
EXTAP	63	192	6
EXTAP	63	192	7
NMTAP	64	0	5
NMTAP	64	96	5
NMTAP	64	192	4
NMTAP	64	192	5
NMTAP	65	0	3
NMTAP	65	96	3
NMTAP	65	192	2
NMTAP	65	192	3
NMTAP	66	0	0
NMTAP	66	0	1
NMTAP	66	96	0
NMTAP	66	96	1
NMTAP	66	192	0
NMTAP	66	192	1
NMTAP	67	0	1
NMTAP	67	96	1
NMTAP	67	192	0
NMTAP	67	192	1
NMTAP	68	0	2
NMTAP	68	96	2
NMTAP	68	192	2
NMTAP	68	192	3
NMTAP	69	0	4
NMTAP	69	96	4
NMTAP	69	192	4
NMTAP	69	192	5
NMTAP	70	0	6
NMTAP	70	0	7
NMTAP	70	96	6
NMTAP	70	96	7
NMTAP	70	192	6
NMTAP	70	192	7
NMHLD	71	0	6	192
NMTAP	71	192	7
NMHLD	72	0	5	192
NMTAP	72	192	4
NMHLD	73	0	2	192
NMTAP	73	192	3
NMHLD	74	0	1	192
NMTAP	74	192	0
NMHLD	75	0	1	192
NMTAP	75	192	0
NMHLD	76	0	2	192
NMTAP	76	192	3
NMHLD	77	0	5	192
NMTAP	77	192	4
NMHLD	78	0	6	192
NMTAP	78	192	7
NMSTR	79	0	6
NMSUL	79	0	6	96	480	3
NMTAP	81	0	2
NMTAP	81	96	2
NMTAP	81	192	0
NMTAP	81	192	1
NMTAP	81	288	0
NMTAP	81	288	1
NMTAP	82	0	7
NMTAP	82	96	7
NMTAP	82	192	6
NMTAP	82	192	7
NMTAP	83	0	5
NMTAP	83	96	5
NMTAP	83	192	6
NMTAP	83	192	7
NMTAP	83	288	6
NMTAP	83	288	7
NMTAP	84	0	0
NMTAP	84	96	0
NMTAP	84	192	0
NMTAP	84	192	1
NMTAP	85	0	1
NMTAP	85	96	1
NMTAP	85	192	2
NMTAP	85	192	3
NMTAP	85	288	2
NMTAP	85	288	3
NMTAP	86	0	4
NMTAP	86	96	4
NMTAP	86	192	4
NMTAP	86	192	5
NMTAP	87	0	6
NMTAP	87	96	6
NMTAP	87	192	4
NMTAP	87	192	5
NMTAP	87	288	4
NMTAP	87	288	5
NMTAP	88	0	3
NMTAP	88	96	3
BRTAP	88	192	2
BRTAP	88	192	3
NMHLD	89	0	0	192
NMHLD	89	0	1	192
NMHLD	90	0	6	192
NMHLD	90	0	7	192
NMTAP	91	0	6
NMTAP	91	0	7
NMTAP	91	192	0
NMTAP	91	192	7
NMTAP	92	0	0
NMTAP	92	0	1
NMTAP	92	192	0
NMTAP	92	192	7
NMTAP	93	0	6
NMTAP	93	96	6
NMTAP	93	192	4
NMTAP	93	192	5
NMTAP	93	288	4
NMTAP	93	288	5
NMTAP	94	0	3
NMTAP	94	96	3
NMTAP	94	192	2
NMTAP	94	192	3
NMTAP	94	288	2
NMTAP	94	288	3
NMTAP	95	0	1
NMTAP	95	96	1
NMTAP	95	192	2
NMTAP	95	192	3
NMTAP	95	288	2
NMTAP	95	288	3
NMTAP	96	0	4
NMTAP	96	96	4
NMTAP	96	192	4
NMTAP	96	192	5
NMTAP	97	0	6
NMTAP	97	0	7
NMTAP	97	96	6
NMTAP	97	96	7
NMTAP	97	192	5
NMTAP	97	288	5
NMTAP	98	0	3
NMTAP	98	0	4
NMTAP	98	96	3
NMTAP	98	96	4
NMTAP	98	192	2
NMTAP	98	288	2
NMTAP	99	0	0
NMTAP	99	0	1
NMTAP	99	96	0
NMTAP	99	96	1
NMTAP	99	192	2
NMTAP	99	288	2
NMTAP	100	0	3
NMTAP	100	0	4
NMTAP	100	96	3
NMTAP	100	96	4
NMTAP	100	192	2
NMTAP	100	192	5
NMTAP	101	0	2
NMTAP	101	0	3
NMTAP	101	96	2
NMTAP	101	96	3
NMTAP	101	192	1
NMTAP	101	288	1
NMTAP	102	0	0
NMTAP	102	0	7
NMTAP	102	96	0
NMTAP	102	96	7
NMTAP	102	192	6
NMTAP	102	288	6
NMTAP	103	0	4
NMTAP	103	0	5
NMTAP	103	96	4
NMTAP	103	96	5
NMTAP	103	192	6
NMTAP	103	288	6
NMTAP	104	0	0
NMTAP	104	0	7
NMTAP	104	96	0
NMTAP	104	96	7
NMTAP	104	192	1
NMTAP	104	192	6
NMTAP	105	0	0
NMTAP	105	96	0
NMTAP	105	192	7
NMTAP	105	288	7
NMTAP	106	0	0
NMTAP	106	0	7
NMTAP	106	96	0
NMTAP	106	96	7
BRTAP	106	192	1
BRTAP	106	192	6
NMTAP	107	0	7
NMTAP	107	96	6
NMTAP	107	192	5
NMTAP	107	288	4
NMTAP	108	0	3
NMTAP	108	96	2
NMTAP	108	192	0
NMTAP	108	192	1
NMTAP	109	0	0
NMTAP	109	96	1
NMTAP	109	192	2
NMTAP	109	288	3
NMTAP	110	0	4
NMTAP	110	96	5
NMTAP	110	192	6
NMTAP	110	192	7
NMTAP	111	0	7
NMTAP	111	96	6
NMTAP	111	192	5
NMTAP	111	288	4
NMTAP	112	0	3
NMTAP	112	96	2
NMTAP	112	192	1
NMTAP	112	288	0
NMTAP	113	0	7
NMTAP	113	96	6
NMTAP	113	192	5
NMTAP	113	288	4
NMTAP	114	0	3
NMTAP	114	0	4
NMTAP	114	96	3
NMTAP	114	96	4
NMTAP	114	192	2
NMTAP	114	192	5
NMTAP	115	0	3
NMTAP	115	96	3
NMTAP	115	192	4
NMTAP	115	288	4
BRTAP	116	0	3
BRTAP	116	0	4

T_REC_TAP	325
T_REC_BRK	6
T_REC_XTP	5
T_REC_BXX	2
T_REC_HLD	23
T_REC_XHO	3
T_REC_BHO	0
T_REC_BXH	0
T_REC_STR	8
T_REC_BST	0
T_REC_XST	0
T_REC_XBS	0
T_REC_TTP	22
T_REC_THO	0
T_REC_SLD	8
T_REC_BSL	0
T_REC_ALL	402
T_NUM_TAP	360
T_NUM_BRK	8
T_NUM_HLD	26
T_NUM_SLD	8
T_NUM_ALL	402
T_JUDGE_TAP	368
T_JUDGE_HLD	104
T_JUDGE_SLD	8
T_JUDGE_ALL	480
TTM_EACHPAIRS	81
TTM_SCR_TAP	180000
TTM_SCR_BRK	20800
TTM_SCR_HLD	26000
TTM_SCR_SLD	12000
TTM_SCR_ALL	238800
TTM_SCR_S	230900
TTM_SCR_SS	238000
TTM_RAT_ACV	10033

