VERSION	0.00.00	1.05.00
FES_MODE	0
BPM_DEF	169.000	268.000	268.000	134.000
MET_DEF	4	4
RESOLUTION	384
CLK_DEF	576
COMPATIBLE_CODE	MA2

BPM	0	0	169.000
BPM	3	288	164.000
BPM	4	0	159.000
BPM	4	96	154.000
BPM	4	192	149.000
BPM	4	288	144.000
BPM	5	0	139.000
BPM	5	96	134.000
BPM	9	288	268.000
MET	0	0	4	3
MET	6	288	4	4

NMHLD	1	192	2	288
NMHLD	2	96	3	288
NMHLD	3	0	4	288
NMSTR	3	288	5
NMSXL	3	288	5	96	480	3
NMTTP	5	96	2	A	0	M1
NMTTP	5	108	3	D	0	M1
NMHLD	6	288	1	96
NMHLD	6	288	3	96
NMHLD	7	96	2	96
NMHLD	7	96	4	96
NMHLD	7	288	3	96
NMHLD	7	288	5	96
NMTAP	8	96	4
NMTAP	8	96	6
NMHLD	8	192	4	192
NMHLD	8	192	6	192
NMTAP	9	96	3
NMTAP	9	96	5
NMTAP	9	192	2
NMTAP	9	192	4
NMHLD	9	288	1	384
NMSTR	9	288	3
NMSCL	9	288	3	96	672	4
NMTTP	11	288	0	C	1	M1
BXTAP	12	288	0
EXTAP	12	288	7
BXTAP	13	0	1
EXTAP	13	0	6
BXTAP	13	96	2
EXTAP	13	96	5
BXTAP	13	192	3
EXTAP	13	192	4
NMSTR	13	288	1
NMSI_	13	288	1	96	48	4
NMTAP	14	0	5
NMSTR	14	96	6
NMSCR	14	96	6	96	48	1
NMTAP	14	192	1
NMTAP	14	288	2
NMHLD	14	336	2	96
NMTAP	15	48	4
NMTAP	15	144	3
NMTAP	15	144	5
NMTAP	15	192	3
NMTAP	15	192	5
NMTAP	15	288	6
NMTAP	15	336	6
NMTAP	16	0	7
NMTAP	16	48	5
NMTAP	16	96	1
NMTAP	16	144	1
NMTAP	16	192	0
NMHLD	16	288	2	48
NMHLD	16	288	3	48
NMHLD	17	0	2	48
NMHLD	17	0	3	48
NMHLD	17	96	2	48
NMHLD	17	96	3	48
NMTAP	17	192	1
NMTAP	17	192	4
NMSTR	17	288	6
NMSI_	17	288	6	96	48	3
NMTAP	18	0	2
NMSTR	18	96	1
NMSCL	18	96	1	96	48	6
NMTAP	18	192	6
NMTAP	18	288	5
NMHLD	18	336	5	96
NMTAP	19	48	3
NMTAP	19	144	2
NMTAP	19	144	4
NMTAP	19	192	2
NMTAP	19	192	4
NMTAP	19	288	1
NMTAP	19	336	1
NMTAP	20	0	0
NMTAP	20	48	2
NMTAP	20	96	6
NMTAP	20	144	6
NMTAP	20	192	7
NMTAP	20	240	5
EXHLD	20	288	0	288
NMTAP	21	0	4
NMTAP	21	96	4
NMTAP	21	192	4
NMSTR	21	288	4
NMSCR	21	288	4	96	96	0
NMSTR	22	0	0
NMSCR	22	0	0	96	96	4
NMSTR	22	96	4
NMSLR	22	96	4	96	96	0
NMSTR	22	192	0
NMSLR	22	192	0	96	96	4
NMSTR	22	288	4
NMSCR	22	288	4	96	96	0
NMSTR	23	0	0
NMSCR	23	0	0	96	96	4
NMSTR	23	96	4
NMSLR	23	96	4	96	96	0
NMSTR	23	192	0
NMSLR	23	192	0	96	96	4
NMSTR	23	288	4
NMSCR	23	288	4	96	96	0
NMSTR	24	0	0
NMSCR	24	0	0	96	96	4
NMSTR	24	96	4
NMSI_	24	96	4	96	48	0
NMTAP	24	192	0
EXHLD	24	288	1	48
EXHLD	25	0	2	48
EXHLD	25	0	3	48
EXHLD	25	96	3	48
EXHLD	25	96	4	48
NMTAP	25	192	4
NMTAP	25	192	5
NMSTR	25	288	6
NMSI_	25	288	6	96	48	3
NMTAP	26	0	7
NMSTR	26	96	1
NMSI_	26	96	1	96	48	4
NMTAP	26	192	0
NMSTR	26	288	6
NMSCL	26	288	6	96	48	3
NMTAP	27	0	7
NMSTR	27	96	1
NMSCR	27	96	1	96	48	4
NMTAP	27	192	0
NMHLD	27	288	6	96
NMTAP	28	0	7
NMTAP	28	48	7
NMTAP	28	96	0
NMTAP	28	96	6
NMTAP	28	192	1
NMTAP	28	192	5
NMSTR	28	288	1
NMSI_	28	288	1	96	96	4
NMSTR	28	288	5
NMSI_	28	288	5	96	96	0
CNSI_	29	96	0	0	96	5
CNSI_	29	96	4	0	96	1
NMTTP	29	288	1	D	0	M1
NMTTP	29	312	1	E	0	M1
NMTTP	29	336	0	C	0	M1
NMTTP	29	360	5	E	0	M1
NMTTP	30	0	0	E	0	M1
NMTTP	30	24	7	B	0	M1
NMTTP	30	48	6	B	0	M1
NMTTP	30	72	6	E	0	M1
NMTTP	30	96	2	E	0	M1
NMTTP	30	120	2	B	0	M1
NMTTP	30	144	3	B	0	M1
NMTTP	30	168	4	E	0	M1
NMTTP	30	192	4	A	0	M1
NMTTP	30	192	5	D	0	M1
BRTAP	31	0	3
BRTAP	31	0	6
BRTAP	31	144	0
BRTAP	31	144	7
BRTAP	31	288	2
BRTAP	31	288	4
NMTAP	32	0	1
NMTAP	32	48	3
NMTAP	32	96	2
NMTAP	32	144	3
EXTAP	32	192	1
EXTAP	32	240	3
NMTAP	32	288	2
NMTAP	32	336	3
NMTAP	33	0	2
NMTAP	33	48	3
NMTAP	33	96	2
NMTAP	33	144	3
NMTAP	33	192	2
NMTAP	33	240	3
EXTAP	33	288	1
EXTAP	33	336	3
NMTAP	34	0	2
NMTAP	34	48	3
NMTAP	34	96	2
NMTAP	34	144	3
EXTAP	34	192	1
EXTAP	34	240	3
NMTAP	34	288	2
NMTAP	34	336	3
NMTAP	35	0	2
NMTAP	35	48	3
NMTAP	35	96	2
NMTAP	35	144	3
NMHLD	35	192	2	96
EXTAP	35	288	4
EXTAP	35	336	2
NMTAP	36	0	4
NMTAP	36	48	2
NMTAP	36	96	4
NMTAP	36	144	2
EXTAP	36	192	5
EXTAP	36	240	3
NMTAP	36	288	5
NMTAP	36	336	3
NMTAP	37	0	5
NMTAP	37	48	3
NMTAP	37	96	5
NMTAP	37	144	4
NMTAP	37	192	5
NMTAP	37	240	4
EXTAP	37	288	6
EXTAP	37	336	4
NMTAP	38	0	5
NMTAP	38	48	4
NMTAP	38	96	6
NMTAP	38	144	4
EXSTR	38	192	7
NMSI_	38	192	7	96	48	3
EXTAP	38	240	3
NMTAP	39	96	4
NMTAP	39	192	2
BRTAP	39	288	1
BRTAP	39	288	3
NMTAP	39	336	1
NMTAP	39	336	3
NMTAP	40	48	4
NMTAP	40	96	3
BRTAP	40	192	4
BRTAP	40	192	6
NMTAP	40	240	4
NMTAP	40	240	6
NMTAP	40	336	6
NMTAP	41	0	4
NMTAP	41	48	5
NMTAP	41	96	3
NMTAP	41	144	4
NMTAP	41	192	2
BRTAP	41	288	1
BRTAP	41	288	3
NMTAP	41	336	1
NMTAP	41	336	3
NMTAP	42	48	4
NMTAP	42	96	3
BRTAP	42	192	4
BRTAP	42	192	6
NMTAP	42	240	4
NMTAP	42	240	6
NMTAP	42	336	6
NMTAP	43	0	4
NMTAP	43	48	5
NMTAP	43	96	3
NMTAP	43	144	4
NMTAP	43	192	2
BRTAP	43	288	0
BRTAP	43	288	1
NMTAP	43	336	0
NMTAP	43	336	1
NMTAP	44	48	4
NMTAP	44	96	3
BRTAP	44	192	6
BRTAP	44	192	7
NMTAP	44	240	6
NMTAP	44	240	7
NMTAP	44	336	5
NMTAP	45	0	7
NMTAP	45	48	6
NMTAP	45	96	0
NMTAP	45	144	7
NMTAP	45	192	1
NMTAP	45	240	0
NMSTR	45	288	1
NMSCL	45	288	1	96	48	6
NMTAP	46	0	4
NMSTR	46	96	5
NMSCL	46	96	5	96	48	2
NMTAP	46	192	0
NMTAP	46	288	1
NMTAP	47	0	2
NMTAP	47	0	5
NMTAP	47	96	0
NMTAP	47	96	7
BRTAP	47	288	1
BRSTR	47	288	4
NMSI_	47	288	4	96	96	6
NMTAP	48	0	0
NMTAP	48	96	2
CNSCR	48	96	6	0	96	1
NMTAP	48	192	3
NMSTR	48	288	3
NMSI_	48	288	3	96	96	1
NMTAP	49	0	7
CNSCL	49	96	1	0	96	6
NMTAP	49	96	5
NMTAP	49	192	4
NMSTR	49	288	4
NMSI_	49	288	4	96	96	6
NMTAP	50	0	0
NMTAP	50	96	2
CNSCR	50	96	6	0	96	1
NMTAP	50	192	3
NMSTR	50	288	3
NMSCL	50	288	3	96	48	1
EXSTR	51	0	3
NMSCR	51	0	3	96	48	5
EXSTR	51	96	3
NMSI_	51	96	3	96	48	0
EXTAP	51	192	3
EXSTR	51	288	7
NMSI_	51	288	7	96	96	5
NMTTP	52	0	5	E	0	M1
NMTTP	52	96	0	C	0	M1
CNSCL	52	96	5	0	96	3
NMTTP	52	192	1	E	0	M1
CNSI_	52	192	3	0	96	1
EXSTR	52	288	0
NMSI_	52	288	0	96	96	2
NMTTP	53	0	3	E	0	M1
NMTTP	53	96	0	C	0	M1
CNSCR	53	96	2	0	96	4
CNSI_	53	192	4	0	96	6
NMTTP	53	192	7	E	0	M1
EXTAP	53	288	7
NMTAP	54	0	7
NMTAP	54	96	1
NMTAP	54	96	6
EXTAP	54	288	7
NMTAP	54	312	6
NMTAP	54	336	5
NMTAP	54	360	4
NMTAP	55	0	3
NMTAP	55	24	2
NMTAP	55	48	1
NMTAP	55	72	0
NMTAP	55	96	7
NMTAP	55	120	6
NMTAP	55	144	5
NMTAP	55	168	4
EXSTR	55	192	1
BRSI_	55	192	1	96	48	5
EXTAP	55	192	3
BRTAP	55	288	1
NMTAP	55	288	5
NMSTR	56	0	7
BRSF_	56	0	7	96	48	3
BRTAP	56	96	7
NMTAP	56	288	1
NMTAP	56	288	5
NMTAP	57	0	1
NMTAP	57	0	5
NMTAP	57	96	2
NMTAP	57	96	4
NMSTR	57	192	3
NMSI_	57	192	3	96	48	0
NMSI_	57	192	3	96	48	1
EXTAP	57	288	3
NMSTR	58	0	7
NMSI_	58	0	7	96	48	3
NMSI_	58	0	7	96	48	4
EXTAP	58	96	7
NMSTR	58	192	2
NMSLL	58	192	2	96	144	6
NMSLR	58	192	2	96	144	6
EXTAP	58	288	2
NMTAP	59	240	4
NMTAP	59	240	5
NMTAP	59	288	4
NMTAP	59	288	5
NMTAP	60	0	6
NMTAP	60	0	7
NMTAP	60	96	0
NMTAP	60	96	1
NMTAP	60	192	2
NMTAP	60	192	3
NMSTR	60	288	5
NMSI_	60	288	5	96	48	0
NMSTR	61	0	1
NMSI_	61	0	1	96	48	4
NMTAP	61	96	7
NMTAP	61	192	3
NMTAP	61	288	1
NMTAP	62	0	6
NMTAP	62	0	7
NMTAP	62	48	6
NMSTR	62	48	7
NMSI_	62	48	7	96	48	3
NMTAP	62	144	5
BRTAP	62	240	4
BRTAP	62	288	4
NMTAP	63	0	0
NMTAP	63	0	1
NMTAP	63	96	2
NMTAP	63	96	7
NMTAP	63	192	3
NMTAP	63	192	6
NMTAP	63	288	1
NMTAP	63	288	4
NMSTR	64	0	0
NMSUR	64	0	0	96	48	4
NMSTR	64	0	7
NMSV_	64	0	7	96	48	4
EXTAP	64	96	0
EXTAP	64	96	7
NMTAP	64	288	4
NMTAP	64	288	5
NMTAP	65	0	6
NMTAP	65	0	7
NMTAP	65	96	0
NMTAP	65	96	1
NMSTR	65	192	2
NMSI_	65	192	2	96	96	7
NMSTR	65	288	7
NMSI_	65	288	7	96	96	4
NMSTR	66	0	4
NMSI_	66	0	4	96	96	1
NMTAP	66	96	6
NMSTR	66	192	7
NMSF_	66	192	7	96	48	3
EXTAP	66	288	7
NMTAP	67	96	1
NMTAP	67	96	5
NMTAP	67	192	6
NMTAP	67	240	6
NMTAP	67	288	7
NMTAP	68	0	4
NMTAP	68	0	5
NMTAP	68	96	2
NMTAP	68	96	3
NMSTR	68	192	1
NMSCR	68	192	1	96	48	4
NMSTR	68	288	0
NMSUR	68	288	0	96	48	5
EXTAP	68	288	1
EXTAP	69	0	0
EXSTR	69	96	4
NMSCR	69	96	4	96	192	3
NMSUR	69	96	4	96	192	3
EXTAP	70	96	3
EXTAP	70	96	4
NMTAP	70	192	0
NMTAP	70	192	1
NMTAP	70	288	3
NMTAP	70	288	6
NMTTP	71	0	6	E	0	M1
NMTTP	71	24	5	B	0	M1
NMTTP	71	48	4	B	0	M1
NMTTP	71	72	4	E	0	M1
NMTTP	71	96	0	E	0	M1
NMTTP	71	120	0	B	0	M1
NMTTP	71	144	1	B	0	M1
NMTTP	71	168	2	E	0	M1
NMTTP	71	192	2	A	0	M1
EXHLD	71	288	1	192
EXHLD	71	288	3	192
EXHLD	72	288	4	192
EXHLD	72	288	6	192
NMTAP	73	288	3
NMTAP	73	288	4
BXTAP	74	0	2
BXTAP	74	0	5
NMTAP	74	96	0
NMTAP	74	96	7
BRSTR	74	144	0
BRSI_	74	144	0	96	48	4
BRSTR	74	144	7
BRSI_	74	144	7	96	48	3
NMTAP	75	96	2
NMTAP	75	96	5
NMTAP	75	288	3
NMTAP	75	288	6
NMTAP	76	0	5
NMTAP	76	48	5
NMTAP	76	96	4
NMTAP	76	192	6
NMHLD	76	240	6	96
NMTAP	76	336	4
NMTAP	77	48	5
NMTAP	77	96	5
NMTAP	77	144	3
NMTAP	77	192	4
NMTAP	77	288	1
NMTAP	77	288	4
NMTAP	78	0	2
NMTAP	78	48	2
NMTAP	78	96	3
NMTAP	78	192	1
NMHLD	78	240	1	96
NMTAP	78	336	3
NMTAP	79	48	2
NMTAP	79	96	2
NMTAP	79	144	4
NMTAP	79	192	3
NMTAP	79	288	3
NMTAP	79	288	6
NMTAP	80	0	5
NMTAP	80	48	5
NMTAP	80	96	4
NMTAP	80	192	6
NMHLD	80	240	6	96
NMTAP	80	336	4
NMTAP	81	48	5
NMTAP	81	96	5
NMTAP	81	144	4
NMTAP	81	192	5
EXHLD	81	288	4	96
EXHLD	81	288	6	96
NMTAP	82	48	4
NMTAP	82	96	5
EXHLD	82	144	6	96
NMTAP	82	240	5
NMTAP	82	288	5
NMTAP	82	336	6
EXSTR	83	0	7
NMSI_	83	0	7	96	48	3
NMTTP	83	96	7	B	1	M1
NMTAP	83	288	2
NMHLD	84	0	1	96
NMHLD	84	96	0	96
NMTAP	84	192	7
NMTAP	84	240	7
NMTAP	84	336	0
NMTAP	84	336	6
NMSTR	85	0	0
NMSI_	85	0	0	96	48	4
NMSTR	85	0	6
NMSI_	85	0	6	96	48	4
NMTAP	85	240	5
NMHLD	85	288	5	96
NMTAP	86	0	7
NMHLD	86	48	7	96
NMHLD	86	144	0	96
NMTAP	86	240	1
NMSTR	86	288	1
NMSV_	86	288	1	96	96	2
CNSI_	87	96	2	0	96	4
NMTAP	87	240	6
NMHLD	87	288	6	96
NMTAP	88	0	4
NMHLD	88	48	4	96
NMHLD	88	144	3	96
NMTAP	88	240	1
NMHLD	88	288	1	96
NMTAP	89	0	0
NMTAP	89	48	0
NMTAP	89	144	2
NMHLD	89	192	2	96
NMHLD	89	288	3	96
NMHLD	90	0	4	96
NMHLD	90	96	5	96
NMSTR	90	192	6
NMSXL	90	192	6	96	192	1
NMTAP	91	96	4
NMTAP	91	288	2
NMTAP	92	0	1
NMTAP	92	0	3
NMTAP	92	96	0
NMTAP	92	96	4
NMTAP	92	192	6
NMHLD	92	240	6	96
NMTAP	92	336	7
NMSTR	93	0	7
NMSI_	93	0	7	96	48	1
NMSI_	93	0	7	96	48	5
NMTAP	93	240	2
NMHLD	93	288	2	96
NMTAP	94	0	0
NMHLD	94	48	0	96
NMHLD	94	144	7	96
NMTAP	94	240	5
NMHLD	94	288	5	96
NMTAP	95	0	4
NMTAP	95	96	3
NMTAP	95	96	6
NMTAP	95	240	6
NMTAP	95	288	4
NMTAP	95	336	5
NMTAP	96	0	3
NMTAP	96	48	4
NMTAP	96	96	2
NMTAP	96	144	2
NMTAP	96	144	3
NMTAP	96	240	1
BRTAP	96	288	0
BRTAP	96	288	1
NMTAP	97	0	6
BRTAP	97	48	6
BRTAP	97	48	7
NMSTR	97	192	7
NMSI_	97	192	7	96	96	4
BRSLL	97	192	7	96	192	1
CNSI_	98	0	4	0	96	0
NMTAP	98	192	2
NMTAP	98	192	6
BRHLD	98	240	2	240
NMHLD	98	240	6	624
NMHLD	99	288	4	384
NMHLD	100	288	5	384
NMHLD	101	288	3	192
NMSTR	102	96	4
NMSUL	102	96	4	96	288	3
NMHLD	102	288	2	192
EXTAP	103	288	1
EXTAP	103	288	3
NMTAP	104	0	2
NMTAP	104	0	4
NMTAP	104	96	3
NMTAP	104	96	5
NMTAP	104	192	4
NMTAP	104	192	6
EXTAP	104	288	4
EXTAP	104	288	6
NMTAP	105	0	3
NMTAP	105	0	5
NMTAP	105	96	2
NMTAP	105	96	4
NMTAP	105	192	1
NMTAP	105	192	3
EXTAP	105	288	1
NMTAP	105	336	1
NMTAP	106	0	3
NMTAP	106	48	3
NMTAP	106	96	4
NMTAP	106	144	4
NMTAP	106	192	6
NMTAP	106	240	6
EXTAP	106	288	4
NMTAP	106	336	4
NMTAP	107	0	3
NMTAP	107	48	3
NMTAP	107	96	1
NMTAP	107	144	1
NMSTR	107	192	0
BRSXL	107	192	0	96	144	2
BRSXR	107	192	0	96	144	6
EXTAP	108	192	2
EXTAP	108	192	6
NMTAP	109	0	1
NMTAP	109	24	0
NMTAP	109	48	1
NMTAP	109	72	0
NMTAP	109	96	1
NMTAP	109	120	0
NMTAP	109	144	1
NMTAP	109	168	0
NMSTR	109	192	1
NMSI_	109	192	1	96	48	5
BRTAP	110	0	6
BRTAP	110	144	1
BRTAP	110	144	3
BRTAP	110	288	0
BRTAP	110	288	7
NMTTP	111	96	0	B	0	M1
NMTTP	111	96	0	E	0	M1
NMTTP	111	96	7	B	0	M1
BRSTR	111	288	2
BRSXR	111	288	2	96	480	4
BRSTR	111	288	5
BRSXL	111	288	5	96	480	3
NMTAP	113	288	0
NMTAP	113	288	7
EXTAP	114	288	0
NMTAP	114	312	1
NMTAP	114	336	2
NMTAP	114	360	3
NMTAP	115	0	7
NMTAP	115	24	6
NMTAP	115	48	5
NMTAP	115	72	4
NMTAP	115	96	0
NMTAP	115	120	1
NMTAP	115	144	2
NMTAP	115	168	3
NMTAP	115	192	7
NMTAP	115	216	6
NMTAP	115	240	5
NMTAP	115	264	4
EXHLD	115	288	1	96
NMTAP	116	0	0
NMSTR	116	48	0
NMSI_	116	48	0	96	48	5
NMTAP	116	144	4
NMTAP	116	192	4
NMTAP	116	288	0
NMSTR	116	288	6
NMSI_	116	288	6	96	48	2
NMSTR	117	0	2
NMSI_	117	0	2	96	48	5
NMTAP	117	96	1
CNSI_	117	144	5	0	96	3
NMTAP	117	192	0
NMTAP	117	288	1
NMTAP	118	0	1
NMTAP	118	0	3
NMTAP	118	48	1
NMTAP	118	48	3
NMTAP	118	144	3
NMTAP	118	144	4
NMTAP	118	240	4
NMTAP	118	240	6
NMTAP	118	288	4
NMTAP	118	288	6
NMSTR	119	0	0
NMSSL	119	0	0	96	96	4
NMSTR	119	0	7
NMSSR	119	0	7	96	96	3
EXTAP	119	288	2
NMSTR	120	0	2
NMSCL	120	0	2	96	48	7
NMSTR	120	0	3
NMSUL	120	0	3	96	48	6
EXTAP	120	96	2
EXTAP	120	96	3
NMTAP	120	288	6
NMTAP	120	288	7
NMTAP	121	0	5
NMTAP	121	48	5
NMTAP	121	96	4
NMTAP	121	192	2
NMTAP	121	192	3
NMTAP	121	288	0
NMTAP	121	288	1
NMSTR	122	0	6
NMSI_	122	0	6	96	48	2
NMSTR	122	0	7
NMSI_	122	0	7	96	48	3
NMTAP	122	288	1
NMTAP	122	288	4
NMTAP	123	0	2
NMTAP	123	24	3
NMTAP	123	48	2
NMTAP	123	72	3
NMTAP	123	96	2
NMTAP	123	192	4
NMTAP	123	192	5
NMTAP	123	288	6
NMTAP	123	288	7
NMTAP	124	0	0
NMTAP	124	0	1
NMTAP	124	96	2
NMTAP	124	96	3
NMSTR	124	192	4
NMSI_	124	192	4	96	48	0
NMTAP	124	288	2
EXTAP	124	288	4
NMSTR	125	0	3
NMSI_	125	0	3	96	48	7
EXTAP	125	96	3
NMTAP	125	96	5
NMTAP	125	192	5
BXTAP	125	288	6
BXTAP	125	288	7
NMTAP	126	0	3
NMTAP	126	0	5
NMTAP	126	48	3
NMTAP	126	48	5
NMTAP	126	144	2
NMTAP	126	144	4
NMTAP	126	240	0
NMTAP	126	240	1
BRTAP	126	288	0
BRTAP	126	288	1
NMTAP	127	0	7
NMTAP	127	24	6
NMTAP	127	48	5
NMTAP	127	72	4
NMTAP	127	96	7
NMTAP	127	120	0
NMTAP	127	144	1
NMTAP	127	168	2
NMTAP	127	192	7
NMTAP	127	288	1
NMTAP	127	288	4
NMSTR	128	0	2
NMSI_	128	0	2	96	48	6
NMSTR	128	0	3
NMSI_	128	0	3	96	48	7
EXTAP	128	96	2
EXTAP	128	96	3
NMTAP	128	288	4
NMTAP	128	288	5
NMTAP	129	0	5
NMTAP	129	48	5
NMTAP	129	96	4
NMTAP	129	192	6
NMTAP	129	192	7
NMTAP	129	288	0
NMTAP	129	288	1
NMTAP	130	0	2
NMTAP	130	0	3
NMTAP	130	96	4
NMTAP	130	96	5
NMTAP	130	192	6
NMSTR	130	192	7
NMSF_	130	192	7	96	48	3
BRTAP	130	288	7
NMTAP	131	96	2
NMTAP	131	144	2
NMTAP	131	192	3
NMTAP	131	288	2
NMHLD	131	288	3	96
NMHLD	132	0	1	96
NMTAP	132	96	0
NMTAP	132	144	0
NMTAP	132	192	2
NMTAP	132	240	2
NMTAP	132	288	7
NMHLD	132	336	7	96
NMHLD	133	48	3	96
NMTAP	133	144	5
NMTAP	133	192	5
NMTAP	133	240	4
NMSTR	133	288	4
NMSCL	133	288	4	96	48	1
NMTAP	134	0	6
NMSTR	134	48	6
NMSUL	134	48	6	96	48	2
NMTAP	134	144	0
NMTAP	134	240	1
NMTAP	134	288	1
BRTAP	135	0	2
BRTAP	135	0	4
NMTAP	135	96	5
NMTAP	135	120	3
NMTAP	135	144	5
NMTAP	135	168	3
NMTAP	135	192	5
NMTAP	135	288	2
NMTAP	135	288	4
EXSTR	136	0	1
NMSI_	136	0	1	96	48	4
NMTAP	136	48	1
EXSTR	136	96	5
NMSI_	136	96	5	96	48	0
NMTAP	136	144	5
EXSTR	136	192	3
NMSI_	136	192	3	96	48	7
NMTAP	136	240	3
EXSTR	136	288	6
NMSI_	136	288	6	96	48	2
NMTAP	136	336	6
EXSTR	137	0	0
NMSI_	137	0	0	96	48	4
NMTAP	137	48	0
EXSTR	137	96	7
NMSCL	137	96	7	96	48	4
NMTAP	137	144	7
EXSTR	137	192	2
NMSI_	137	192	2	96	48	5
NMTAP	137	240	2
EXSTR	137	288	6
NMSI_	137	288	6	96	48	1
NMTAP	137	336	6
EXSTR	138	0	3
NMSI_	138	0	3	96	48	7
NMTAP	138	48	3
EXSTR	138	96	5
NMSI_	138	96	5	96	48	0
NMTAP	138	144	5
EXSTR	138	192	1
NMSCR	138	192	1	96	48	4
NMTAP	138	240	1
EXSTR	138	288	7
NMSI_	138	288	7	96	48	3
NMTAP	138	336	7
EXTAP	139	0	2
BRHLD	139	96	1	96
BRTAP	139	192	0
NMHLD	139	288	0	48
NMHLD	139	288	1	48
NMHLD	140	0	6	48
NMHLD	140	0	7	48
NMHLD	140	96	4	48
NMHLD	140	96	5	48
NMHLD	140	192	2	48
NMHLD	140	192	3	48
NMHLD	140	288	4	48
NMHLD	140	288	5	48
NMHLD	141	0	6	48
NMHLD	141	0	7	48
NMHLD	141	96	0	48
NMHLD	141	96	1	48
NMTAP	141	192	2
NMTAP	141	192	3
BRTAP	141	288	1
BRTAP	141	288	4
BRTAP	142	0	3
BRTAP	142	0	5
BRTAP	142	48	3
BRTAP	142	48	5
BRTAP	142	144	1
BRTAP	142	144	7
BRTAP	142	240	2
BRTAP	142	240	4
BRTAP	142	288	2
BRTAP	142	288	4
EXTAP	143	0	4
NMTAP	143	24	5
NMTAP	143	48	6
NMTAP	143	72	7
NMTAP	143	96	0
NMTAP	143	120	1
NMTAP	143	144	2
NMTAP	143	168	3
NMTAP	143	192	4
BXSTR	143	288	3
NMSUL	143	288	3	96	192	5
NMSLL	143	288	3	96	96	7
CNSI_	144	96	7	0	96	5
BXSTR	144	288	4
NMSUR	144	288	4	96	192	2
NMSLR	144	288	4	96	96	0
CNSI_	145	96	0	0	96	2
BXTAP	145	288	3
BXTAP	145	288	4
BRTAP	146	0	1
BRTAP	146	0	6
BRTAP	146	96	0
BRTAP	146	96	7
BRSTR	146	144	0
BRSI_	146	144	0	96	48	4
BRSTR	146	144	7
BRSI_	146	144	7	96	48	3
NMTTP	146	264	0	C	1	M1
NMTTP	146	276	3	B	0	M1
NMTTP	146	276	4	B	0	M1
NMTAP	147	96	2
NMTAP	147	96	5
NMTAP	147	288	3
NMTAP	147	288	4
NMTAP	148	0	2
NMTAP	148	48	1
NMTAP	148	48	3
NMTAP	148	144	0
NMTAP	148	192	1
NMTAP	148	192	7
NMSTR	148	288	6
NMSI_	148	288	6	96	48	2
NMTAP	149	0	7
NMSTR	149	96	7
NMSI_	149	96	7	96	48	1
NMTAP	149	192	4
NMTAP	149	288	3
NMTAP	149	288	4
NMTAP	150	0	5
NMTAP	150	48	4
NMTAP	150	48	6
NMTAP	150	144	7
NMTAP	150	192	0
NMTAP	150	192	6
NMSTR	150	288	1
NMSI_	150	288	1	96	48	5
NMTAP	151	0	0
NMSTR	151	96	0
NMSI_	151	96	0	96	48	6
NMTAP	151	192	3
NMTAP	151	288	3
NMTAP	151	288	4
NMTAP	152	0	2
NMTAP	152	48	1
NMTAP	152	48	3
NMTAP	152	144	0
NMTAP	152	192	1
NMTAP	152	192	7
NMSTR	152	288	6
NMSI_	152	288	6	96	48	0
NMTAP	153	0	1
NMSTR	153	96	2
NMSI_	153	96	2	96	48	4
NMTAP	153	192	7
NMTAP	153	288	6
NMTAP	154	0	4
NMTAP	154	0	5
NMTAP	154	48	4
NMTAP	154	48	5
NMTAP	154	144	0
NMTAP	154	144	7
NMSTR	154	192	0
NMSXL	154	192	0	96	240	3
NMSTR	154	192	7
NMSXR	154	192	7	96	240	4
BRTAP	155	288	3
BRTAP	155	288	4
NMTAP	156	0	6
BRTAP	156	48	5
BRTAP	156	48	7
NMTAP	156	144	1
BRTAP	156	192	0
BRTAP	156	192	2
NMSTR	156	288	3
NMSI_	156	288	3	96	48	7
NMTAP	157	0	4
NMSTR	157	96	4
NMSI_	157	96	4	96	48	6
NMTAP	157	192	0
BRTAP	157	288	0
BRTAP	157	288	7
NMTAP	158	0	5
BRTAP	158	48	4
BRTAP	158	48	6
NMTAP	158	144	2
BRTAP	158	192	1
BRTAP	158	192	3
NMSTR	158	288	7
NMSI_	158	288	7	96	48	3
NMTAP	159	0	0
NMSTR	159	96	0
NMSI_	159	96	0	96	48	2
NMTAP	159	192	4
BRTAP	159	288	3
BRTAP	159	288	4
NMTAP	160	0	1
BRTAP	160	48	0
BRTAP	160	48	2
NMTAP	160	144	6
BRTAP	160	192	5
BRTAP	160	192	7
NMSTR	160	288	5
NMSUL	160	288	5	96	96	1
NMSTR	161	0	1
NMSUL	161	0	1	96	96	5
EXTAP	161	96	2
EXTAP	161	192	3
NMTAP	161	288	2
NMTAP	161	288	4
NMTAP	162	0	6
NMTAP	162	0	7
NMTAP	162	48	6
NMTAP	162	48	7
NMTAP	162	144	0
NMTAP	162	144	1
NMTAP	162	192	0
NMTAP	162	192	1
EXTAP	162	288	7
NMTAP	162	312	6
NMTAP	162	336	5
NMTAP	162	360	4
NMTAP	163	0	3
NMTAP	163	24	2
NMTAP	163	48	1
NMTAP	163	72	0
NMTAP	163	96	7
NMTAP	163	120	6
NMTAP	163	144	5
NMTAP	163	168	4
EXSTR	163	192	3
NMSI_	163	192	3	96	96	6
EXSTR	163	192	7
NMSI_	163	192	7	96	96	2
CNSI_	164	0	2	0	192	0
CNSI_	164	0	6	0	192	4
EXSTR	164	288	0
NMSV_	164	288	0	96	96	1
EXSTR	164	288	4
NMSV_	164	288	4	96	96	5
CNSI_	165	96	1	0	192	3
CNSI_	165	96	5	0	192	7
BXHLD	166	0	3	96
BXHLD	166	0	7	96
BRHLD	166	144	0	96
BRHLD	166	144	4	96
NMTTP	166	288	0	D	0	M1
NMTTP	166	288	4	D	0	M1
NMTTP	166	304	3	A	0	M1
NMTTP	166	304	7	A	0	M1
NMTTP	166	320	3	D	0	M1
NMTTP	166	320	7	D	0	M1
NMTTP	166	336	2	A	0	M1
NMTTP	166	336	6	A	0	M1
NMTTP	166	352	2	D	0	M1
NMTTP	166	352	6	D	0	M1
NMTTP	166	368	1	A	0	M1
NMTTP	166	368	5	A	0	M1
NMTTP	167	0	1	D	1	M1
NMTTP	167	0	5	D	0	M1

T_REC_TAP	539
T_REC_BRK	72
T_REC_XTP	52
T_REC_BXX	10
T_REC_HLD	66
T_REC_XHO	14
T_REC_BHO	4
T_REC_BXH	2
T_REC_STR	82
T_REC_BST	7
T_REC_XST	24
T_REC_XBS	2
T_REC_TTP	53
T_REC_THO	0
T_REC_SLD	113
T_REC_BSL	11
T_REC_ALL	1051
T_NUM_TAP	750
T_NUM_BRK	108
T_NUM_HLD	80
T_NUM_SLD	113
T_NUM_ALL	1051
T_JUDGE_TAP	841
T_JUDGE_HLD	138
T_JUDGE_SLD	124
T_JUDGE_ALL	1103
TTM_EACHPAIRS	195
TTM_SCR_TAP	375000
TTM_SCR_BRK	280800
TTM_SCR_HLD	80000
TTM_SCR_SLD	169500
TTM_SCR_ALL	905300
TTM_SCR_S	867700
TTM_SCR_SS	894500
TTM_RAT_ACV	10120

