VERSION	0.00.00	1.05.00
FES_MODE	0
BPM_DEF	169.000	268.000	268.000	134.000
MET_DEF	4	4
RESOLUTION	384
CLK_DEF	576
COMPATIBLE_CODE	MA2

BPM	0	0	169.000
BPM	3	288	164.000
BPM	4	0	159.000
BPM	4	96	154.000
BPM	4	192	149.000
BPM	4	288	144.000
BPM	5	0	139.000
BPM	5	96	134.000
BPM	9	288	268.000
MET	0	0	4	3
MET	6	288	4	4

NMHLD	1	192	2	288
NMHLD	2	96	3	288
NMHLD	3	0	4	288
NMSTR	3	288	5
NMSCR	3	288	5	96	384	2
NMTTP	5	96	0	C	0	M1
NMSTR	6	288	7
NMSCL	6	288	7	96	192	4
NMSTR	7	288	0
NMSCR	7	288	0	96	192	3
NMHLD	8	288	4	384
NMTHO	9	288	0	768	C	1	M1
EXTAP	12	288	0
EXTAP	12	288	7
EXTAP	13	0	0
EXTAP	13	0	7
EXTAP	13	96	0
EXTAP	13	96	7
NMTAP	13	288	1
NMTAP	14	0	1
NMTAP	14	96	0
NMTAP	14	288	6
NMTAP	15	0	6
NMTAP	15	96	7
NMTAP	15	288	5
NMTAP	16	0	5
NMTAP	16	96	4
NMTAP	16	192	4
NMTAP	16	288	6
NMTAP	17	96	0
NMTAP	17	96	7
NMTAP	17	288	2
NMTAP	18	0	2
NMTAP	18	96	3
NMTAP	18	288	5
NMTAP	19	0	5
NMTAP	19	96	4
NMTAP	19	288	3
NMTAP	20	0	2
NMTAP	20	96	1
NMTAP	20	288	0
NMTAP	20	288	7
BRTAP	21	96	1
BRTAP	21	96	6
NMTAP	21	288	5
NMTAP	22	0	5
NMTAP	22	96	4
NMTAP	22	192	6
NMTAP	22	288	2
NMTAP	23	0	2
NMTAP	23	96	3
NMTAP	23	192	1
NMTAP	23	288	7
NMTAP	24	0	7
NMTAP	24	96	0
NMTAP	24	192	6
NMTAP	24	288	1
NMTAP	24	288	5
NMTAP	25	96	3
NMTAP	25	96	7
NMTAP	25	288	2
NMTAP	26	0	2
NMTAP	26	96	3
NMTAP	26	192	1
NMTAP	26	288	5
NMTAP	27	0	5
NMTAP	27	96	4
NMTAP	27	192	6
NMTAP	27	288	0
NMTAP	28	0	1
NMTAP	28	96	2
NMTAP	28	192	3
NMTAP	28	288	4
NMTAP	29	0	5
NMTAP	29	96	6
NMTAP	29	96	7
NMSTR	29	288	0
NMSI_	29	288	0	96	288	3
NMSTR	29	288	7
NMSI_	29	288	7	96	288	4
NMTAP	31	288	6
NMHLD	32	0	6	480
NMTAP	32	96	4
NMTAP	32	288	5
NMTAP	33	0	5
NMTAP	33	96	4
NMTAP	33	288	5
NMHLD	34	0	5	384
NMTAP	34	96	4
NMTAP	34	288	3
NMTAP	35	0	3
NMTAP	35	96	2
NMTAP	35	96	4
NMTAP	35	288	1
NMHLD	36	0	1	480
NMTAP	36	96	3
NMTAP	36	288	2
NMTAP	37	0	2
NMTAP	37	96	3
NMTAP	37	288	2
NMTAP	38	0	2
NMSTR	38	96	1
NMSCR	38	96	1	96	288	5
NMTAP	38	96	3
NMTAP	39	288	6
NMHLD	40	0	6	480
NMTAP	40	96	4
NMTAP	40	288	7
NMTAP	41	0	7
NMTAP	41	96	0
NMTAP	41	288	2
NMHLD	42	0	2	480
NMTAP	42	96	0
NMTAP	42	288	3
NMTAP	43	0	3
NMTAP	43	96	4
NMTAP	43	288	5
NMTAP	44	0	5
NMTAP	44	96	4
NMTAP	44	96	6
NMTAP	44	288	2
NMTAP	45	0	2
NMTAP	45	96	1
NMTAP	45	96	3
NMTAP	45	288	4
NMTAP	45	288	5
NMTAP	46	96	6
NMTAP	46	96	7
NMTAP	46	288	0
NMTAP	46	288	7
BRTAP	47	96	1
BRTAP	47	96	6
NMSTR	47	288	5
NMSCL	47	288	5	96	192	2
NMTAP	48	192	1
NMSTR	48	288	1
NMSCL	48	288	1	96	192	6
NMTAP	49	192	5
NMHLD	49	288	5	192
NMHLD	50	96	7	192
NMTAP	50	288	0
EXTAP	51	0	1
EXTAP	51	0	7
EXTAP	51	96	1
EXTAP	51	96	7
NMSTR	51	288	1
NMSCR	51	288	1	96	192	4
NMTAP	52	192	5
NMSTR	52	288	5
NMSCR	52	288	5	96	192	0
NMTAP	53	192	1
EXHLD	53	288	1	144
EXTAP	54	48	0
NMTAP	54	192	2
NMTAP	54	192	7
NMTAP	54	288	2
NMTAP	54	288	7
NMTAP	55	288	6
NMTAP	55	288	7
NMTAP	56	0	6
NMTAP	56	0	7
NMTAP	56	96	0
NMTAP	56	96	5
NMTAP	56	288	2
NMTAP	56	288	7
NMTAP	57	96	0
NMTAP	57	192	1
NMTAP	57	288	2
NMTAP	58	0	3
NMTAP	58	96	4
NMTAP	58	96	5
NMTAP	58	288	7
NMTAP	59	0	0
NMTAP	59	0	6
NMTAP	59	96	0
NMTAP	59	96	6
NMHLD	59	288	1	144
NMHLD	60	48	2	144
NMTAP	60	192	3
NMTAP	60	288	3
NMTAP	61	96	4
NMTAP	61	96	6
NMHLD	61	288	7	144
NMHLD	62	48	5	144
NMTAP	62	192	4
NMTAP	62	288	4
NMTAP	63	96	3
NMTAP	63	96	4
NMTAP	63	288	0
NMTAP	63	288	1
NMTAP	64	0	0
NMTAP	64	0	1
NMTAP	64	96	2
NMTAP	64	96	7
NMTAP	64	288	0
NMTAP	64	288	5
NMTAP	65	96	7
NMTAP	65	192	6
NMTAP	65	288	5
NMTAP	66	0	4
NMTAP	66	96	2
NMTAP	66	96	3
NMTAP	66	288	0
NMTAP	67	0	1
NMTAP	67	0	7
NMTAP	67	96	1
NMTAP	67	96	7
NMHLD	67	288	6	144
NMHLD	68	48	5	144
NMTAP	68	192	4
NMTAP	68	288	4
NMTAP	69	96	2
NMTAP	69	96	3
NMHLD	69	288	1	144
NMHLD	70	48	2	144
NMTAP	70	192	3
NMSTR	70	288	3
NMSF_	70	288	3	96	144	7
NMSTR	71	288	0
NMSCR	71	288	0	96	192	3
NMSTR	72	288	7
NMSCL	72	288	7	96	192	4
EXTAP	74	0	0
EXTAP	74	0	1
EXTAP	74	144	0
EXTAP	74	144	7
BXTAP	74	288	6
BXTAP	74	288	7
NMTAP	75	288	1
NMTAP	76	0	1
NMTAP	76	96	3
NMTAP	76	288	4
NMTAP	77	0	4
NMTAP	77	96	2
NMTAP	77	288	1
NMTAP	78	0	0
NMTAP	78	96	4
NMTAP	78	192	5
NMTAP	78	288	7
NMTAP	79	0	7
NMTAP	79	96	6
NMTAP	79	96	7
NMTAP	79	288	6
NMTAP	80	0	6
NMTAP	80	96	4
NMTAP	80	288	3
NMTAP	81	0	3
NMTAP	81	96	5
NMTAP	81	288	6
NMTAP	82	0	7
NMTAP	82	96	3
NMTAP	82	192	2
NMTAP	82	288	0
NMTAP	83	0	0
BRTAP	83	96	1
BRTAP	83	96	7
NMSTR	83	288	2
NMSI_	83	288	2	96	192	5
NMSTR	84	288	6
NMSCL	84	288	6	96	192	3
NMTTP	85	288	1	B	0	M1
NMTTP	86	0	2	B	0	M1
NMTTP	86	96	3	B	0	M1
NMTTP	86	288	6	B	0	M1
NMTTP	87	0	5	B	0	M1
NMTTP	87	96	4	B	0	M1
NMSTR	87	288	3
NMSCL	87	288	3	96	192	0
NMSTR	88	288	6
NMSCL	88	288	6	96	192	3
NMTTP	89	288	2	E	0	M1
NMTTP	90	0	3	E	0	M1
NMTTP	90	96	4	E	0	M1
NMTTP	90	288	5	B	0	M1
NMTTP	90	288	6	B	0	M1
NMTTP	90	288	7	E	0	M1
NMTTP	91	96	1	B	0	M1
NMTTP	91	96	1	E	0	M1
NMTTP	91	96	2	B	0	M1
NMTAP	91	288	6
NMTAP	92	0	6
NMTAP	92	96	7
NMTAP	92	288	1
NMTAP	93	0	1
NMTAP	93	96	0
NMTAP	93	288	2
NMTAP	93	288	7
NMTAP	94	0	6
NMTAP	94	96	0
NMTAP	94	96	5
NMTAP	94	192	1
NMTAP	94	288	2
NMTAP	94	288	7
NMTAP	95	0	6
NMTAP	95	96	1
NMTAP	95	96	5
NMTAP	95	288	2
NMTAP	96	0	2
NMTAP	96	96	0
NMTAP	96	288	5
NMTAP	97	0	5
NMTAP	97	96	7
NMTAP	97	288	0
NMTAP	97	288	7
NMTAP	98	0	0
NMTAP	98	0	7
NMTAP	98	96	0
NMTAP	98	96	7
BXTAP	98	240	1
BXTAP	98	240	6
NMHLD	99	288	2	384
NMHLD	100	288	3	384
NMHLD	101	288	4	384
NMTAP	102	288	5
NMTAP	103	96	4
NMTAP	103	96	5
EXHLD	103	288	3	144
EXHLD	103	288	5	144
EXTAP	104	192	2
EXTAP	104	192	4
EXHLD	104	288	2	144
EXHLD	104	288	4	144
NMTAP	105	192	5
NMHLD	105	288	5	192
NMHLD	106	96	7	192
NMHLD	106	288	0	192
NMHLD	107	96	2	192
NMSTR	107	288	3
NMSCL	107	288	3	96	288	0
NMSCR	107	288	3	96	288	6
NMTAP	109	96	7
NMTAP	109	192	7
EXTAP	110	0	3
EXTAP	110	0	4
EXTAP	110	144	2
EXTAP	110	144	5
BXTAP	110	288	1
BXTAP	110	288	6
NMSTR	111	288	2
BRSXR	111	288	2	96	672	4
NMSTR	111	288	5
BRSXL	111	288	5	96	672	3
NMTAP	114	288	3
NMTAP	114	336	4
NMTAP	115	0	3
NMTAP	115	96	2
NMTAP	115	96	5
BXTAP	115	288	6
BXTAP	115	288	7
NMSTR	116	0	6
NMSI_	116	0	6	96	96	3
NMSTR	116	0	7
NMSI_	116	0	7	96	96	3
NMTAP	116	288	0
NMTAP	116	288	1
NMSTR	117	0	0
NMSI_	117	0	0	96	96	4
NMSTR	117	0	1
NMSI_	117	0	1	96	96	4
NMHLD	117	288	6	96
NMHLD	117	288	7	96
NMHLD	118	48	0	96
NMHLD	118	48	5	96
NMTAP	118	192	1
NMTAP	118	192	4
NMSTR	118	288	2
NMSUR	118	288	2	96	192	7
NMSTR	118	288	3
NMSCR	118	288	3	96	192	6
BXTAP	119	288	0
BXTAP	119	288	1
NMSTR	120	0	0
NMSI_	120	0	0	96	96	4
NMSTR	120	0	1
NMSI_	120	0	1	96	96	4
NMTAP	120	288	6
NMTAP	120	288	7
NMSTR	121	0	6
NMSI_	121	0	6	96	96	3
NMSTR	121	0	7
NMSI_	121	0	7	96	96	3
NMTAP	121	288	0
NMTAP	121	288	1
NMTAP	122	0	0
NMTAP	122	0	1
NMTAP	122	96	2
NMTAP	122	192	3
NMTAP	122	288	4
NMTAP	122	288	5
NMTAP	123	0	6
NMTAP	123	96	0
NMTAP	123	96	7
NMHLD	123	288	4	96
NMHLD	123	288	5	96
NMHLD	124	48	3	96
NMHLD	124	48	4	96
EXTAP	124	192	2
EXTAP	124	192	3
NMTAP	124	288	1
NMTAP	124	288	3
NMTAP	125	0	0
NMTAP	125	96	4
NMTAP	125	96	6
NMTAP	125	192	7
NMHLD	125	288	0	96
NMHLD	125	288	1	96
NMHLD	126	48	0	96
NMHLD	126	48	7	96
NMSTR	126	192	6
NMSI_	126	192	6	96	96	3
NMSTR	126	192	7
NMSI_	126	192	7	96	96	2
NMTAP	127	96	1
NMTAP	127	96	4
NMTAP	127	288	0
NMHLD	128	0	0	1152
NMTAP	128	96	3
NMTAP	128	192	3
NMTAP	128	288	1
NMTAP	129	0	1
NMTAP	129	96	7
NMTAP	129	192	7
NMTAP	129	288	5
NMTAP	130	0	5
NMTAP	130	96	3
NMTAP	130	192	3
NMTAP	130	288	1
NMTAP	131	0	1
BRTAP	131	96	2
BRTAP	131	96	7
NMSTR	131	288	1
NMSI_	131	288	1	96	96	4
NMSTR	132	96	5
NMSI_	132	96	5	96	96	0
NMSTR	132	288	2
NMSI_	132	288	2	96	96	7
NMSTR	133	96	6
NMSI_	133	96	6	96	96	3
NMTAP	133	288	2
NMTAP	134	0	2
NMTAP	134	96	1
NMTAP	134	96	3
NMTAP	134	192	0
NMTAP	134	288	7
NMTAP	135	0	6
NMTAP	135	96	4
NMTAP	135	96	5
NMTAP	135	288	7
NMHLD	136	0	7	1152
NMTAP	136	96	4
NMTAP	136	192	4
NMTAP	136	288	6
NMTAP	137	0	6
NMTAP	137	96	0
NMTAP	137	192	0
NMTAP	137	288	2
NMTAP	138	0	2
NMTAP	138	96	4
NMTAP	138	192	4
NMTAP	138	288	6
NMTAP	139	0	6
BXTAP	139	96	0
BXTAP	139	96	5
NMSTR	139	288	6
NMSCL	139	288	6	96	192	2
NMTAP	140	192	1
NMTAP	140	288	1
NMTAP	141	0	3
NMTAP	141	96	4
NMTAP	141	192	6
NMHLD	141	288	6	96
NMHLD	141	288	7	96
NMHLD	142	48	0	96
NMHLD	142	48	1	96
NMTAP	142	192	0
NMTAP	142	192	7
NMSTR	142	288	0
NMSCR	142	288	0	96	96	3
NMSTR	142	288	7
NMSCL	142	288	7	96	96	4
NMTAP	143	288	4
NMHLD	143	288	5	192
NMTTP	144	96	6	B	1	M1
NMTTP	144	96	6	E	0	M1
NMTTP	144	96	7	E	0	M1
NMHLD	144	288	2	192
NMTAP	144	288	3
NMTTP	145	96	1	B	1	M1
NMTTP	145	96	1	E	0	M1
NMTTP	145	96	2	E	0	M1
BXTAP	146	0	6
BXTAP	146	0	7
BXTAP	146	144	0
BXTAP	146	144	1
BXHLD	146	288	0	192
BXHLD	146	288	7	192
NMTAP	147	288	4
NMTAP	147	288	5
EXTAP	148	0	6
EXTAP	148	48	6
EXTAP	148	144	7
EXTAP	148	192	7
NMTAP	149	0	0
NMTAP	149	0	1
NMTAP	149	96	0
NMTAP	149	96	1
NMTAP	149	288	2
NMTAP	149	288	3
EXTAP	150	0	1
EXTAP	150	48	1
EXTAP	150	144	0
EXTAP	150	192	0
NMTAP	151	0	6
NMTAP	151	0	7
NMTAP	151	96	6
NMTAP	151	96	7
NMTAP	151	288	4
NMTAP	151	288	5
EXTAP	152	0	6
EXTAP	152	48	6
EXTAP	152	144	7
EXTAP	152	192	7
NMTAP	153	0	0
NMTAP	153	0	1
NMTAP	153	96	0
NMTAP	153	96	1
NMTAP	153	288	2
NMTAP	153	288	3
EXTAP	154	0	1
EXTAP	154	48	1
EXTAP	154	144	4
EXTAP	154	192	4
NMTAP	155	0	0
NMTAP	155	0	7
NMTAP	155	96	0
NMTAP	155	96	7
NMTAP	155	288	1
NMTAP	155	288	3
EXTAP	156	0	0
EXTAP	156	48	0
EXTAP	156	144	6
EXTAP	156	192	6
NMTAP	157	0	5
NMTAP	157	0	7
NMTAP	157	96	5
NMTAP	157	96	7
NMTAP	157	288	4
NMTAP	157	288	6
EXTAP	158	0	7
EXTAP	158	48	7
EXTAP	158	144	1
EXTAP	158	192	1
NMTAP	159	0	0
NMTAP	159	0	2
NMTAP	159	96	0
NMTAP	159	96	2
NMTAP	159	288	1
NMTAP	159	288	3
EXTAP	160	0	0
EXTAP	160	48	0
EXTAP	160	144	6
EXTAP	160	192	6
NMTAP	161	0	5
NMTAP	161	0	7
NMTAP	161	96	5
NMTAP	161	96	7
NMTAP	161	288	4
NMTAP	161	288	6
EXTAP	162	0	5
EXTAP	162	48	5
EXTAP	162	144	3
EXSTR	162	192	3
NMSCL	162	192	3	96	192	0
NMSCR	162	192	3	96	192	6
NMTTP	163	288	5	B	0	M1
NMTTP	163	288	5	E	0	M1
NMTTP	163	288	6	B	0	M1
NMTTP	163	288	7	E	0	M1
NMTTP	164	288	1	B	0	M1
NMTTP	164	288	1	E	0	M1
NMTTP	164	288	2	B	0	M1
NMTTP	164	288	3	E	0	M1
EXTAP	165	96	4
EXTAP	165	192	4
BRTAP	166	0	5
BRTAP	166	0	7
BRTAP	166	144	0
BRTAP	166	144	2
BRSTR	166	288	1
NMSI_	166	288	1	96	96	4
BRSTR	166	288	6
NMSI_	166	288	6	96	96	3

T_REC_TAP	338
T_REC_BRK	12
T_REC_XTP	56
T_REC_BXX	16
T_REC_HLD	46
T_REC_XHO	5
T_REC_BHO	0
T_REC_BXH	2
T_REC_STR	39
T_REC_BST	2
T_REC_XST	1
T_REC_XBS	0
T_REC_TTP	30
T_REC_THO	1
T_REC_SLD	42
T_REC_BSL	2
T_REC_ALL	592
T_NUM_TAP	464
T_NUM_BRK	34
T_NUM_HLD	52
T_NUM_SLD	42
T_NUM_ALL	592
T_JUDGE_TAP	494
T_JUDGE_HLD	156
T_JUDGE_SLD	44
T_JUDGE_ALL	694
TTM_EACHPAIRS	124
TTM_SCR_TAP	232000
TTM_SCR_BRK	88400
TTM_SCR_HLD	52000
TTM_SCR_SLD	63000
TTM_SCR_ALL	435400
TTM_SCR_S	419050
TTM_SCR_SS	432000
TTM_RAT_ACV	10078

