VERSION	0.00.00	1.05.00
FES_MODE	0
BPM_DEF	169.000	268.000	268.000	134.000
MET_DEF	4	4
RESOLUTION	384
CLK_DEF	576
COMPATIBLE_CODE	MA2

BPM	0	0	169.000
BPM	3	288	164.000
BPM	4	0	159.000
BPM	4	96	154.000
BPM	4	192	149.000
BPM	4	288	144.000
BPM	5	0	139.000
BPM	5	96	134.000
BPM	9	288	268.000
MET	0	0	4	3
MET	6	288	4	4

NMHLD	6	288	5	192
NMHLD	7	96	4	192
NMHLD	7	288	3	192
NMTAP	8	96	2
NMTAP	8	288	2
NMTAP	8	288	3
NMTAP	9	96	3
NMTAP	9	96	4
NMSTR	9	288	3
NMSXR	9	288	3	96	1056	0
NMSTR	9	288	4
NMSXL	9	288	4	96	1056	7
NMTAP	13	288	0
NMTAP	14	96	0
NMTAP	14	288	1
NMTAP	15	96	1
NMTAP	15	288	2
NMTAP	16	96	2
NMTAP	16	288	3
NMTAP	16	288	4
NMTAP	17	288	4
NMTAP	18	96	4
NMTAP	18	288	5
NMTAP	19	96	5
NMTAP	19	288	6
NMTAP	20	96	6
BXTAP	20	288	0
BXTAP	20	288	7
NMTAP	21	288	7
NMTAP	22	96	7
NMTAP	22	288	6
NMTAP	23	96	6
NMTAP	23	288	5
NMTAP	24	96	5
NMTAP	24	288	3
NMTAP	24	288	4
NMTAP	25	288	3
NMTAP	26	96	3
NMTAP	26	288	2
NMTAP	27	96	2
NMTAP	27	288	1
NMTAP	28	96	1
BXTAP	28	288	0
BXTAP	28	288	7
NMHLD	29	288	0	384
NMHLD	29	288	7	384
NMHLD	31	288	1	192
NMTAP	32	96	0
NMTAP	32	288	0
NMTAP	32	288	1
NMTAP	33	96	0
NMTAP	33	96	1
NMHLD	33	288	2	192
NMTAP	34	96	3
NMTAP	34	288	2
NMTAP	34	288	3
NMTAP	35	96	2
NMTAP	35	96	3
NMHLD	35	288	5	192
NMTAP	36	96	4
NMTAP	36	288	4
NMTAP	36	288	5
NMTAP	37	96	4
NMTAP	37	96	5
NMHLD	37	288	6	192
NMTAP	38	96	7
NMTAP	38	288	6
NMTAP	38	288	7
NMHLD	39	288	6	192
NMTAP	40	96	7
NMTAP	40	288	6
NMTAP	40	288	7
NMTAP	41	96	6
NMTAP	41	96	7
NMHLD	41	288	5	192
NMTAP	42	96	4
NMTAP	42	288	4
NMTAP	42	288	5
NMTAP	43	96	4
NMTAP	43	96	5
NMHLD	43	288	2	192
NMTAP	44	96	3
NMTAP	44	288	2
NMTAP	44	288	3
NMTAP	45	96	2
NMTAP	45	96	3
NMHLD	45	288	1	192
NMTAP	46	96	0
NMTAP	46	288	0
NMTAP	46	288	1
NMTTP	47	288	1	B	0	L1
NMTTP	48	96	2	B	0	L1
NMTTP	48	288	3	B	0	L1
NMTTP	49	96	4	B	0	L1
NMTTP	49	288	5	B	0	L1
NMTTP	50	96	6	B	0	L1
NMTTP	50	288	0	C	0	L1
NMTTP	51	288	0	B	0	L1
NMTTP	51	288	7	B	0	L1
NMTTP	52	288	4	B	0	L1
NMTTP	52	288	5	B	0	L1
NMTTP	53	288	2	B	0	L1
NMTTP	53	288	3	B	0	L1
EXTAP	55	288	5
EXTAP	56	0	5
EXTAP	56	96	5
EXTAP	56	288	6
EXTAP	56	288	7
EXTAP	57	0	6
EXTAP	57	0	7
EXTAP	57	96	6
EXTAP	57	96	7
EXTAP	57	288	0
EXTAP	58	0	0
EXTAP	58	96	0
EXTAP	58	288	0
EXTAP	58	288	1
NMTAP	59	288	2
NMTAP	60	0	2
NMTAP	60	96	2
NMTAP	60	288	0
NMTAP	60	288	1
NMTAP	61	0	0
NMTAP	61	0	1
NMTAP	61	96	0
NMTAP	61	96	1
NMTAP	61	288	7
NMTAP	62	0	7
NMTAP	62	96	7
NMTAP	62	288	6
NMTAP	62	288	7
NMTAP	63	288	6
NMTAP	64	0	6
NMTAP	64	96	6
NMTAP	64	288	4
NMTAP	64	288	5
NMTAP	65	0	4
NMTAP	65	0	5
NMTAP	65	96	4
NMTAP	65	96	5
NMTAP	65	288	3
NMTAP	66	0	3
NMTAP	66	96	3
NMTAP	66	288	2
NMTAP	66	288	3
NMTAP	67	288	1
NMTAP	68	0	1
NMTAP	68	96	1
NMTAP	68	288	2
NMTAP	68	288	3
NMTAP	69	0	2
NMTAP	69	0	3
NMTAP	69	96	2
NMTAP	69	96	3
NMTAP	69	288	4
NMTAP	70	0	4
NMTAP	70	96	4
BXTAP	70	288	4
BXTAP	70	288	5
NMHLD	71	288	5	192
NMTAP	72	96	4
NMHLD	72	288	2	192
NMTAP	73	96	3
NMHLD	73	288	3	384
NMHLD	73	288	4	384
NMSTR	75	288	2
NMSI_	75	288	2	96	288	5
NMSTR	77	288	6
NMSI_	77	288	6	96	288	3
NMSTR	79	288	1
NMSI_	79	288	1	96	288	5
NMSTR	81	288	6
NMSI_	81	288	6	96	288	3
NMTAP	83	288	3
NMTAP	84	0	3
NMTAP	84	96	3
NMTAP	84	288	2
NMTAP	85	0	2
NMTAP	85	96	2
NMTAP	85	288	1
NMTAP	86	0	1
NMTAP	86	96	1
NMTAP	86	288	0
NMTAP	87	0	0
NMTAP	87	96	0
NMTAP	87	288	7
NMTAP	88	0	7
NMTAP	88	96	7
NMTAP	88	288	6
NMTAP	89	0	6
NMTAP	89	96	6
NMTAP	89	288	5
NMTAP	90	0	5
NMTAP	90	96	5
NMTAP	90	288	3
NMTAP	90	288	4
NMTAP	91	288	4
NMTAP	92	0	4
NMTAP	92	96	5
NMTAP	92	288	6
NMTAP	93	0	6
NMTAP	93	96	7
NMTAP	93	288	0
NMTAP	94	0	0
NMTAP	94	96	1
NMTAP	94	288	2
NMTAP	95	0	2
NMTAP	95	96	2
NMTAP	95	96	3
NMTAP	95	288	3
NMTAP	96	0	3
NMTAP	96	96	2
NMTAP	96	288	1
NMTAP	97	0	1
NMTAP	97	96	0
NMTAP	97	288	7
NMTAP	98	0	7
NMTAP	98	96	6
EXTAP	98	288	4
EXTAP	98	288	5
NMHLD	99	288	6	384
NMHLD	100	288	5	384
NMHLD	101	288	4	384
NMTAP	102	288	3
NMHLD	103	288	1	384
NMHLD	104	288	2	384
NMHLD	105	288	3	384
NMTAP	106	288	4
NMTTP	107	288	2	B	0	L1
NMTTP	107	288	3	B	0	L1
NMTTP	108	288	0	B	0	L1
NMTTP	108	288	1	B	0	L1
NMTTP	109	288	6	B	0	L1
NMTTP	109	288	7	B	0	L1
NMTTP	110	288	4	B	0	L1
NMTTP	110	288	5	B	0	L1
NMTTP	111	288	2	B	0	L1
NMTTP	112	96	3	B	0	L1
NMTTP	112	288	4	B	0	L1
NMTTP	113	96	5	B	0	L1
NMTTP	113	288	0	C	1	L1
NMTAP	115	288	6
NMTAP	116	0	6
NMTAP	116	96	5
NMTAP	116	192	5
NMTAP	116	288	4
NMTAP	117	0	4
NMTAP	117	96	2
NMTAP	117	96	3
NMTAP	117	288	1
NMTAP	118	0	1
NMTAP	118	96	2
NMTAP	118	192	2
NMTAP	118	288	3
NMTAP	119	0	3
NMTAP	119	96	4
NMTAP	119	96	5
NMTAP	119	288	5
NMTAP	120	0	5
NMTAP	120	96	6
NMTAP	120	192	6
NMTAP	120	288	7
NMTAP	121	0	7
NMTAP	121	96	0
NMTAP	121	96	1
NMTAP	121	288	2
NMTAP	122	0	2
NMTAP	122	96	1
NMTAP	122	192	1
NMTAP	122	288	0
NMTAP	123	0	0
NMTAP	123	96	6
NMTAP	123	96	7
NMTAP	123	288	6
NMTAP	124	0	6
NMTAP	124	96	5
NMTAP	124	192	5
NMTAP	124	288	4
NMTAP	125	0	4
NMTAP	125	96	2
NMTAP	125	96	3
NMTAP	125	288	1
NMTAP	126	0	1
NMTAP	126	96	2
NMTAP	126	192	2
NMTAP	126	288	3
NMTAP	127	0	3
NMTAP	127	96	4
NMTAP	127	96	5
NMTAP	127	288	5
NMTAP	128	0	5
NMTAP	128	96	6
NMTAP	128	96	7
NMTAP	128	192	6
NMTAP	128	192	7
NMTAP	128	288	0
NMTAP	129	0	0
NMTAP	129	96	0
NMTAP	129	96	1
NMTAP	129	288	2
NMTAP	130	0	2
NMTAP	130	96	0
NMTAP	130	96	1
NMTAP	130	192	0
NMTAP	130	192	1
NMTAP	130	288	7
NMTAP	131	0	7
NMTAP	131	96	6
NMTAP	131	96	7
NMTAP	131	288	6
NMTAP	132	0	6
NMTAP	132	96	4
NMTAP	132	96	5
NMTAP	132	192	4
NMTAP	132	192	5
NMTAP	132	288	3
NMTAP	133	0	3
NMTAP	133	96	2
NMTAP	133	96	3
NMTAP	133	288	1
NMTAP	134	0	1
NMTAP	134	96	2
NMTAP	134	96	3
NMTAP	134	192	2
NMTAP	134	192	3
NMTAP	134	288	4
NMTAP	135	0	4
NMTAP	135	96	4
NMTAP	135	96	5
NMTAP	135	288	3
NMTAP	136	0	3
NMTAP	136	96	2
NMTAP	136	192	2
NMTAP	136	288	1
NMTAP	137	0	1
NMTAP	137	96	0
NMTAP	137	96	7
NMTAP	137	288	7
NMTAP	138	0	7
NMTAP	138	96	6
NMTAP	138	192	6
NMTAP	138	288	5
NMTAP	139	0	5
NMTAP	139	96	3
NMTAP	139	96	4
NMTAP	139	288	4
NMTAP	140	0	4
NMTAP	140	96	5
NMTAP	140	192	5
NMTAP	140	288	6
NMTAP	141	0	6
NMTAP	141	96	0
NMTAP	141	96	7
NMTAP	141	288	0
NMTAP	142	0	0
NMTAP	142	96	1
NMTAP	142	192	1
NMTAP	142	288	2
NMTAP	143	0	2
NMTAP	143	96	3
NMTAP	143	96	4
NMHLD	143	288	4	192
NMHLD	143	288	5	192
NMHLD	144	288	2	192
NMHLD	144	288	3	192
EXTAP	145	288	3
EXTAP	145	288	4
EXTAP	146	96	2
EXTAP	146	96	5
BRTAP	146	288	1
BRTAP	146	288	6
NMTAP	147	288	0
NMTAP	148	0	0
NMTAP	148	96	0
NMTAP	148	288	0
NMTAP	148	288	1
NMTAP	149	0	0
NMTAP	149	0	1
NMTAP	149	96	0
NMTAP	149	96	1
NMTAP	149	288	2
NMTAP	150	0	2
NMTAP	150	96	2
NMTAP	150	288	2
NMTAP	150	288	3
NMTAP	151	0	2
NMTAP	151	0	3
NMTAP	151	96	2
NMTAP	151	96	3
NMTAP	151	288	4
NMTAP	152	0	4
NMTAP	152	96	4
NMTAP	152	288	4
NMTAP	152	288	5
NMTAP	153	0	4
NMTAP	153	0	5
NMTAP	153	96	4
NMTAP	153	96	5
NMTAP	153	288	6
NMTAP	154	0	6
NMTAP	154	96	6
NMTAP	154	288	6
NMTAP	154	288	7
NMTAP	155	288	6
NMTAP	155	288	7
NMTAP	156	0	6
NMTAP	156	0	7
NMTAP	156	96	6
NMTAP	156	96	7
NMTAP	156	288	5
NMTAP	157	0	5
NMTAP	157	96	5
NMTAP	157	288	3
NMTAP	157	288	4
NMTAP	158	0	3
NMTAP	158	0	4
NMTAP	158	96	3
NMTAP	158	96	4
NMTAP	158	288	2
NMTAP	159	0	2
NMTAP	159	96	2
NMTAP	159	288	0
NMTAP	159	288	1
NMTAP	160	0	0
NMTAP	160	0	1
NMTAP	160	96	0
NMTAP	160	96	1
NMTAP	160	288	2
NMTAP	161	0	2
NMTAP	161	96	2
NMTAP	161	288	3
NMTAP	161	288	4
NMTAP	162	0	3
NMTAP	162	0	4
NMTAP	162	96	3
NMTAP	162	96	4
EXTAP	162	288	2
EXTAP	162	288	5
EXHLD	163	288	1	384
EXHLD	163	288	6	384
EXSTR	165	288	0
NMSCR	165	288	0	96	480	3
EXSTR	165	288	7
NMSCL	165	288	7	96	480	4

T_REC_TAP	343
T_REC_BRK	2
T_REC_XTP	22
T_REC_BXX	6
T_REC_HLD	27
T_REC_XHO	2
T_REC_BHO	0
T_REC_BXH	0
T_REC_STR	6
T_REC_BST	0
T_REC_XST	2
T_REC_XBS	0
T_REC_TTP	26
T_REC_THO	0
T_REC_SLD	8
T_REC_BSL	0
T_REC_ALL	444
T_NUM_TAP	399
T_NUM_BRK	8
T_NUM_HLD	29
T_NUM_SLD	8
T_NUM_ALL	444
T_JUDGE_TAP	407
T_JUDGE_HLD	88
T_JUDGE_SLD	8
T_JUDGE_ALL	503
TTM_EACHPAIRS	94
TTM_SCR_TAP	199500
TTM_SCR_BRK	20800
TTM_SCR_HLD	29000
TTM_SCR_SLD	12000
TTM_SCR_ALL	261300
TTM_SCR_S	252700
TTM_SCR_SS	260500
TTM_RAT_ACV	10030

