VERSION	0.00.00	1.05.00
FES_MODE	0
BPM_DEF	169.000	268.000	268.000	134.000
MET_DEF	4	4
RESOLUTION	384
CLK_DEF	576
COMPATIBLE_CODE	MA2

BPM	0	0	169.000
BPM	3	288	164.000
BPM	4	0	159.000
BPM	4	96	154.000
BPM	4	192	149.000
BPM	4	288	144.000
BPM	5	0	139.000
BPM	5	96	134.000
BPM	9	288	268.000
MET	0	0	4	3
MET	6	288	4	4

NMTAP	6	288	7
NMTAP	7	96	7
NMTAP	7	288	7
NMTAP	8	96	7
NMTAP	8	288	0
NMTAP	9	96	0
NMHLD	9	288	0	768
NMHLD	9	288	7	768
NMTAP	13	288	7
NMTAP	14	96	7
NMTAP	14	288	7
NMTAP	15	288	6
NMTAP	16	96	6
NMTAP	16	288	6
NMTAP	17	288	5
NMTAP	18	96	5
NMTAP	18	288	5
NMTAP	19	288	4
NMTAP	20	96	4
NMTAP	20	288	3
NMTAP	20	288	4
NMTAP	21	288	3
NMTAP	22	96	3
NMTAP	22	288	3
NMTAP	23	288	2
NMTAP	24	96	2
NMTAP	24	288	2
NMTAP	25	288	1
NMTAP	26	96	1
NMTAP	26	288	1
NMTAP	27	288	0
NMTAP	28	96	0
NMTAP	28	288	0
NMTAP	28	288	7
BXTAP	29	288	0
BXTAP	29	288	7
NMSTR	31	288	0
NMSI_	31	288	0	96	480	3
NMTAP	34	288	4
NMSTR	35	288	4
NMSI_	35	288	4	96	480	7
NMTAP	38	288	0
NMSTR	39	288	0
NMSI_	39	288	0	96	480	4
NMTAP	42	288	5
NMSTR	43	288	6
NMSI_	43	288	6	96	480	2
EXTAP	46	288	0
NMTAP	47	288	0
NMTAP	48	96	0
NMTAP	48	288	0
NMTAP	49	288	0
NMTAP	49	288	1
NMTAP	50	288	0
NMTAP	50	288	1
NMTAP	51	288	7
NMTAP	52	96	7
NMTAP	52	288	7
NMTAP	53	288	6
NMTAP	53	288	7
NMTAP	54	288	6
NMTAP	54	288	7
BRTAP	55	288	0
NMTAP	56	96	0
NMTAP	56	288	1
NMTAP	57	96	1
NMTAP	57	288	2
NMTAP	58	96	2
NMTAP	58	288	2
NMTAP	58	288	3
NMTAP	59	288	4
NMTAP	60	96	4
NMTAP	60	288	5
NMTAP	61	96	5
NMTAP	61	288	6
NMTAP	62	96	6
NMTAP	62	288	6
NMTAP	62	288	7
NMTAP	63	288	7
NMTAP	64	96	7
NMTAP	64	288	6
NMTAP	65	96	6
NMTAP	65	288	5
NMTAP	66	96	5
NMTAP	66	288	3
NMTAP	66	288	4
NMTAP	67	288	3
NMTAP	68	96	3
NMTAP	68	288	2
NMTAP	69	96	2
NMTAP	69	288	1
NMTAP	70	96	1
EXTAP	70	288	0
EXTAP	70	288	7
NMTAP	71	288	0
NMTAP	72	96	0
NMTAP	72	288	7
NMTAP	73	96	7
EXHLD	73	288	0	384
EXHLD	73	288	7	384
NMSTR	75	288	0
NMSI_	75	288	0	96	480	4
NMTAP	78	288	5
NMSTR	79	288	6
NMSI_	79	288	6	96	480	2
NMTAP	82	288	1
NMHLD	83	288	0	384
NMHLD	83	288	1	384
NMHLD	85	288	2	384
NMHLD	85	288	3	384
NMHLD	87	288	4	384
NMHLD	87	288	5	384
NMHLD	89	288	6	384
NMHLD	89	288	7	384
NMTAP	91	288	6
NMTAP	91	288	7
NMTAP	92	96	6
NMTAP	92	96	7
NMTAP	92	288	6
NMTAP	92	288	7
NMTAP	93	288	4
NMTAP	93	288	5
NMTAP	94	96	4
NMTAP	94	96	5
NMTAP	94	288	4
NMTAP	94	288	5
NMTAP	95	288	2
NMTAP	95	288	3
NMTAP	96	96	2
NMTAP	96	96	3
NMTAP	96	288	2
NMTAP	96	288	3
NMTAP	97	288	0
NMTAP	97	288	1
NMTAP	98	96	0
NMTAP	98	96	1
NMTAP	98	288	0
NMTAP	98	288	1
NMTTP	99	288	1	E	0	L1
NMTTP	100	288	2	E	0	L1
NMTTP	101	288	3	E	0	L1
NMTTP	102	288	4	E	0	L1
NMTTP	103	288	5	E	0	L1
NMTTP	104	288	6	E	0	L1
NMTTP	105	288	7	E	0	L1
NMTTP	106	288	0	E	0	L1
NMTTP	107	288	0	B	0	L1
NMTTP	107	288	7	B	0	L1
NMTTP	108	288	1	B	0	L1
NMTTP	108	288	6	B	0	L1
NMTTP	109	288	0	C	1	L1
EXHLD	111	288	0	768
EXHLD	111	288	7	768
EXTAP	114	288	0
EXTAP	114	288	7
BXTAP	115	288	7
NMTAP	116	96	7
NMTAP	116	288	6
NMTAP	117	96	6
NMTAP	117	288	4
NMTAP	117	288	5
NMTAP	118	96	4
NMTAP	118	96	5
NMTAP	118	288	4
NMTAP	118	288	5
NMTAP	119	288	3
NMTAP	120	96	3
NMTAP	120	288	2
NMTAP	121	96	2
NMTAP	121	288	0
NMTAP	121	288	1
NMTAP	122	96	0
NMTAP	122	96	1
NMTAP	122	288	0
NMTAP	122	288	1
NMTAP	123	288	7
NMTAP	124	96	7
NMTAP	124	288	0
NMTAP	125	96	0
NMTAP	125	288	0
NMTAP	125	288	7
NMTAP	126	96	0
NMTAP	126	96	7
NMTAP	126	288	0
NMTAP	126	288	7
EXTAP	127	288	0
EXTAP	128	0	0
EXTAP	128	96	0
NMTAP	128	288	1
NMTAP	129	96	1
NMTAP	129	288	2
NMTAP	130	96	2
NMTAP	130	288	2
NMTAP	130	288	3
NMTAP	131	288	4
NMTAP	132	0	4
NMTAP	132	96	4
NMTAP	132	288	5
NMTAP	133	96	5
NMTAP	133	288	6
NMTAP	133	288	7
NMTAP	134	96	6
NMTAP	134	96	7
NMTAP	134	288	6
NMTAP	134	288	7
NMTAP	135	288	7
NMTAP	136	0	7
NMTAP	136	96	7
NMTAP	136	288	6
NMTAP	137	96	6
NMTAP	137	288	5
NMTAP	138	0	5
NMTAP	138	96	5
NMTAP	138	288	3
NMTAP	138	288	4
NMTAP	139	288	3
NMTAP	140	0	3
NMTAP	140	96	3
NMTAP	140	288	2
NMTAP	141	96	2
NMTAP	141	288	1
NMTAP	142	0	1
NMTAP	142	96	1
EXTAP	142	288	0
EXTAP	142	288	7
NMHLD	143	288	0	384
NMHLD	143	288	7	384
NMTAP	145	288	0
NMTAP	145	288	7
NMTAP	146	96	0
NMTAP	146	96	7
BXTAP	146	288	0
BXTAP	146	288	7
NMTAP	147	288	0
NMTAP	148	96	0
NMTAP	148	288	0
NMTAP	148	288	1
NMTAP	149	96	0
NMTAP	149	96	1
NMTAP	149	288	2
NMTAP	150	96	2
NMTAP	150	288	3
NMTAP	150	288	4
NMTAP	151	96	3
NMTAP	151	96	4
NMTAP	151	288	5
NMTAP	152	96	5
NMTAP	152	288	4
NMTAP	152	288	5
NMTAP	153	96	4
NMTAP	153	96	5
NMTAP	153	288	6
NMTAP	154	96	6
EXTAP	154	288	0
EXTAP	154	288	7
NMTAP	155	288	7
NMTAP	156	96	7
NMTAP	156	288	6
NMTAP	156	288	7
NMTAP	157	96	6
NMTAP	157	96	7
NMTAP	157	288	5
NMTAP	158	96	5
NMTAP	158	288	3
NMTAP	158	288	4
NMTAP	159	96	3
NMTAP	159	96	4
NMTAP	159	288	2
NMTAP	160	96	2
NMTAP	160	288	2
NMTAP	160	288	3
NMTAP	161	96	2
NMTAP	161	96	3
NMTAP	161	288	1
NMTAP	162	96	1
EXTAP	162	288	0
EXTAP	162	288	7
NMHLD	163	288	0	384
NMHLD	163	288	7	384
EXSTR	165	288	7
NMSI_	165	288	7	96	480	3

T_REC_TAP	216
T_REC_BRK	1
T_REC_XTP	14
T_REC_BXX	5
T_REC_HLD	14
T_REC_XHO	4
T_REC_BHO	0
T_REC_BXH	0
T_REC_STR	6
T_REC_BST	0
T_REC_XST	1
T_REC_XBS	0
T_REC_TTP	13
T_REC_THO	0
T_REC_SLD	7
T_REC_BSL	0
T_REC_ALL	281
T_NUM_TAP	250
T_NUM_BRK	6
T_NUM_HLD	18
T_NUM_SLD	7
T_NUM_ALL	281
T_JUDGE_TAP	256
T_JUDGE_HLD	88
T_JUDGE_SLD	7
T_JUDGE_ALL	351
TTM_EACHPAIRS	65
TTM_SCR_TAP	125000
TTM_SCR_BRK	15600
TTM_SCR_HLD	18000
TTM_SCR_SLD	10500
TTM_SCR_ALL	169100
TTM_SCR_S	163450
TTM_SCR_SS	168500
TTM_RAT_ACV	10035

