VERSION	0.00.00	1.05.00
FES_MODE	0
BPM_DEF	170.000	170.000	170.000	170.000
MET_DEF	4	4
RESOLUTION	384
CLK_DEF	384
COMPATIBLE_CODE	MA2

BPM	0	0	170.000
MET	0	0	4	4

EXHLD	1	0	6	96
EXHLD	1	0	7	96
NMHLD	1	192	0	96
NMHLD	1	192	7	96
NMTAP	2	0	0
NMTAP	2	0	1
NMTAP	2	48	0
NMHLD	2	48	1	288
NMTAP	2	144	2
NMTAP	2	192	2
EXTAP	2	288	0
EXHLD	2	336	0	192
NMTAP	3	96	7
NMHLD	3	144	7	192
NMTAP	3	288	6
NMHLD	3	336	6	336
NMTAP	4	48	5
NMTAP	4	144	7
EXTAP	4	192	7
EXTAP	4	288	5
NMHLD	5	0	6	96
NMHLD	5	0	7	96
NMHLD	5	192	0	96
NMHLD	5	192	7	96
NMSTR	6	0	0
NMSCL	6	0	0	96	96	5
NMHLD	6	0	1	192
NMTAP	6	336	6
NMTAP	6	336	7
NMHLD	7	0	6	192
NMSTR	7	0	7
NMSCR	7	0	7	96	96	2
NMTAP	7	288	0
NMTAP	7	288	7
NMTTP	8	0	7	E	0	M1
NMTTP	8	24	6	B	0	M1
NMTTP	8	48	5	B	0	M1
NMTTP	8	72	5	E	0	M1
NMTTP	8	96	1	E	0	M1
NMTTP	8	120	1	B	0	M1
NMTTP	8	144	2	B	0	M1
NMTTP	8	168	3	E	0	M1
NMTTP	8	192	7	A	0	M1
NMTTP	8	216	6	A	0	M1
NMTTP	8	240	5	A	0	M1
NMTTP	8	264	4	A	0	M1
EXTAP	8	288	1
NMTAP	9	0	7
NMTAP	9	48	6
NMSTR	9	96	5
NMSCR	9	96	5	96	48	0
NMTAP	9	192	1
NMTAP	9	288	2
NMSTR	9	336	2
NMSCL	9	336	2	96	48	7
NMTAP	10	48	6
NMTAP	10	144	5
NMHLD	10	192	5	96
NMTAP	10	288	6
NMTAP	11	0	0
NMTAP	11	48	1
NMSTR	11	96	2
NMSCL	11	96	2	96	48	7
NMTAP	11	192	6
NMTAP	11	288	5
NMSTR	11	336	5
NMSCR	11	336	5	96	48	0
NMTAP	12	48	1
NMTAP	12	144	2
NMHLD	12	192	2	96
NMTAP	12	288	3
NMTAP	13	0	4
NMTAP	13	48	5
NMSTR	13	96	6
NMSCL	13	96	6	96	48	3
NMTAP	13	192	2
NMTAP	13	288	1
NMSTR	13	336	1
NMSCR	13	336	1	96	48	4
NMTAP	14	48	5
NMTAP	14	144	6
NMHLD	14	192	6	96
NMTAP	14	288	5
NMTAP	15	0	3
NMTAP	15	48	2
NMSTR	15	96	1
NMSCR	15	96	1	96	48	4
NMTAP	15	192	5
NMTAP	15	288	6
NMSTR	15	336	7
NMSXL	15	336	7	96	240	2
NMSXR	15	336	7	96	240	4
EXTAP	17	0	0
EXHLD	17	0	7	72
NMHLD	17	72	6	120
NMTAP	17	144	5
NMHLD	17	192	5	96
NMTAP	17	288	4
NMHLD	18	0	3	72
NMHLD	18	72	2	120
NMTAP	18	144	1
NMHLD	18	192	1	96
EXTAP	18	288	0
EXTAP	18	336	0
EXHLD	19	0	7	72
NMHLD	19	72	6	120
NMTAP	19	144	5
NMHLD	19	192	5	96
NMTAP	19	288	4
NMHLD	20	0	3	72
NMHLD	20	72	2	120
NMTAP	20	144	1
EXSTR	20	192	1
NMSI_	20	192	1	96	48	6
EXTAP	20	288	5
NMHLD	21	0	4	72
NMHLD	21	72	5	120
NMTAP	21	144	6
NMHLD	21	192	6	96
NMTAP	21	288	7
NMHLD	22	0	0	72
NMHLD	22	72	1	120
NMTAP	22	144	2
EXTAP	22	192	2
NMTAP	22	288	3
NMTAP	22	288	4
NMTAP	22	336	3
NMTAP	22	336	4
NMTTP	23	96	0	B	0	M1
NMTTP	23	96	1	B	0	M1
NMTTP	23	96	2	E	0	M1
NMTTP	23	192	4	B	0	M1
NMTTP	23	192	5	B	0	M1
NMTTP	23	192	6	E	0	M1
NMTAP	23	288	2
NMTAP	23	288	7
NMSTR	23	336	2
BRSXL	23	336	2	96	144	0
NMHLD	23	336	7	240
NMTAP	24	240	1
NMTAP	24	240	6
BRTAP	24	288	3
BRTAP	24	288	4
EXSTR	25	0	1
NMSI_	25	0	1	96	48	5
EXTAP	25	0	3
NMTAP	25	72	0
NMSTR	25	96	1
NMSI_	25	96	1	96	48	4
NMTAP	25	168	7
NMTAP	25	192	1
NMSTR	25	288	5
NMSCR	25	288	5	96	48	0
NMSTR	25	336	0
NMSI_	25	336	0	96	48	4
NMTAP	26	48	2
NMTAP	26	96	1
NMTAP	26	192	5
NMSTR	26	192	7
NMSI_	26	192	7	96	48	3
NMTAP	26	240	0
NMTAP	26	288	1
NMTAP	26	288	7
EXSTR	27	0	1
NMSCR	27	0	1	96	96	5
NMSTR	27	96	5
NMSCL	27	96	5	96	96	1
NMTAP	27	192	0
NMTAP	27	240	7
NMTAP	27	288	6
NMSTR	27	336	5
NMSI_	27	336	5	96	48	1
NMTAP	28	48	0
NMTAP	28	48	5
NMSTR	28	96	2
NMSI_	28	96	2	96	48	6
NMTAP	28	192	2
NMTAP	28	192	7
NMTAP	28	240	5
NMSTR	28	288	4
NMSI_	28	288	4	96	48	1
NMSI_	28	288	4	96	48	7
BRTAP	29	0	4
NMTAP	29	96	2
NMTAP	29	96	6
NMSTR	29	192	2
NMSUL	29	192	2	96	144	1
NMSTR	29	240	3
NMSCR	29	240	3	96	96	0
NMTAP	29	288	2
NMTAP	29	336	3
NMTAP	30	96	2
NMTAP	30	96	7
NMTAP	30	192	3
NMTAP	30	192	6
NMSTR	30	288	4
NMSLL	30	288	4	96	96	0
NMSTR	30	288	5
NMSUL	30	288	5	96	96	7
BRTAP	31	0	4
BRTAP	31	0	5
NMTAP	31	144	6
NMHLD	31	192	6	96
NMTAP	31	288	7
NMTAP	32	0	5
NMTAP	32	24	4
NMTAP	32	48	5
NMTAP	32	96	3
NMTAP	32	96	4
NMTAP	32	192	1
NMTAP	32	192	2
NMTAP	32	288	0
NMTAP	32	288	7
EXSTR	33	0	6
NMSI_	33	0	6	96	48	2
EXTAP	33	0	7
NMTAP	33	72	7
NMSTR	33	96	6
NMSI_	33	96	6	96	48	3
NMTAP	33	168	0
NMTAP	33	192	6
NMSTR	33	288	2
NMSCL	33	288	2	96	48	7
NMSTR	33	336	7
NMSI_	33	336	7	96	48	3
NMTAP	34	48	5
NMTAP	34	96	6
NMSTR	34	192	0
NMSI_	34	192	0	96	48	4
NMTAP	34	192	2
NMTAP	34	240	7
NMTAP	34	288	0
NMTAP	34	288	6
NMSTR	35	0	5
NMSI_	35	0	5	96	48	1
NMTAP	35	72	4
NMTAP	35	96	5
NMTAP	35	144	3
NMSTR	35	192	2
NMSI_	35	192	2	96	48	6
NMTAP	35	264	3
NMTAP	35	288	2
NMTAP	35	336	4
NMTAP	36	0	5
NMTAP	36	0	7
NMTAP	36	96	0
NMTAP	36	96	6
NMTAP	36	192	1
NMTAP	36	192	7
NMTAP	36	240	3
NMSTR	36	288	4
NMSI_	36	288	4	96	48	0
NMHLD	36	288	7	96
BRTAP	37	0	4
NMTAP	37	96	6
NMTAP	37	96	7
NMSTR	37	192	5
NMSUR	37	192	5	96	144	6
NMSTR	37	240	4
NMSCL	37	240	4	96	96	7
NMTAP	37	288	5
NMTAP	37	336	4
NMTAP	38	96	3
NMTAP	38	96	5
NMTAP	38	192	2
NMTAP	38	192	4
NMHLD	38	288	0	96
NMSTR	38	288	3
NMSI_	38	288	3	96	48	7
BRTAP	39	0	3
NMTAP	39	96	0
NMTAP	39	96	1
NMSTR	39	192	2
NMSUL	39	192	2	96	144	1
NMSTR	39	240	3
NMSCR	39	240	3	96	96	0
NMTAP	39	288	2
NMTAP	39	336	3
NMTAP	40	96	2
NMSTR	40	144	3
NMSI_	40	144	3	96	48	7
NMSTR	40	192	7
NMSI_	40	192	7	96	48	3
NMTAP	40	240	3
BRHLD	41	0	1	96
BRHLD	41	0	5	96
NMTTP	41	192	0	C	0	M1
NMTAP	41	192	7
NMHLD	41	288	4	48
NMTAP	41	288	6
NMTAP	41	336	6
NMHLD	42	0	5	48
NMTAP	42	0	6
NMTAP	42	48	6
EXTAP	42	96	4
EXTAP	42	96	6
NMTAP	42	192	0
NMTAP	42	192	1
NMTAP	42	240	2
NMTAP	42	264	3
NMTAP	42	288	1
NMTAP	42	312	3
NMTAP	42	336	2
BRHLD	43	0	1	96
BRHLD	43	0	5	96
NMTTP	43	192	0	C	0	M1
NMTAP	43	192	4
NMTAP	43	288	5
NMHLD	43	288	7	48
NMTAP	43	336	5
NMHLD	44	0	0	48
NMTAP	44	0	5
NMTAP	44	48	5
NMHLD	44	96	1	48
NMTAP	44	96	5
NMTAP	44	144	5
NMSTR	44	192	2
NMSCL	44	192	2	96	48	7
NMSTR	44	192	6
NMSCL	44	192	6	96	48	3
NMSTR	44	288	2
BRSI_	44	288	2	96	48	5
NMSTR	44	288	6
BRSI_	44	288	6	96	48	1
EXTAP	45	0	2
EXTAP	45	0	6
NMTAP	45	192	0
NMTTP	45	192	0	C	0	M1
NMTAP	45	288	1
NMHLD	45	288	3	48
NMTAP	45	336	1
NMTAP	46	0	1
NMHLD	46	0	2	48
NMTAP	46	48	1
EXTAP	46	96	1
EXTAP	46	96	3
NMTAP	46	192	6
NMTAP	46	192	7
NMTAP	46	240	5
NMTAP	46	264	4
NMTAP	46	288	6
NMTAP	46	312	4
NMTAP	46	336	5
NMSTR	47	0	6
NMSI_	47	0	6	96	48	3
NMTAP	47	48	7
NMTAP	47	96	0
NMTAP	47	96	6
NMSTR	47	192	1
NMSI_	47	192	1	96	48	4
NMTAP	47	240	0
NMTAP	47	288	1
NMTAP	47	288	7
NMSTR	48	0	6
NMSI_	48	0	6	96	48	3
NMTAP	48	48	7
NMTAP	48	96	0
NMTAP	48	96	6
NMTAP	48	192	1
NMTAP	48	216	0
NMTAP	48	264	2
NMTAP	48	288	3
EXTAP	49	0	5
EXTAP	49	0	7
NMTAP	49	48	0
NMTAP	49	96	1
NMTAP	49	96	6
NMTAP	49	144	2
NMTTP	49	192	0	C	0	M1
NMTAP	49	192	3
NMTAP	49	288	2
NMSTR	49	336	2
NMSUL	49	336	2	96	48	6
NMSTR	50	48	4
NMSUR	50	48	4	96	48	0
NMTAP	50	144	0
NMTAP	50	192	1
NMTAP	50	240	2
NMTAP	50	288	3
EXTAP	51	0	0
EXTAP	51	0	2
NMTAP	51	48	7
NMTAP	51	96	1
NMTAP	51	96	6
NMTAP	51	144	5
NMTTP	51	192	0	C	0	M1
NMTAP	51	192	4
NMTAP	51	288	5
NMSTR	51	336	5
NMSUR	51	336	5	96	48	1
NMSTR	52	48	3
NMSUL	52	48	3	96	48	7
NMTAP	52	144	7
BRTAP	52	192	6
BRTAP	52	288	4
BRTAP	52	288	5
EXTAP	53	0	6
EXTAP	53	0	7
NMTAP	53	48	0
NMTAP	53	96	1
NMTAP	53	96	6
NMTAP	53	144	2
NMTTP	53	192	0	C	0	M1
NMTAP	53	192	3
NMTAP	53	288	2
NMSTR	53	336	2
NMSUL	53	336	2	96	48	6
NMSTR	54	48	4
NMSUR	54	48	4	96	48	0
NMTAP	54	144	0
NMTAP	54	192	1
NMTAP	54	240	2
EXSTR	54	288	3
NMSF_	54	288	3	96	672	7
BRTAP	55	0	3
NMTAP	57	0	1
NMTAP	57	12	2
NMTAP	57	24	3
NMHLD	57	192	3	144
NMTAP	57	336	6
NMTAP	57	348	5
NMTAP	57	360	4
NMHLD	58	192	4	192
NMTAP	58	288	2
NMTAP	59	0	1
NMTAP	59	12	2
NMTAP	59	24	3
NMTAP	59	240	6
NMTAP	59	288	6
NMTAP	59	336	6
NMTAP	59	348	5
NMTAP	59	360	4
NMTAP	60	192	2
NMTAP	60	192	5
NMSTR	61	0	3
NMSCL	61	0	3	96	240	7
NMTAP	61	192	5
NMTAP	61	288	4
NMSTR	61	336	4
NMSCR	61	336	4	96	240	0
NMTAP	62	96	0
NMTAP	62	192	1
NMTAP	62	288	2
NMSTR	63	0	3
NMSI_	63	0	3	96	144	7
NMTAP	63	144	6
NMTAP	63	192	6
NMSTR	63	336	0
NMSI_	63	336	0	96	240	4
NMSTR	63	336	5
NMSI_	63	336	5	96	240	1
EXHLD	65	0	2	192
NMTTP	65	96	1	B	0	M1
NMHLD	65	192	6	192
NMTTP	65	288	7	B	0	M1
NMHLD	66	0	1	192
NMTTP	66	96	0	B	0	M1
NMHLD	66	192	5	192
NMTTP	66	288	6	B	0	M1
NMHLD	67	0	2	192
NMTTP	67	96	1	B	0	M1
NMHLD	67	192	6	192
NMTTP	67	288	7	B	0	M1
NMTAP	68	0	0
NMTAP	68	96	1
NMTAP	68	96	7
NMTAP	68	192	2
NMTAP	68	192	6
NMTAP	68	288	3
NMTAP	68	288	5
EXHLD	69	0	4	192
NMSTR	69	96	3
NMSI_	69	96	3	96	48	7
NMTAP	69	192	3
NMHLD	69	336	1	240
NMTAP	69	336	6
NMTAP	70	48	0
NMSTR	70	96	0
NMSI_	70	96	0	96	48	4
NMTAP	70	192	0
NMTAP	70	288	3
NMTAP	70	288	5
EXTAP	71	0	0
EXTAP	71	0	6
NMTAP	71	96	1
NMTAP	71	96	7
NMTAP	71	192	2
NMTAP	71	192	4
NMTAP	71	288	3
NMTAP	71	288	5
NMTAP	72	0	6
NMTAP	72	0	7
NMTAP	72	48	6
NMTAP	72	48	7
NMTAP	72	96	4
NMTAP	72	96	5
NMTAP	72	144	4
NMTAP	72	144	5
NMTAP	72	192	3
NMTAP	72	192	4
NMTAP	72	216	2
NMTAP	72	240	1
NMTAP	72	264	0
NMSTR	72	288	7
BRSI_	72	288	7	96	48	3
BRTAP	73	0	7
EXTAP	73	96	2
EXTAP	73	96	4
NMTAP	73	192	1
NMTAP	73	192	7
NMTAP	73	288	0
NMSTR	73	288	6
NMSCL	73	288	6	96	48	3
NMSTR	73	336	3
NMSI_	73	336	3	96	48	7
NMTAP	74	48	1
NMTAP	74	96	2
NMSTR	74	192	4
NMSI_	74	192	4	96	48	0
NMTAP	74	192	6
NMTAP	74	240	3
NMTAP	74	240	5
NMTAP	74	288	2
NMTAP	74	288	4
EXSTR	75	0	1
NMSCR	75	0	1	96	96	5
NMSTR	75	96	5
NMSCL	75	96	5	96	96	1
NMTAP	75	192	0
NMTAP	75	240	7
NMTAP	75	288	6
NMSTR	75	336	5
NMSUR	75	336	5	96	48	1
NMTAP	76	48	0
NMTAP	76	48	5
NMSTR	76	96	2
NMSUL	76	96	2	96	48	6
NMTAP	76	192	2
NMTAP	76	192	7
NMTAP	76	240	5
NMSTR	76	288	4
NMSV_	76	288	4	96	48	1
NMSV_	76	288	4	96	48	7
BRTAP	77	0	4
NMTAP	77	96	2
NMTAP	77	96	6
NMSTR	77	192	5
NMSUR	77	192	5	96	144	6
NMSTR	77	240	4
NMSCL	77	240	4	96	96	7
NMTAP	77	288	5
NMTAP	77	336	4
NMTAP	78	96	0
NMTAP	78	96	5
NMTAP	78	192	1
NMTAP	78	192	4
NMSTR	78	288	2
NMSLR	78	288	2	96	96	0
NMSTR	78	288	3
NMSLR	78	288	3	96	96	7
BRTAP	79	0	2
BRTAP	79	0	3
NMTAP	79	144	1
NMHLD	79	192	1	96
NMTAP	79	288	0
NMTAP	80	0	2
NMTAP	80	24	3
NMTAP	80	48	2
NMTAP	80	96	3
NMTAP	80	96	4
NMTAP	80	192	5
NMTAP	80	192	6
NMTAP	80	288	0
NMTAP	80	288	7
EXSTR	81	0	6
NMSUL	81	0	6	96	48	2
NMTAP	81	72	7
NMSTR	81	96	6
NMSCL	81	96	6	96	48	3
NMTAP	81	168	0
NMTAP	81	192	6
NMSTR	81	288	1
NMSCR	81	288	1	96	48	4
NMSTR	81	336	4
NMSI_	81	336	4	96	48	0
NMTAP	82	48	6
NMTAP	82	96	5
NMTAP	82	192	1
NMSTR	82	192	3
NMSI_	82	192	3	96	48	7
NMTAP	82	240	2
NMTAP	82	240	4
NMTAP	82	288	3
NMTAP	82	288	5
BRTAP	83	0	0
BRTAP	83	0	6
BRTAP	83	64	3
BRTAP	83	64	4
BRTAP	83	128	1
BRTAP	83	128	7
BRTAP	83	192	4
BRTAP	83	192	6
BRTAP	83	256	1
BRTAP	83	256	3
BRTAP	83	320	4
BRTAP	83	320	6
EXSTR	84	0	2
NMSCL	84	0	2	96	72	7
EXTAP	84	0	3
NMSTR	84	24	1
NMSCL	84	24	1	96	72	6
NMSTR	84	48	0
NMSCL	84	48	0	96	72	5
EXSTR	84	288	2
NMSV_	84	288	2	96	48	7
EXHLD	84	288	4	96
BRTAP	85	0	2
NMTAP	85	96	0
NMTAP	85	96	6
NMSTR	85	192	5
NMSUR	85	192	5	96	144	6
NMSTR	85	240	4
NMSCL	85	240	4	96	96	7
NMTAP	85	288	5
NMTAP	85	336	4
NMTAP	86	96	3
NMTAP	86	96	5
NMTAP	86	192	2
NMTAP	86	192	4
NMHLD	86	288	0	96
NMSTR	86	288	3
NMSUR	86	288	3	96	48	7
BRTAP	87	0	3
NMTAP	87	96	0
NMTAP	87	96	1
NMSTR	87	192	2
NMSUL	87	192	2	96	144	1
NMSTR	87	240	3
NMSCR	87	240	3	96	96	0
NMTAP	87	288	2
NMTAP	87	336	3
NMTAP	88	96	2
NMSTR	88	144	3
NMSI_	88	144	3	96	48	7
NMSTR	88	192	7
BRSI_	88	192	7	96	48	3
NMTAP	88	240	3
NMTAP	89	0	5
NMTAP	89	48	5
NMTAP	89	96	2
NMSTR	89	96	6
NMSCL	89	96	6	96	96	2
NMHLD	89	192	0	96
NMTAP	89	192	6
NMSTR	89	336	1
NMSCR	89	336	1	96	96	5
NMTAP	89	336	5
NMTAP	90	48	1
NMHLD	90	48	7	96
NMTAP	90	192	6
NMTAP	90	216	7
NMTAP	90	264	5
NMTAP	90	288	4
NMTAP	90	336	6
NMTAP	91	0	0
NMTAP	91	0	7
NMTAP	91	48	0
NMSTR	91	96	1
NMSCR	91	96	1	96	96	5
NMTAP	91	96	5
NMTAP	91	192	1
NMHLD	91	192	7	96
NMTAP	91	336	2
NMSTR	91	336	6
NMSCL	91	336	6	96	96	2
NMHLD	92	48	0	96
NMTAP	92	48	6
NMSTR	92	192	1
NMSI_	92	192	1	96	48	5
NMSTR	92	192	3
NMSI_	92	192	3	96	48	7
BRTAP	92	288	1
BRTAP	92	288	3
NMTAP	93	0	4
NMTAP	93	0	6
NMTAP	93	48	4
NMTAP	93	48	6
NMSTR	93	96	5
NMSCR	93	96	5	96	96	1
NMHLD	93	192	3	96
NMTAP	93	192	5
NMSTR	93	336	2
NMSCL	93	336	2	96	96	6
NMTAP	93	336	6
NMTAP	94	48	2
NMHLD	94	48	4	96
NMTAP	94	192	2
NMTAP	94	216	3
NMTAP	94	264	1
NMTAP	94	288	0
NMTAP	94	336	2
NMTAP	95	0	3
NMTAP	95	0	4
NMTAP	95	48	4
NMSTR	95	96	2
NMSCL	95	96	2	96	96	6
NMTAP	95	96	6
NMTAP	95	192	2
NMHLD	95	192	4	96
NMTAP	95	336	1
NMSTR	95	336	5
NMSCR	95	336	5	96	96	1
NMHLD	96	48	3	96
NMTAP	96	48	5
NMSTR	96	192	0
NMSV_	96	192	0	96	48	6
NMSTR	96	192	4
NMSV_	96	192	4	96	48	2
BRTAP	96	288	0
BRTAP	96	288	4
NMTAP	97	0	3
NMTAP	97	48	3
NMTAP	97	96	3
NMSTR	97	96	4
NMSI_	97	96	4	96	48	0
NMTAP	97	144	3
NMTAP	97	192	2
NMTAP	97	192	4
NMTAP	97	240	2
NMTAP	97	288	2
NMTAP	97	336	1
NMSTR	97	336	7
NMSI_	97	336	7	96	48	3
NMTAP	98	0	1
NMTAP	98	48	1
NMTAP	98	48	7
NMTAP	98	96	1
NMTAP	98	144	1
NMTAP	98	192	0
NMSTR	98	192	2
NMSI_	98	192	2	96	48	6
NMTAP	98	240	0
NMTAP	98	288	0
NMTAP	98	288	2
NMTAP	99	0	4
NMTAP	99	48	4
NMSTR	99	96	3
NMSI_	99	96	3	96	48	7
NMTAP	99	96	4
NMTAP	99	144	4
NMTAP	99	192	3
NMTAP	99	192	5
NMTAP	99	240	5
NMTAP	99	288	5
NMSTR	99	336	0
NMSI_	99	336	0	96	48	4
NMTAP	99	336	6
NMTAP	100	0	6
NMTAP	100	48	0
NMTAP	100	48	6
NMTAP	100	96	6
NMTAP	100	144	6
NMSTR	100	192	5
NMSI_	100	192	5	96	48	1
NMTAP	100	192	7
NMTAP	100	240	7
NMTAP	100	288	5
NMTAP	100	288	7
NMTAP	101	0	0
NMTAP	101	48	0
NMTAP	101	96	0
NMSTR	101	96	7
NMSI_	101	96	7	96	48	3
NMTAP	101	144	0
NMTAP	101	192	1
NMTAP	101	192	7
NMTAP	101	240	1
NMTAP	101	288	1
NMTAP	101	336	2
NMSTR	101	336	4
NMSI_	101	336	4	96	48	0
NMTAP	102	0	2
NMTAP	102	48	2
NMTAP	102	48	4
NMTAP	102	96	2
NMTAP	102	144	2
NMSTR	102	192	1
NMSI_	102	192	1	96	48	5
NMTAP	102	192	3
NMTAP	102	240	3
NMTAP	102	288	1
NMTAP	102	288	3
BRHLD	103	0	4	48
BRHLD	103	0	6	48
BRHLD	103	72	0	48
BRHLD	103	72	7	48
BRHLD	103	144	1	48
BRHLD	103	144	3	48
BRHLD	103	216	0	48
BRHLD	103	216	7	48
BRHLD	103	288	2	288
BRHLD	103	288	5	288
NMSTR	104	288	1
NMSSR	104	288	1	96	576	5
NMSTR	104	288	6
NMSSL	104	288	6	96	576	2
NMSTR	106	240	0
NMSI_	106	240	0	96	48	4

T_REC_TAP	405
T_REC_BRK	33
T_REC_XTP	28
T_REC_BXX	0
T_REC_HLD	57
T_REC_XHO	8
T_REC_BHO	14
T_REC_BXH	0
T_REC_STR	106
T_REC_BST	0
T_REC_XST	9
T_REC_XBS	0
T_REC_TTP	30
T_REC_THO	0
T_REC_SLD	113
T_REC_BSL	5
T_REC_ALL	808
T_NUM_TAP	578
T_NUM_BRK	52
T_NUM_HLD	65
T_NUM_SLD	113
T_NUM_ALL	808
T_JUDGE_TAP	611
T_JUDGE_HLD	197
T_JUDGE_SLD	118
T_JUDGE_ALL	926
TTM_EACHPAIRS	163
TTM_SCR_TAP	289000
TTM_SCR_BRK	135200
TTM_SCR_HLD	65000
TTM_SCR_SLD	169500
TTM_SCR_ALL	658700
TTM_SCR_S	633900
TTM_SCR_SS	653500
TTM_RAT_ACV	10079

