VERSION	0.00.00	1.05.00
FES_MODE	0
BPM_DEF	170.000	170.000	170.000	170.000
MET_DEF	4	4
RESOLUTION	384
CLK_DEF	384
COMPATIBLE_CODE	MA2

BPM	0	0	170.000
MET	0	0	4	4

NMHLD	1	0	6	288
NMTAP	1	288	4
NMHLD	2	0	4	288
NMTAP	2	288	3
NMHLD	3	0	3	288
NMTAP	3	288	1
NMTAP	4	0	1
NMTAP	4	192	3
NMTAP	4	288	2
NMHLD	5	0	1	288
NMTAP	5	288	3
NMHLD	6	0	3	288
NMTAP	6	288	4
NMHLD	7	0	4	288
NMTAP	7	288	6
NMTAP	8	0	6
NMTAP	8	192	0
NMTAP	8	192	7
NMTAP	8	288	0
NMTAP	8	288	7
NMTAP	9	0	6
NMTAP	9	96	4
NMTAP	9	96	6
NMTAP	9	192	3
NMTAP	9	240	3
NMTAP	9	288	5
NMTAP	9	336	5
NMTAP	10	0	4
NMTAP	10	96	3
NMTAP	10	96	4
NMTAP	10	192	2
NMTAP	10	240	2
NMTAP	10	288	3
NMTAP	10	336	3
NMTAP	11	0	1
NMTAP	11	96	1
NMTAP	11	96	3
NMTAP	11	192	4
NMTAP	11	240	4
NMTAP	11	288	2
NMTAP	11	336	2
NMTAP	12	0	3
NMTAP	12	96	3
NMTAP	12	96	4
NMTAP	12	192	5
NMTAP	12	240	5
NMTAP	12	288	4
NMTAP	12	336	4
NMTAP	13	0	6
NMTAP	13	96	4
NMTAP	13	96	6
NMTAP	13	192	3
NMTAP	13	240	3
NMTAP	13	288	5
NMTAP	13	336	5
NMTAP	14	0	4
NMTAP	14	96	6
NMTAP	14	96	7
NMTAP	14	192	1
NMTAP	14	240	1
NMTAP	14	288	3
NMTAP	14	336	3
NMTAP	15	0	2
NMTAP	15	96	1
NMTAP	15	96	3
NMTAP	15	192	4
NMTAP	15	240	4
NMTAP	15	288	2
NMTAP	15	336	2
NMTAP	16	0	3
NMTAP	16	96	0
NMTAP	16	96	1
NMTAP	16	192	6
NMTAP	16	192	7
NMTAP	16	288	4
NMTAP	16	288	5
NMSTR	17	0	6
NMSCL	17	0	6	96	96	3
NMTAP	17	288	1
NMSTR	18	0	0
NMSCR	18	0	0	96	96	3
NMTAP	18	288	6
NMSTR	19	0	7
NMSCL	19	0	7	96	96	4
NMTAP	19	288	2
NMHLD	20	0	1	192
NMTAP	20	192	3
NMTAP	20	288	3
NMSTR	21	0	1
NMSUR	21	0	1	96	96	5
NMTAP	21	288	6
NMSTR	22	0	7
NMSUL	22	0	7	96	96	3
NMTAP	22	288	2
NMHLD	23	0	1	192
NMTHO	23	192	0	144	C	0	M1
EXTAP	24	240	0
EXTAP	24	240	7
EXTAP	24	288	0
EXTAP	24	288	7
NMSTR	25	0	0
NMSI_	25	0	0	96	48	4
NMSTR	25	0	1
NMSI_	25	0	1	96	48	4
NMTAP	25	192	5
NMTAP	25	288	6
NMHLD	25	336	6	96
NMTAP	26	48	4
NMTAP	26	96	4
NMTAP	26	192	6
NMTAP	26	192	7
NMTAP	26	288	0
NMTAP	26	288	1
NMTAP	27	0	2
NMTAP	27	0	3
NMTAP	27	96	3
NMTAP	27	96	4
NMHLD	27	192	5	96
NMTAP	27	288	4
NMTAP	27	336	4
NMTAP	28	48	3
NMTAP	28	48	6
NMTAP	28	96	3
NMSTR	28	96	6
NMSUL	28	96	6	96	96	2
NMTAP	28	288	1
NMTAP	29	0	0
NMTAP	29	0	1
NMTAP	29	96	2
NMTAP	29	96	3
NMTAP	29	192	5
NMTAP	29	240	5
NMTAP	29	288	4
NMTAP	29	336	4
NMTAP	30	0	6
NMHLD	30	96	2	96
NMHLD	30	192	0	96
NMHLD	30	288	7	96
NMHLD	31	0	5	96
NMSTR	31	96	4
NMSCL	31	96	4	96	96	1
NMSCR	31	96	4	96	96	7
NMTAP	32	0	2
NMTAP	32	0	6
NMTAP	32	96	1
NMTAP	32	96	5
NMTAP	32	192	0
NMTAP	32	240	0
NMTAP	32	288	7
NMSTR	33	0	6
NMSI_	33	0	6	96	48	3
NMSTR	33	0	7
NMSI_	33	0	7	96	48	3
NMTAP	33	192	2
NMTAP	33	288	1
NMTAP	33	288	3
NMTAP	33	336	1
NMTAP	33	336	3
NMTAP	34	48	4
NMTAP	34	48	6
NMTAP	34	96	4
NMTAP	34	96	6
EXTAP	34	192	7
EXTAP	34	240	7
EXTAP	34	288	0
NMHLD	35	0	6	72
NMHLD	35	72	5	72
NMTAP	35	144	4
NMHLD	35	192	1	72
NMHLD	35	264	2	72
NMTAP	35	336	3
NMTAP	36	0	3
NMSTR	36	96	1
NMSUR	36	96	1	96	96	5
NMTAP	36	96	4
NMTAP	36	288	6
NMTAP	37	0	6
NMTAP	37	0	7
NMTAP	37	96	6
NMTAP	37	96	7
NMTAP	37	192	4
NMTAP	37	192	5
NMTAP	37	288	2
NMTAP	37	336	2
NMTAP	38	0	3
NMTAP	38	96	0
NMTAP	38	96	1
NMTAP	38	192	2
NMTAP	38	192	3
NMTAP	38	288	4
NMTAP	38	288	5
NMSTR	39	0	6
NMSI_	39	0	6	96	96	2
NMSTR	39	192	0
NMSI_	39	192	0	96	96	4
NMHLD	40	0	7	192
BRTAP	40	192	0
NMHLD	41	0	1	144
NMHLD	41	0	3	144
NMTAP	41	192	0
NMTAP	41	192	4
NMTTP	41	288	1	E	0	M1
NMTTP	41	336	2	E	0	M1
NMTTP	42	0	3	E	0	M1
NMTTP	42	48	4	E	0	M1
NMTTP	42	96	5	E	0	M1
NMTTP	42	144	6	E	0	M1
NMTTP	42	192	7	E	0	M1
NMHLD	43	0	4	144
NMHLD	43	0	6	144
NMTAP	43	192	3
NMTAP	43	192	7
NMTTP	43	288	7	E	0	M1
NMTTP	43	336	6	E	0	M1
NMTTP	44	0	5	E	0	M1
NMTTP	44	48	4	E	0	M1
NMTTP	44	96	3	E	0	M1
NMTTP	44	144	2	E	0	M1
NMTTP	44	192	1	E	1	M1
NMHLD	45	0	2	144
NMHLD	45	0	4	144
NMTAP	45	192	1
NMTAP	45	192	5
NMTTP	45	288	3	E	0	M1
NMTTP	45	336	2	E	0	M1
NMTTP	46	0	1	E	0	M1
NMTTP	46	48	0	E	0	M1
NMTTP	46	96	7	E	0	M1
NMTTP	46	144	6	E	0	M1
NMTTP	46	192	5	E	0	M1
NMTAP	46	288	3
NMTAP	46	288	5
NMHLD	47	0	6	192
NMTAP	47	96	4
NMHLD	47	192	2	192
NMTAP	47	288	3
NMHLD	48	0	5	192
NMTAP	48	96	4
NMHLD	48	192	1	192
NMTAP	48	288	3
BRTAP	49	0	4
NMTAP	49	192	4
NMTAP	49	192	5
NMTAP	49	288	6
NMHLD	49	336	6	96
NMTAP	50	48	7
NMTAP	50	144	0
NMTAP	50	144	7
NMTAP	50	192	0
NMTAP	50	192	7
NMTAP	50	288	0
NMTAP	50	288	1
NMTAP	51	0	2
NMTAP	51	0	3
NMTAP	51	96	5
NMTAP	51	144	5
NMTAP	51	192	3
NMTAP	51	288	2
NMHLD	51	336	2	96
NMTAP	52	48	4
NMTAP	52	144	1
NMTAP	52	144	3
NMTAP	52	192	1
NMTAP	52	192	3
NMTAP	52	288	0
NMTAP	52	288	7
EXTAP	53	0	4
EXTAP	53	0	6
NMTAP	53	96	3
NMTAP	53	192	2
NMTAP	53	192	4
NMTAP	53	288	1
NMHLD	53	336	1	96
NMTAP	54	48	0
NMTAP	54	144	0
NMTAP	54	144	7
NMTAP	54	192	0
NMTAP	54	192	7
NMTAP	54	288	6
NMTAP	54	288	7
NMSTR	55	0	5
NMSI_	55	0	5	96	192	1
CNSI_	55	288	1	0	96	7
CNSI_	56	0	7	0	192	3
NMHLD	57	0	2	192
NMHLD	57	0	4	192
NMSTR	57	288	1
NMSCR	57	288	1	96	192	5
NMHLD	59	0	3	192
NMHLD	59	0	5	192
NMSTR	59	288	6
NMSCL	59	288	6	96	192	2
NMHLD	61	0	1	192
NMHLD	61	0	3	192
NMSTR	61	288	2
NMSCR	61	288	2	96	192	7
NMHLD	63	0	4	192
NMHLD	63	0	6	192
NMSTR	63	288	5
NMSCL	63	288	5	96	192	0
NMTAP	65	0	3
NMTAP	65	96	3
NMTAP	65	192	3
NMTAP	65	288	3
NMTAP	66	0	2
NMTAP	66	96	2
NMTAP	66	192	2
NMTAP	66	288	2
NMTAP	67	0	4
NMTAP	67	96	4
NMTAP	67	192	4
NMTAP	67	288	4
NMTAP	68	0	5
NMTAP	68	96	5
NMTAP	68	192	5
NMTAP	68	288	5
NMTAP	69	0	3
NMTAP	69	96	3
NMTAP	69	192	2
NMTAP	69	288	2
NMTAP	70	0	4
NMTAP	70	96	4
NMTAP	70	192	5
NMTAP	70	288	5
NMTAP	71	0	3
NMTAP	71	96	1
NMTAP	71	192	4
NMTAP	71	288	6
NMTAP	72	0	3
NMTAP	72	48	3
NMTAP	72	96	5
NMTAP	72	144	5
NMTAP	72	192	1
NMTAP	72	240	1
BRSTR	72	288	7
BRSLL	72	288	7	96	96	3
NMTAP	73	96	0
NMSTR	73	192	0
NMSI_	73	192	0	96	48	4
NMSTR	73	192	1
NMSI_	73	192	1	96	48	4
NMSTR	74	0	6
NMSI_	74	0	6	96	48	3
NMSTR	74	0	7
NMSI_	74	0	7	96	48	3
NMSTR	74	192	0
NMSI_	74	192	0	96	48	4
NMSTR	74	192	1
NMSI_	74	192	1	96	48	4
NMTAP	75	0	6
NMTAP	75	0	7
NMTAP	75	96	6
NMTAP	75	96	7
NMTAP	75	192	4
NMTAP	75	192	5
NMTAP	75	288	2
NMTAP	75	288	3
NMTAP	76	0	0
NMTAP	76	0	1
NMSTR	76	96	0
NMSUR	76	96	0	96	96	5
NMSTR	76	96	1
NMSCR	76	96	1	96	96	4
NMHLD	77	0	5	96
NMHLD	77	96	7	96
NMHLD	77	192	0	96
NMTAP	77	288	2
NMHLD	78	0	2	96
NMHLD	78	96	0	96
NMHLD	78	192	7	96
NMTAP	78	288	5
NMTAP	79	0	4
NMTAP	79	0	5
NMSTR	79	96	4
NMSUR	79	96	4	96	192	3
NMSTR	79	96	5
NMSCR	79	96	5	96	192	2
NMTAP	80	96	2
NMTAP	80	96	3
NMTAP	80	192	1
NMTAP	80	240	1
NMTAP	80	288	0
NMSTR	81	0	0
NMSI_	81	0	0	96	48	4
NMSTR	81	0	1
NMSI_	81	0	1	96	48	4
NMSTR	81	192	6
NMSI_	81	192	6	96	48	3
NMSTR	81	192	7
NMSI_	81	192	7	96	48	3
NMTAP	82	0	0
NMTAP	82	0	1
NMTAP	82	96	2
NMTAP	82	96	3
NMTAP	82	192	5
NMTAP	82	240	5
NMTAP	82	288	4
NMTAP	83	0	0
NMTAP	83	0	6
NMTAP	83	64	0
NMTAP	83	64	6
NMTAP	83	128	0
NMTAP	83	128	6
NMTAP	83	192	1
NMTAP	83	192	7
NMTAP	83	256	1
NMTAP	83	256	7
NMTAP	83	320	1
NMTAP	83	320	7
BXTAP	84	0	2
BXTAP	84	0	6
NMTAP	84	192	1
NMTAP	84	192	7
NMTAP	84	288	3
NMTAP	84	288	5
NMSTR	85	0	6
NMSCL	85	0	6	96	96	3
NMSTR	85	192	2
NMSCL	85	192	2	96	96	7
NMTAP	86	0	5
NMTAP	86	96	5
NMTAP	86	192	4
NMTAP	86	192	6
NMTAP	86	288	2
NMTAP	86	288	4
NMSTR	87	0	1
NMSCR	87	0	1	96	96	4
NMSTR	87	192	5
NMSCR	87	192	5	96	96	0
NMTAP	88	0	2
NMSTR	88	96	3
BRSI_	88	96	3	96	96	7
NMTAP	89	0	6
NMTAP	89	48	6
NMTAP	89	96	4
NMTAP	89	192	3
NMTAP	89	192	5
NMTAP	89	288	2
NMHLD	89	336	2	96
NMTAP	90	48	3
NMTAP	90	144	1
NMTAP	90	144	4
NMTAP	90	192	1
NMTAP	90	192	4
NMTAP	90	288	2
NMTAP	90	288	3
NMTAP	91	0	1
NMTAP	91	48	1
NMTAP	91	96	3
NMTAP	91	192	2
NMTAP	91	192	4
NMTAP	91	288	5
NMHLD	91	336	5	96
NMTAP	92	48	4
NMTAP	92	144	3
NMTAP	92	144	6
NMTAP	92	192	3
NMTAP	92	192	6
NMTAP	92	288	4
NMTAP	92	288	5
NMTAP	93	0	6
NMTAP	93	48	6
NMTAP	93	96	7
NMTAP	93	192	0
NMTAP	93	192	5
NMTAP	93	288	1
NMHLD	93	336	1	96
NMTAP	94	48	0
NMTAP	94	144	2
NMTAP	94	144	7
NMTAP	94	192	2
NMTAP	94	192	7
NMTAP	94	288	3
NMTAP	94	288	6
NMTAP	95	0	2
NMTAP	95	48	2
NMTAP	95	96	0
NMTAP	95	192	1
NMTAP	95	192	7
NMTAP	95	288	6
NMHLD	95	336	6	96
NMTAP	96	48	7
NMTAP	96	144	0
NMTAP	96	144	5
NMTAP	96	192	0
NMTAP	96	192	5
NMTAP	96	288	1
NMTAP	96	288	4
NMTAP	97	0	5
NMTAP	97	48	5
NMTAP	97	96	4
NMTAP	97	144	6
NMTAP	97	192	2
NMTAP	97	240	2
NMTAP	97	288	3
NMTAP	97	336	1
NMTAP	98	0	6
NMTAP	98	48	6
NMTAP	98	96	7
NMTAP	98	144	5
NMTAP	98	192	0
NMTAP	98	288	1
NMTAP	98	288	7
NMTAP	99	0	2
NMTAP	99	48	2
NMTAP	99	96	3
NMTAP	99	144	1
NMTAP	99	192	5
NMTAP	99	240	5
NMTAP	99	288	4
NMTAP	99	336	6
NMTAP	100	0	1
NMTAP	100	48	1
NMTAP	100	96	0
NMTAP	100	144	2
NMTAP	100	192	7
NMTAP	100	288	1
NMTAP	100	288	5
NMTAP	101	0	6
NMTAP	101	48	6
NMTAP	101	96	7
NMTAP	101	144	5
NMTAP	101	192	1
NMTAP	101	240	1
NMTAP	101	288	0
NMTAP	101	336	2
NMTAP	102	0	5
NMTAP	102	48	5
NMTAP	102	96	4
NMTAP	102	144	6
NMTAP	102	192	2
NMTAP	102	288	1
NMTAP	102	288	4
NMHLD	103	0	1	72
NMHLD	103	0	4	72
NMHLD	103	144	2	72
NMHLD	103	144	5	72
NMTAP	103	288	3
NMSTR	103	288	6
NMSXL	103	288	6	96	384	3
NMHLD	105	0	2	624
EXSTR	106	240	3
NMSI_	106	240	3	96	96	7

T_REC_TAP	368
T_REC_BRK	2
T_REC_XTP	9
T_REC_BXX	2
T_REC_HLD	55
T_REC_XHO	0
T_REC_BHO	0
T_REC_BXH	0
T_REC_STR	39
T_REC_BST	1
T_REC_XST	1
T_REC_XBS	0
T_REC_TTP	21
T_REC_THO	1
T_REC_SLD	40
T_REC_BSL	2
T_REC_ALL	541
T_NUM_TAP	438
T_NUM_BRK	7
T_NUM_HLD	56
T_NUM_SLD	40
T_NUM_ALL	541
T_JUDGE_TAP	443
T_JUDGE_HLD	184
T_JUDGE_SLD	42
T_JUDGE_ALL	669
TTM_EACHPAIRS	110
TTM_SCR_TAP	219000
TTM_SCR_BRK	18200
TTM_SCR_HLD	56000
TTM_SCR_SLD	60000
TTM_SCR_ALL	353200
TTM_SCR_S	341950
TTM_SCR_SS	352500
TTM_RAT_ACV	10019

