VERSION	0.00.00	1.05.00
FES_MODE	0
BPM_DEF	202.000	202.000	202.000	202.000
MET_DEF	4	4
RESOLUTION	384
CLK_DEF	384
COMPATIBLE_CODE	MA2

BPM	0	0	202.000
MET	0	0	4	4

NMHLD	2	0	2	96
NMHLD	2	0	4	96
NMHLD	2	192	3	96
NMHLD	2	192	5	96
NMTAP	3	0	2
NMTAP	3	0	4
NMSTR	3	96	1
NMSV_	3	96	1	96	96	4
NMTAP	3	96	3
NMHLD	4	0	3	96
NMHLD	4	0	5	96
NMHLD	4	192	2	96
NMHLD	4	192	4	96
NMTAP	5	0	3
NMTAP	5	0	5
EXTAP	5	96	7
EXTAP	5	192	5
EXSTR	5	288	3
NMSCL	5	288	3	96	96	0
NMTAP	6	0	4
NMSTR	6	96	6
NMSCL	6	96	6	96	96	3
NMTAP	6	192	7
NMSTR	6	288	1
NMSCL	6	288	1	96	96	6
NMTAP	7	0	2
EXTAP	7	96	4
NMTAP	7	192	5
NMTAP	7	240	5
NMTAP	7	288	4
NMTAP	7	336	3
BRTAP	8	0	6
NMTAP	8	48	6
NMTAP	8	96	0
NMTAP	8	144	1
BRTAP	8	192	5
NMTAP	8	240	4
NMTAP	8	288	3
NMTAP	8	336	2
EXTAP	9	0	1
EXTAP	9	48	1
EXTAP	9	96	7
EXTAP	9	120	0
EXHLD	9	192	6	96
EXTAP	9	192	7
BRTAP	9	288	0
NMSTR	10	0	1
NMSI_	10	0	1	96	48	3
NMTAP	10	48	1
NMTAP	10	96	5
NMTAP	10	192	4
NMTAP	10	240	5
NMTAP	10	288	4
NMTAP	10	288	6
NMSTR	11	0	6
NMSI_	11	0	6	96	48	4
NMTAP	11	48	6
NMTAP	11	96	2
NMTAP	11	192	3
NMTAP	11	240	2
NMTAP	11	288	1
NMTAP	11	288	3
NMSTR	12	0	1
NMSI_	12	0	1	96	48	4
NMTAP	12	48	1
NMTAP	12	96	5
NMTAP	12	192	6
NMTAP	12	240	5
NMTAP	12	288	4
NMTAP	12	288	6
NMTAP	13	0	6
NMTAP	13	0	7
NMTAP	13	96	0
NMTAP	13	96	7
NMTAP	13	192	0
NMTAP	13	192	1
NMTAP	13	240	2
NMTAP	13	264	3
NMTAP	13	288	2
NMTAP	13	336	1
NMTAP	14	0	0
NMTAP	14	0	4
NMTAP	14	48	7
NMTAP	14	96	6
NMTAP	14	144	5
NMHLD	14	192	2	48
NMHLD	14	192	4	48
NMHLD	14	288	4	48
NMHLD	14	288	6	48
BRTAP	15	0	7
NMTAP	15	48	0
NMTAP	15	96	1
NMTAP	15	144	2
NMHLD	15	192	3	48
NMHLD	15	192	5	48
NMHLD	15	288	1	48
NMHLD	15	288	3	48
NMTAP	16	0	0
NMTAP	16	48	0
NMTAP	16	96	6
NMTAP	16	144	6
NMTAP	16	192	1
NMTAP	16	216	7
NMTAP	16	240	1
NMTAP	16	264	7
NMSTR	16	288	0
NMSI_	16	288	0	96	48	4
NMTAP	16	312	6
NMTAP	16	336	0
NMTAP	16	360	6
EXTAP	17	0	0
BRTAP	17	96	5
BRTAP	17	192	1
BRTAP	17	288	4
NMHLD	18	0	5	72
NMTAP	18	72	4
NMTAP	18	96	5
NMTAP	18	144	3
NMHLD	18	144	6	528
NMTAP	18	240	4
NMTAP	18	288	4
NMTAP	19	0	5
NMTAP	19	48	5
NMTAP	19	96	4
NMTAP	19	192	5
NMTAP	19	240	5
NMTAP	19	288	4
NMHLD	20	0	2	72
NMTAP	20	72	3
NMTAP	20	96	2
NMHLD	20	144	1	528
NMTAP	20	144	4
NMTAP	20	240	3
NMSTR	20	288	3
NMSCL	20	288	3	96	96	0
CNSI_	21	96	0	0	96	4
NMTAP	21	288	3
NMHLD	22	0	5	72
NMTAP	22	72	4
NMTAP	22	96	5
NMTAP	22	144	3
NMHLD	22	144	6	528
NMTAP	22	240	4
NMTAP	22	288	4
NMTAP	23	0	5
NMTAP	23	48	5
NMTAP	23	96	4
NMTAP	23	192	5
NMTAP	23	240	5
NMTAP	23	288	4
NMHLD	24	0	2	72
NMTAP	24	72	3
NMTAP	24	96	2
NMTAP	24	144	1
NMTAP	24	144	4
NMTAP	24	240	2
NMTAP	24	240	3
NMTAP	24	288	2
NMTAP	24	288	3
NMTAP	25	0	4
NMTAP	25	0	6
BXTAP	25	48	7
BXTAP	25	96	7
NMTAP	25	192	0
NMTAP	25	192	6
NMHLD	25	288	1	192
NMSTR	25	288	7
NMSI_	25	288	7	96	48	3
BRTAP	26	0	7
NMHLD	26	192	2	48
NMHLD	26	192	4	48
NMHLD	26	288	3	48
NMHLD	26	288	5	48
NMTTP	27	0	4	E	1	M1
BRTAP	27	0	6
BRTAP	27	96	0
BRTAP	27	144	0
NMTAP	27	240	4
NMSTR	27	288	5
BRSCL	27	288	5	96	48	2
NMTAP	28	0	0
NMSTR	28	96	1
BRSCL	28	96	1	96	48	6
NMTAP	28	192	4
NMSTR	28	288	5
BRSI_	28	288	5	96	96	0
BXTAP	29	0	3
CNSI_	29	96	0	0	96	6
NMTAP	29	96	2
NMTAP	29	192	1
CNSI_	29	192	6	0	96	3
NMTAP	29	240	1
NMSTR	29	288	1
NMSI_	29	288	1	96	48	4
NMTAP	30	0	0
NMTAP	30	48	7
NMSTR	30	96	6
NMSI_	30	96	6	96	48	2
NMTAP	30	192	7
NMTAP	30	240	0
NMTAP	30	288	1
NMSTR	31	0	1
NMSI_	31	0	1	96	48	3
NMSTR	31	0	3
NMSI_	31	0	3	96	48	5
NMTAP	31	96	1
NMTAP	31	96	3
NMTAP	31	192	7
NMSTR	31	288	6
NMSI_	31	288	6	96	48	3
NMSTR	31	288	7
NMSI_	31	288	7	96	48	3
BRTAP	32	0	6
BRTAP	32	0	7
NMTAP	32	144	2
BXTAP	32	144	4
BXSTR	32	192	2
NMSI_	32	192	2	96	48	7
NMTAP	32	192	4
BXTAP	32	288	3
BXSTR	32	336	3
NMSI_	32	336	3	96	48	6
BXTAP	33	48	7
BXSTR	33	96	7
BRSF_	33	96	7	96	48	3
EXTAP	33	288	1
EXTAP	33	288	5
EXSTR	34	0	1
NMSCR	34	0	1	96	96	4
EXTAP	34	0	5
NMSTR	34	96	4
NMSCR	34	96	4	96	96	7
NMSTR	34	192	7
NMSCR	34	192	7	96	96	2
NMTAP	34	288	2
NMTAP	35	0	3
NMTAP	35	96	1
NMTAP	35	96	5
EXTAP	35	192	0
EXTAP	35	192	6
EXTAP	35	240	0
EXTAP	35	240	6
NMTAP	35	336	2
NMTAP	35	336	4
NMTAP	36	0	2
NMTAP	36	0	4
NMSTR	36	96	1
NMSI_	36	96	1	96	48	7
NMTAP	36	96	3
NMSTR	36	192	4
NMSI_	36	192	4	96	48	6
NMSTR	36	288	2
NMSI_	36	288	2	96	48	4
NMTAP	37	0	7
NMTAP	37	48	7
NMHLD	37	96	7	96
EXTAP	37	192	4
EXTAP	37	264	4
EXTAP	37	264	6
EXTAP	37	336	1
EXTAP	37	336	3
EXTAP	38	0	1
EXTAP	38	0	3
NMTAP	38	96	1
NMTAP	38	96	4
NMTAP	38	144	2
NMTAP	38	192	6
NMTAP	38	240	7
NMTAP	38	288	1
NMTAP	38	336	4
NMTAP	39	0	2
NMTAP	39	0	3
NMTAP	39	48	1
NMTAP	39	96	7
NMTAP	39	144	4
NMTAP	39	192	3
NMTAP	39	192	5
NMTAP	39	240	3
NMTAP	39	240	5
NMTAP	39	336	2
NMSTR	40	0	1
NMSI_	40	0	1	96	48	4
NMTAP	40	48	1
NMTAP	40	96	6
NMTAP	40	144	6
NMSTR	40	192	7
NMSI_	40	192	7	96	48	3
NMTAP	40	240	7
NMTAP	40	288	0
BRTAP	41	0	1
BRTAP	41	0	4
NMTAP	41	96	2
NMTAP	41	120	3
NMTAP	41	144	2
NMTAP	41	168	3
NMTAP	41	192	2
NMTAP	41	216	3
NMTAP	41	240	2
NMTAP	41	264	3
NMSTR	41	288	1
NMSI_	41	288	1	96	48	5
BRTAP	42	0	1
BXHLD	42	0	7	384
NMTTP	42	240	5	E	0	M1
NMTTP	42	264	4	E	0	M1
NMTTP	42	288	3	E	0	M1
BRTAP	43	0	0
BRTAP	43	96	1
BRSTR	43	192	2
BRSI_	43	192	2	96	48	0
BRTAP	43	288	3
NMSTR	44	0	7
NMSCL	44	0	7	96	48	4
NMSCR	44	0	7	96	48	2
NMTAP	44	96	7
EXTAP	44	192	1
EXTAP	44	192	3
NMTAP	44	240	0
NMTAP	44	288	1
NMTAP	44	288	4
NMTAP	44	336	5
NMHLD	45	0	3	48
NMHLD	45	0	6	48
NMHLD	45	96	1	48
NMHLD	45	96	4	48
NMTAP	45	192	2
NMTAP	45	192	3
NMSTR	45	288	0
NMSCR	45	288	0	96	48	3
NMSV_	45	288	0	96	48	3
NMTAP	45	288	4
NMSTR	46	0	0
NMSCL	46	0	0	96	48	5
NMSV_	46	0	0	96	48	5
NMSTR	46	96	0
NMSCR	46	96	0	96	48	3
NMSV_	46	96	0	96	48	3
NMSTR	46	192	0
NMSCL	46	192	0	96	48	5
NMSV_	46	192	0	96	48	5
NMTAP	46	288	0
EXTAP	47	0	1
EXTAP	47	0	7
NMSTR	47	96	2
NMSI_	47	96	2	96	48	0
NMSTR	47	96	3
NMSI_	47	96	3	96	48	5
NMSTR	47	192	2
NMSI_	47	192	2	96	48	7
NMSTR	47	192	3
NMSI_	47	192	3	96	48	7
BRTAP	47	288	2
BRTAP	47	288	3
NMSTR	48	0	1
NMSI_	48	0	1	96	48	4
NMSTR	48	0	5
NMSI_	48	0	5	96	48	0
NMTAP	48	96	1
NMTAP	48	96	5
NMTAP	48	192	2
NMTAP	48	192	7
NMTAP	48	240	1
NMTAP	48	288	0
NMTAP	48	288	5
NMTAP	48	336	6
NMSTR	49	0	2
NMSCL	49	0	2	96	48	7
NMSTR	49	0	7
NMSCL	49	0	7	96	48	4
BRTAP	49	96	2
BRTAP	49	96	7
EXTAP	49	192	0
EXTAP	49	192	5
EXTAP	49	288	2
EXTAP	49	288	7
NMSTR	50	0	1
NMSI_	50	0	1	96	48	4
NMTAP	50	48	1
NMSTR	50	96	6
NMSCR	50	96	6	96	48	1
NMTAP	50	144	6
NMSTR	50	192	3
NMSI_	50	192	3	96	48	7
NMTAP	50	240	3
NMTAP	50	288	5
NMTAP	50	336	5
NMTAP	51	0	0
NMTAP	51	48	6
NMTAP	51	72	4
NMTAP	51	96	5
NMTAP	51	144	1
NMTAP	51	168	3
NMSTR	51	192	2
NMSI_	51	192	2	96	48	0
EXTAP	51	288	2
EXTAP	51	288	4
NMSTR	52	0	1
NMSCR	52	0	1	96	48	4
NMTAP	52	48	0
NMTAP	52	96	1
NMTAP	52	144	5
NMSTR	52	192	6
NMSI_	52	192	6	96	48	3
NMTAP	52	240	7
NMTAP	52	288	6
NMTAP	52	336	2
NMSTR	53	0	1
NMSI_	53	0	1	96	48	4
NMTAP	53	48	0
NMTAP	53	96	1
NMTAP	53	144	7
NMTAP	53	192	1
NMTAP	53	240	6
NMSTR	53	288	7
BRSCL	53	288	7	96	48	4
NMTAP	53	336	3
NMSTR	54	0	7
BRSCR	54	0	7	96	48	2
NMTAP	54	48	2
NMSTR	54	96	7
BRSCL	54	96	7	96	48	4
NMTAP	54	144	4
NMSTR	54	192	7
BRSCR	54	192	7	96	48	2
NMTAP	54	240	2
NMSTR	54	288	7
BRSI_	54	288	7	96	48	3
NMTAP	54	336	4
BRTAP	55	0	7
BRSTR	55	96	1
BRSI_	55	96	1	96	48	4
BRSTR	55	96	4
BRSCR	55	96	4	96	48	7
BRTAP	55	192	1
BRTAP	55	192	4
BRTAP	55	288	2
BRTAP	55	288	6
NMTAP	56	0	3
NMTAP	56	0	5
EXTAP	56	48	2
NMTAP	56	72	4
NMTAP	56	96	2
NMTAP	56	120	4
NMTAP	56	144	2
NMTAP	56	168	4
NMTAP	56	192	2
EXTAP	56	240	5
NMTAP	56	264	3
NMTAP	56	288	5
NMTAP	56	312	3
NMTAP	56	336	5
NMTAP	56	360	3
NMTAP	57	0	5
NMTAP	57	48	1
NMTAP	57	72	3
NMTAP	57	96	1
NMTAP	57	120	3
NMTAP	57	144	1
NMTAP	57	168	3
NMTAP	57	192	1
NMTAP	57	240	7
NMTAP	57	264	0
NMTAP	57	288	7
NMTAP	57	312	0
NMTAP	57	336	7
NMTAP	57	360	0
NMTAP	58	0	7
NMTAP	58	48	1
NMTAP	58	48	6
NMTAP	58	96	5
NMTAP	58	144	4
NMTAP	58	192	2
NMTAP	58	192	3
NMTAP	58	240	2
NMTAP	58	240	3
NMTAP	58	288	1
NMTAP	58	336	0
NMSTR	59	0	7
NMSCL	59	0	7	96	96	3
NMSTR	59	96	3
NMSCL	59	96	3	96	96	7
NMTAP	59	192	7
NMTAP	59	288	3
NMHLD	60	0	4	48
NMHLD	60	0	6	48
NMTAP	60	96	1
NMTAP	60	96	3
NMTAP	60	144	2
NMHLD	60	192	4	48
NMHLD	60	192	5	48
NMTAP	60	288	3
NMTAP	60	288	4
NMTAP	60	336	2
NMTAP	61	0	1
NMHLD	61	0	5	288
BRTAP	61	96	0
BRTAP	61	144	0
BRTAP	61	192	0
BRTAP	61	240	0
BRTAP	61	288	0
NMSTR	62	0	2
NMSI_	62	0	2	96	48	0
NMHLD	62	0	4	96
NMHLD	62	192	3	96
NMSTR	62	192	5
NMSI_	62	192	5	96	48	7
NMSTR	63	0	2
NMSI_	63	0	2	96	48	0
NMHLD	63	0	4	96
NMHLD	63	192	3	96
NMSTR	63	192	5
NMSI_	63	192	5	96	48	7
NMSTR	64	0	2
NMSI_	64	0	2	96	48	7
NMHLD	64	0	4	96
NMHLD	64	192	3	96
NMSTR	64	192	5
NMSI_	64	192	5	96	48	0
NMSTR	65	0	2
NMSI_	65	0	2	96	48	7
NMSTR	65	0	3
NMSI_	65	0	3	96	48	7
BRTAP	65	192	0
BXTAP	65	192	6
BXTAP	65	204	1
BRTAP	65	204	5
BRTAP	65	216	2
BXTAP	65	216	4
BRTAP	65	228	3
NMSTR	66	0	2
NMSCL	66	0	2	96	48	7
NMHLD	66	0	3	96
NMHLD	66	192	3	96
NMSTR	66	192	4
NMSCR	66	192	4	96	48	7
NMSTR	67	0	3
NMSCL	67	0	3	96	48	0
NMHLD	67	0	4	96
NMHLD	67	192	4	96
NMSTR	67	192	5
NMSCR	67	192	5	96	48	0
NMSTR	68	0	1
NMSI_	68	0	1	96	48	5
NMTAP	68	48	1
EXSTR	68	96	6
NMSI_	68	96	6	96	48	3
NMTAP	68	144	6
NMSTR	68	192	0
NMSI_	68	192	0	96	48	4
NMTAP	68	240	0
EXSTR	68	288	7
NMSI_	68	288	7	96	48	3
NMTAP	68	336	7
NMTAP	69	0	2
NMTAP	69	96	0
NMTAP	69	144	0
NMTAP	69	192	1
NMTAP	69	192	7
BRTAP	69	288	2
BRTAP	69	288	6
NMTAP	70	0	2
NMTAP	70	48	1
NMTAP	70	48	3
NMTAP	70	96	5
NMTAP	70	144	4
NMTAP	70	144	6
NMSTR	70	192	7
NMSI_	70	192	7	96	48	3
NMTAP	70	240	7
NMTAP	70	288	0
NMTAP	70	336	0
NMTAP	71	0	0
NMTAP	71	24	1
NMTAP	71	48	2
NMTAP	71	72	3
NMTAP	71	96	6
NMTAP	71	120	5
NMTAP	71	144	4
NMTAP	71	168	3
BRTAP	71	192	1
EXTAP	71	264	0
EXTAP	71	264	2
EXTAP	71	336	3
EXTAP	71	336	7
EXSTR	72	0	4
NMSI_	72	0	4	96	48	0
EXSTR	72	0	6
NMSI_	72	0	6	96	48	3
EXTAP	72	192	7
EXTAP	72	264	0
EXTAP	72	264	6
EXTAP	72	336	1
EXTAP	72	336	5
EXTAP	73	0	1
EXSTR	73	0	5
NMSI_	73	0	5	96	48	1
NMSTR	73	96	0
NMSCR	73	96	0	96	144	6
BRTAP	73	192	7
NMTAP	74	0	1
NMTAP	74	24	0
NMTAP	74	48	1
NMTAP	74	96	2
NMTAP	74	96	7
NMTAP	74	144	2
NMTAP	74	144	7
NMTAP	74	192	6
NMTAP	74	216	7
NMTAP	74	240	6
NMTAP	74	288	0
NMTAP	74	288	5
NMTAP	74	336	0
NMTAP	74	336	5
EXTAP	75	0	1
EXTAP	75	0	4
NMTAP	75	24	2
NMTAP	75	48	3
NMTAP	75	72	4
NMTAP	75	96	5
NMTAP	75	120	6
NMTAP	75	144	7
NMTAP	75	168	0
EXTAP	75	192	1
EXTAP	75	192	5
NMTAP	75	216	4
NMTAP	75	240	3
NMTAP	75	264	2
NMTAP	75	288	1
NMTAP	75	312	0
NMTAP	75	336	7
NMTAP	75	360	6
EXSTR	76	0	3
NMSI_	76	0	3	96	48	0
EXTAP	76	0	5
NMTAP	76	96	4
NMSTR	76	144	4
NMSI_	76	144	4	96	48	7
NMTAP	76	240	0
NMSTR	76	288	0
NMSCL	76	288	0	96	192	1
NMTTP	77	0	0	C	1	M1
BRTAP	77	288	7
NMTAP	78	0	2
NMTAP	78	96	1
NMTAP	78	96	3
NMTAP	78	192	5
NMTAP	78	240	5
NMTAP	78	288	4
NMTAP	79	0	2
NMTTP	79	96	1	B	0	M1
NMTTP	79	96	3	B	0	M1
NMTAP	79	192	5
NMTAP	79	240	5
NMTTP	79	288	4	B	0	M1
NMTAP	80	0	1
NMTAP	80	96	0
NMTAP	80	96	2
NMTAP	80	192	6
NMTAP	80	240	6
NMTAP	80	288	7
NMTAP	81	0	1
NMTTP	81	96	0	B	0	M1
NMTTP	81	96	2	B	0	M1
NMTAP	81	192	6
NMTAP	81	240	6
NMTTP	81	288	7	B	0	M1
BRTAP	82	0	1
EXSTR	82	48	1
NMSI_	82	48	1	96	48	4
NMTAP	82	144	0
NMTAP	82	192	7
NMSTR	82	240	6
NMSI_	82	240	6	96	48	3
NMTAP	82	336	0
NMTAP	83	0	1
NMSTR	83	48	2
NMSI_	83	48	2	96	48	7
NMTAP	83	144	4
NMTAP	83	192	5
NMHLD	83	240	6	96
NMTAP	83	336	0
NMTAP	84	0	1
NMTAP	84	48	1
NMTAP	84	96	2
NMTAP	84	96	3
NMTAP	84	144	2
NMTAP	84	144	3
NMTAP	84	192	3
NMTAP	84	192	4
NMTAP	84	240	3
NMTAP	84	240	4
NMTAP	84	288	4
NMTAP	84	288	5
NMTAP	84	336	4
NMTAP	84	336	5
BRTAP	85	0	3
BRTAP	85	0	6
NMTAP	85	96	7
NMTAP	85	120	0
NMTAP	85	144	7
NMTAP	85	168	0
NMTAP	85	192	7
NMTAP	85	216	0
NMTAP	85	240	7
NMTAP	85	264	0
NMSTR	85	288	6
NMSI_	85	288	6	96	48	2
NMHLD	86	0	1	384
BRTAP	86	0	6
NMTHO	86	192	0	192	C	1	M1
NMTAP	87	192	0
NMTAP	87	216	1
NMTAP	87	240	2
NMTAP	87	264	3
NMTAP	87	288	4
NMTAP	87	312	5
NMTAP	87	336	6
NMTAP	87	360	7
NMSTR	88	0	0
NMSI_	88	0	0	96	48	4
BRTAP	88	96	0
NMTAP	88	192	5
NMTAP	88	216	3
NMTAP	88	240	5
NMTAP	88	264	3
BXSTR	88	288	7
BRSCL	88	288	7	96	48	3
BRSUL	88	288	7	96	48	3
BRSTR	89	0	7
BRSCR	89	0	7	96	48	3
BRSUR	89	0	7	96	48	3
BRSTR	89	96	7
BRSCL	89	96	7	96	48	3
BRSUL	89	96	7	96	48	3
BRSTR	89	192	7
BRSCR	89	192	7	96	48	3
BRSUR	89	192	7	96	48	3
BRTAP	89	288	7
EXTAP	90	0	2
EXTAP	90	0	4
NMSTR	90	96	1
NMSI_	90	96	1	96	48	4
NMSTR	90	96	5
NMSI_	90	96	5	96	48	0
NMTAP	90	192	1
NMTAP	90	192	5
BRTAP	90	288	3
BRTAP	90	288	7
NMSTR	91	0	2
NMSI_	91	0	2	96	48	7
NMTAP	91	48	2
NMTAP	91	96	3
NMTAP	91	144	4
NMSTR	91	192	5
NMSI_	91	192	5	96	48	0
NMTAP	91	240	5
NMTAP	91	288	3
NMTAP	91	336	2
NMHLD	92	0	1	96
BRSTR	92	96	7
NMSLR	92	96	7	96	96	3
NMSTR	92	192	3
NMSLR	92	192	3	96	96	7
NMSTR	92	288	7
BRSCL	92	288	7	96	96	3
NMSTR	93	0	3
BRSCL	93	0	3	96	96	7
NMTAP	93	96	7
NMTAP	93	192	4
NMTAP	93	288	0
NMTAP	93	288	6
NMTAP	93	336	1
NMTAP	93	336	5
NMTAP	94	0	2
NMTAP	94	0	4
NMTAP	94	48	5
NMTAP	94	72	3
NMTAP	94	96	5
NMTAP	94	120	3
NMTAP	94	144	5
NMTAP	94	168	3
BRTAP	94	192	4
EXSTR	94	288	0
NMSCL	94	288	0	96	48	6
NMSTR	95	0	0
NMSCR	95	0	0	96	48	2
NMHLD	95	0	4	24
NMHLD	95	48	4	24
NMSTR	95	96	0
NMSI_	95	96	0	96	48	6
NMHLD	95	96	4	24
NMHLD	95	144	4	24
NMSTR	95	192	0
NMSI_	95	192	0	96	48	2
NMHLD	95	192	4	24
NMHLD	95	240	4	24
NMSTR	95	288	0
NMSCL	95	288	0	96	48	5
NMHLD	95	288	4	24
NMHLD	95	336	4	24
NMSTR	96	0	0
BRSCR	96	0	0	96	48	3
NMHLD	96	0	4	24
NMHLD	96	48	4	24
BRTAP	96	96	0
NMHLD	96	96	4	24
NMHLD	96	144	4	24
EXTAP	96	192	3
NMTAP	96	192	5
NMTAP	96	240	6
BRTAP	96	288	1
EXSTR	96	288	7
NMSI_	96	288	7	96	48	2
NMHLD	97	0	3	24
NMSTR	97	0	7
NMSI_	97	0	7	96	48	5
NMHLD	97	48	3	24
NMHLD	97	96	3	24
NMSTR	97	96	7
NMSI_	97	96	7	96	48	1
NMHLD	97	144	3	24
NMHLD	97	192	3	24
NMSTR	97	192	7
NMSI_	97	192	7	96	48	4
NMHLD	97	240	3	24
NMHLD	97	288	3	24
NMSTR	97	288	7
BRSI_	97	288	7	96	48	3
NMHLD	97	336	3	24
BXTAP	98	0	3
BXSTR	98	0	7
NMSCL	98	0	7	96	48	4
NMSCR	98	0	7	96	48	2
BXSTR	98	96	7
BRSF_	98	96	7	96	48	3
BXTAP	98	192	7
BRTAP	98	288	1
BRTAP	98	288	5
NMTAP	99	0	0
NMTAP	99	0	6
NMTAP	99	24	1
NMTAP	99	48	2
NMTAP	99	72	3
NMTAP	99	96	0
NMTAP	99	120	7
NMTAP	99	144	6
NMTAP	99	168	5
NMTAP	99	192	1
NMTAP	99	216	2
NMTAP	99	240	3
NMTAP	99	264	4
BXTAP	99	288	7
BXTAP	99	336	7
NMTAP	100	0	0
NMTAP	100	0	6
NMTAP	100	24	5
NMTAP	100	48	4
NMTAP	100	72	3
NMTAP	100	96	7
NMTAP	100	120	0
NMTAP	100	144	1
NMTAP	100	168	2
NMTAP	100	192	4
NMTAP	100	216	5
NMTAP	100	240	6
NMTAP	100	264	7
BXTAP	100	288	0
NMSTR	101	0	1
NMSI_	101	0	1	96	48	3
NMSTR	101	48	0
NMSI_	101	48	0	96	48	4
NMTAP	101	96	1
NMTAP	101	144	0
NMSTR	101	192	1
NMSI_	101	192	1	96	48	5
NMSTR	101	240	0
NMSI_	101	240	0	96	48	6
NMTAP	101	288	1
NMTAP	101	336	0
BRHLD	102	0	3	192
NMTTP	102	192	4	E	0	M1
NMTTP	102	204	3	E	0	M1
NMTTP	102	216	2	E	0	M1
NMTTP	102	228	1	E	0	M1
NMTTP	102	240	0	E	0	M1
NMTTP	102	252	7	E	0	M1
NMTTP	102	264	6	E	0	M1
NMTTP	102	276	5	E	0	M1
NMTTP	102	288	0	C	0	M1
NMTTP	102	288	4	E	1	M1
NMTAP	103	0	1
NMTAP	103	24	0
NMTAP	103	48	1
NMTAP	103	96	6
NMTAP	103	120	7
NMTAP	103	144	6
NMTAP	103	192	0
NMTAP	103	216	7
NMTAP	103	240	0
NMTAP	103	264	7
NMTAP	103	288	1
NMTAP	103	312	6
NMTAP	103	336	0
NMTAP	103	360	7
BRTAP	104	0	1
BRTAP	104	48	2
BRTAP	104	96	3
BRSTR	104	144	4
NMSI_	104	144	4	96	48	0
BRTAP	104	192	5
EXTAP	104	240	6
CNSI_	104	288	0	0	48	2
EXTAP	104	288	6
BXTAP	105	0	3
BRTAP	105	0	7
NMTAP	105	72	5
NMTAP	105	96	4
NMTAP	105	144	4
NMTAP	105	192	3
NMSTR	105	192	5
NMSCL	105	192	5	96	48	2
NMTAP	105	240	6
NMTAP	105	288	0
NMHLD	106	0	1	72
NMTAP	106	72	3
NMTAP	106	96	2
NMTAP	106	144	2
NMSTR	106	192	1
NMSCR	106	192	1	96	48	4
NMTAP	106	240	0
NMTAP	106	288	7
NMHLD	107	0	6	72
NMTAP	107	72	4
NMTAP	107	96	5
NMTAP	107	144	5
NMSTR	107	192	6
NMSI_	107	192	6	96	48	2
NMTAP	107	240	7
NMHLD	107	288	0	96
NMTAP	108	0	3
NMTAP	108	48	3
NMTAP	108	96	1
NMTAP	108	96	4
NMTAP	108	144	2
NMTAP	108	144	5
NMTAP	108	192	3
NMTAP	108	192	6
NMTAP	108	240	5
NMTAP	108	264	4
NMTAP	108	288	5
NMTAP	108	336	2
NMTAP	108	360	3
NMSTR	109	0	2
NMSI_	109	0	2	96	48	6
EXTAP	109	48	4
NMTAP	109	96	2
EXTAP	109	144	4
NMSTR	109	192	7
NMSI_	109	192	7	96	48	1
EXTAP	109	240	5
NMTAP	109	288	7
EXTAP	109	336	5
NMSTR	110	0	2
NMSI_	110	0	2	96	48	7
EXTAP	110	48	6
NMTAP	110	96	2
EXTAP	110	144	6
NMSTR	110	192	0
NMSCR	110	192	0	96	48	3
EXTAP	110	240	5
NMTAP	110	288	0
BRTAP	110	288	7
NMSTR	111	0	6
NMSI_	111	0	6	96	48	2
EXTAP	111	48	4
NMTAP	111	96	6
EXTAP	111	144	4
NMSTR	111	192	0
NMSCL	111	192	0	96	48	5
EXTAP	111	240	3
NMTAP	111	288	0
EXTAP	111	336	3
NMTAP	112	0	2
EXTAP	112	48	1
EXTAP	112	48	3
NMTAP	112	96	5
EXTAP	112	144	4
EXTAP	112	144	6
BRTAP	112	192	0
NMTAP	112	240	1
NMTAP	112	264	7
NMTAP	112	288	1
NMTAP	112	312	7
NMTAP	112	336	2
NMTAP	112	360	6
BRSTR	113	0	1
BRSCL	113	0	1	96	48	0
CNSI_	113	144	0	0	48	6
CNSCL	113	192	6	0	48	5
CNSV_	113	240	5	0	48	3
CNSV_	113	288	3	0	480	1
NMSTR	115	0	0
NMSCR	115	0	0	96	288	7
EXTAP	116	0	0
EXTAP	116	96	0
EXTAP	116	192	0
BRTAP	116	288	2
BRTAP	116	288	4
NMSTR	117	0	1
NMSI_	117	0	1	96	48	3
NMSTR	117	0	5
NMSI_	117	0	5	96	48	3
NMTAP	117	96	1
NMTAP	117	96	5
NMSTR	117	192	0
NMSI_	117	192	0	96	48	3
NMSTR	117	240	6
NMSI_	117	240	6	96	48	3
NMTAP	117	288	0
NMTAP	117	336	6
EXTAP	118	0	7
EXTAP	118	72	7
BXTAP	118	144	0
BXTAP	118	144	6
NMTAP	118	240	3
NMTAP	118	264	4
BRTAP	118	288	2
BRTAP	118	288	5
NMTAP	119	0	1
NMTAP	119	0	6
NMTAP	119	48	2
NMTAP	119	72	4
NMTAP	119	96	1
NMTAP	119	120	5
NMTAP	119	144	1
NMTAP	119	168	5
BXTAP	119	192	0
EXSTR	119	240	1
BRSV_	119	240	1	96	48	4
EXSTR	119	240	7
BRSV_	119	240	7	96	48	4
EXTAP	119	264	2
EXTAP	119	264	6
EXTAP	119	288	3
EXTAP	119	288	5
NMTTP	119	336	0	C	1	M1

T_REC_TAP	491
T_REC_BRK	66
T_REC_XTP	79
T_REC_BXX	18
T_REC_HLD	74
T_REC_XHO	1
T_REC_BHO	1
T_REC_BXH	1
T_REC_STR	109
T_REC_BST	9
T_REC_XST	13
T_REC_XBS	6
T_REC_TTP	22
T_REC_THO	1
T_REC_SLD	119
T_REC_BSL	28
T_REC_ALL	1038
T_NUM_TAP	714
T_NUM_BRK	129
T_NUM_HLD	76
T_NUM_SLD	119
T_NUM_ALL	1038
T_JUDGE_TAP	813
T_JUDGE_HLD	165
T_JUDGE_SLD	147
T_JUDGE_ALL	1125
TTM_EACHPAIRS	165
TTM_SCR_TAP	357000
TTM_SCR_BRK	335400
TTM_SCR_HLD	76000
TTM_SCR_SLD	178500
TTM_SCR_ALL	946900
TTM_SCR_S	906000
TTM_SCR_SS	934000
TTM_RAT_ACV	10138

