VERSION	0.00.00	1.05.00
FES_MODE	0
BPM_DEF	202.000	202.000	202.000	202.000
MET_DEF	4	4
RESOLUTION	384
CLK_DEF	384
COMPATIBLE_CODE	MA2

BPM	0	0	202.000
MET	0	0	4	4

NMHLD	2	0	1	192
NMHLD	2	192	2	192
NMHLD	3	0	3	192
NMTAP	3	192	4
NMHLD	4	0	5	192
NMHLD	4	192	6	192
NMTAP	5	0	7
NMTAP	5	192	0
NMTAP	5	192	7
NMTAP	5	288	0
NMTAP	5	288	7
NMHLD	6	0	1	96
NMTAP	6	96	0
NMHLD	6	192	6	96
NMTAP	6	288	7
NMHLD	7	0	2	96
NMTAP	7	96	3
NMTAP	7	192	5
NMTAP	7	288	4
NMTAP	7	288	5
NMTAP	8	0	3
NMTAP	8	0	6
NMTAP	8	96	3
NMTAP	8	96	6
NMTAP	8	192	1
NMTAP	8	192	4
NMTAP	8	288	1
NMTAP	8	288	4
BXTAP	9	0	0
BXTAP	9	0	7
NMTAP	10	0	5
NMTAP	10	96	4
NMTAP	10	96	5
NMTAP	10	192	6
NMTAP	10	240	6
NMTAP	10	288	7
NMTAP	11	0	1
NMTAP	11	96	0
NMTAP	11	96	1
NMTAP	11	192	2
NMTAP	11	240	2
NMTAP	11	288	3
NMTAP	12	0	2
NMTAP	12	0	3
NMTAP	12	96	2
NMTAP	12	96	3
NMTAP	12	192	0
NMTAP	12	192	1
NMTAP	12	288	0
NMTAP	12	288	1
NMTAP	13	0	6
NMTAP	13	0	7
NMTAP	13	96	6
NMTAP	13	96	7
EXTAP	13	192	4
EXTAP	13	192	5
NMTAP	14	0	2
NMTAP	14	96	2
NMTAP	14	96	3
NMTAP	14	192	1
NMTAP	14	240	1
NMTAP	14	288	0
NMTAP	15	0	6
NMTAP	15	96	6
NMTAP	15	96	7
NMTAP	15	192	5
NMTAP	15	240	5
NMTAP	15	288	4
NMTAP	16	0	4
NMTAP	16	0	5
NMTAP	16	96	4
NMTAP	16	96	5
NMTAP	16	192	6
NMTAP	16	192	7
NMTAP	16	288	6
NMTAP	16	288	7
BRTAP	17	0	0
BRTAP	17	0	5
NMTAP	18	0	1
NMHLD	18	96	1	480
NMTAP	18	192	3
NMTAP	18	288	3
NMTAP	19	0	2
NMTAP	19	96	2
NMTAP	19	192	3
NMTAP	20	0	6
NMHLD	20	96	6	480
NMTAP	20	192	4
NMTAP	20	288	4
NMTAP	21	0	5
NMTAP	21	96	5
NMTAP	21	192	4
NMTAP	22	0	1
NMHLD	22	96	1	480
NMTAP	22	192	3
NMTAP	22	288	3
NMTAP	23	0	2
NMTAP	23	96	2
NMTAP	23	192	3
NMHLD	24	0	1	96
NMHLD	24	0	3	96
NMHLD	24	192	4	96
NMHLD	24	192	6	96
NMTAP	25	0	3
NMTAP	25	0	4
NMTAP	25	96	2
NMTAP	25	96	5
BRTAP	25	192	1
BRTAP	25	192	6
NMSTR	26	0	0
NMSI_	26	0	0	96	96	4
NMTTP	26	192	5	B	0	M1
NMTTP	26	192	6	E	0	M1
BRTAP	27	0	7
BRTAP	27	96	7
EXTAP	27	288	3
EXTAP	27	288	6
NMSTR	28	0	2
NMSCL	28	0	2	96	96	7
NMSTR	28	192	6
NMSCL	28	192	6	96	96	3
NMTAP	29	0	2
NMTAP	29	96	1
NMTAP	29	96	3
NMTAP	29	192	0
NMTAP	29	192	4
NMTAP	30	0	1
NMTAP	30	96	1
NMTAP	30	96	3
NMTAP	30	192	4
NMTAP	30	240	4
NMTAP	30	288	3
NMTAP	31	0	6
NMTAP	31	96	4
NMTAP	31	96	6
NMTAP	31	192	7
NMTAP	31	240	7
NMSTR	31	288	0
NMSUL	31	288	0	96	192	7
NMTAP	33	0	0
NMTAP	33	0	7
NMTAP	33	96	0
NMTAP	33	96	7
BRTAP	33	192	1
BRTAP	33	192	6
NMTAP	34	0	5
NMHLD	34	96	5	288
NMTAP	34	192	4
NMTAP	34	288	4
NMTTP	35	0	6	E	0	M1
NMTTP	35	96	5	E	0	M1
NMTTP	35	192	4	E	0	M1
NMTAP	36	0	2
NMHLD	36	96	2	288
NMTAP	36	192	3
NMTAP	36	288	3
NMTTP	37	0	2	E	0	M1
NMTTP	37	96	3	E	0	M1
NMTTP	37	192	4	E	0	M1
NMSTR	38	0	5
NMSI_	38	0	5	96	96	2
NMSTR	38	192	1
NMSI_	38	192	1	96	96	5
NMTAP	39	0	6
NMTAP	39	96	6
NMTAP	39	192	6
NMTAP	39	192	7
NMHLD	40	0	5	384
NMTTP	40	96	7	E	0	M1
NMTTP	40	192	6	E	0	M1
NMTTP	40	288	5	E	0	M1
NMTTP	41	0	4	E	0	M1
NMTTP	41	96	3	E	0	M1
NMTTP	41	192	2	E	0	M1
NMTTP	41	288	1	E	0	M1
NMTHO	42	0	0	384	C	1	M1
BRTAP	44	0	0
BRTAP	44	0	1
NMTAP	44	96	0
NMTAP	44	96	1
NMTAP	44	192	6
NMTAP	44	192	7
NMTAP	44	288	6
NMTAP	44	288	7
NMTAP	45	0	4
NMTAP	45	0	5
NMTAP	45	96	6
NMTAP	45	96	7
NMTAP	45	192	0
NMTAP	45	192	1
NMTAP	45	288	2
NMTAP	45	288	3
NMTAP	46	0	4
NMTAP	46	0	5
NMTAP	46	96	4
NMTAP	46	96	5
NMTAP	46	192	2
NMTAP	46	192	3
NMTAP	46	288	2
NMTAP	46	288	3
NMTAP	47	0	0
NMTAP	47	0	1
BRTAP	47	96	2
BRTAP	47	96	7
BRTAP	47	192	2
BRTAP	47	192	7
BRTAP	47	288	2
BRTAP	47	288	7
NMSTR	48	0	3
NMSCL	48	0	3	96	96	0
NMSTR	48	192	6
NMSCL	48	192	6	96	96	3
NMHLD	49	0	1	96
BRTAP	49	96	3
NMTAP	49	192	0
NMTAP	49	192	5
NMTAP	49	288	0
NMTAP	49	288	5
NMTAP	50	0	6
NMTAP	50	0	7
NMTAP	50	96	4
NMTAP	50	96	5
NMTAP	50	192	2
NMTAP	50	192	3
NMTAP	50	288	0
NMTAP	50	288	1
NMTAP	51	0	6
NMTAP	51	0	7
BRTAP	51	192	0
BRTAP	51	288	0
NMTAP	52	0	6
NMTAP	52	0	7
NMTAP	52	96	6
NMTAP	52	96	7
NMTAP	52	192	0
NMTAP	52	192	1
NMTAP	52	288	0
NMTAP	52	288	1
NMTAP	53	0	2
NMTAP	53	0	3
NMTAP	53	96	0
NMTAP	53	96	1
NMTAP	53	192	6
NMTAP	53	192	7
NMTAP	53	288	4
NMTAP	53	288	5
NMTAP	54	0	2
NMTAP	54	0	3
NMTAP	54	96	2
NMTAP	54	96	3
NMTAP	54	192	4
NMTAP	54	192	5
NMTAP	54	288	4
NMTAP	54	288	5
NMTAP	55	0	6
NMTAP	55	0	7
BRTAP	55	96	0
BRTAP	55	96	5
BRTAP	55	192	0
BRTAP	55	192	5
BRTAP	55	288	0
BRTAP	55	288	5
NMSTR	56	0	1
NMSCL	56	0	1	96	96	6
NMSTR	56	192	5
NMSCL	56	192	5	96	96	2
NMHLD	57	0	0	96
BRTAP	57	96	7
NMTAP	57	192	0
NMTAP	57	192	1
NMTAP	57	288	0
NMTAP	57	288	1
NMTAP	58	0	2
NMTAP	58	0	3
NMTAP	58	96	0
NMTAP	58	96	1
NMTAP	58	192	6
NMTAP	58	192	7
NMTAP	58	288	4
NMTAP	58	288	5
NMTAP	59	0	2
NMTAP	59	0	3
NMTAP	59	192	0
NMTAP	59	288	0
NMSTR	60	0	1
NMSI_	60	0	1	96	144	5
NMSTR	60	0	7
NMSI_	60	0	7	96	144	3
NMTAP	61	0	2
NMTAP	61	0	6
BXTAP	61	96	7
BXTAP	61	192	7
BXTAP	61	288	7
EXHLD	62	96	6	1152
EXTAP	62	96	7
EXTAP	62	288	0
EXTAP	63	0	5
EXTAP	63	96	7
EXTAP	63	288	0
EXTAP	64	0	5
EXTAP	64	96	7
EXTAP	64	288	0
NMTAP	65	0	4
NMTAP	65	96	4
BXTAP	65	192	3
BXTAP	65	192	7
NMTAP	66	0	1
EXHLD	66	96	1	1152
EXTAP	66	288	7
EXTAP	67	0	2
EXTAP	67	96	0
EXTAP	67	288	7
EXTAP	68	0	2
EXTAP	68	96	0
EXTAP	68	288	7
NMTAP	69	0	2
NMTAP	69	96	2
EXTAP	69	192	0
EXTAP	69	192	3
NMTAP	70	0	1
NMTAP	70	48	1
NMTAP	70	96	0
NMTAP	70	192	6
NMTAP	70	240	6
NMTAP	70	288	7
NMTAP	71	0	1
NMTAP	71	48	1
NMTAP	71	96	0
NMTAP	71	96	2
NMTAP	71	192	6
NMTAP	71	240	6
NMTAP	71	288	5
NMTAP	71	288	7
NMTAP	72	0	6
NMTAP	72	48	6
NMTAP	72	96	3
NMTAP	72	144	3
NMTAP	72	192	4
NMTAP	72	240	4
NMSTR	72	288	1
NMSLR	72	288	1	96	192	7
NMTAP	73	288	0
NMTAP	73	288	6
NMTAP	74	0	5
NMTAP	74	48	5
NMTAP	74	96	4
NMTAP	74	192	6
NMTAP	74	240	6
NMTAP	74	288	7
NMTAP	75	0	1
NMTAP	75	48	1
NMTAP	75	96	0
NMTAP	75	192	2
NMTAP	75	240	2
NMTAP	75	288	3
NMTAP	76	0	1
NMTAP	76	48	1
NMTAP	76	96	7
NMTAP	76	144	7
NMTAP	76	192	0
NMTAP	76	240	0
NMSTR	76	288	6
NMSI_	76	288	6	96	96	1
NMSI_	76	288	6	96	96	3
NMTAP	77	192	0
NMTAP	77	192	4
NMSTR	78	0	1
NMSCR	78	0	1	96	96	4
NMHLD	78	192	5	384
NMTTP	79	0	6	E	0	M1
NMTTP	79	96	7	E	0	M1
NMTTP	79	192	0	E	0	M1
NMSTR	80	0	5
NMSCL	80	0	5	96	96	2
NMHLD	80	192	1	384
NMTTP	81	0	2	E	0	M1
NMTTP	81	96	1	E	0	M1
NMTTP	81	192	0	E	0	M1
NMTAP	82	0	2
NMTAP	82	96	2
NMTAP	82	192	1
NMTAP	82	192	3
NMTAP	82	288	4
NMTAP	83	0	5
NMTAP	83	96	5
NMTAP	83	192	4
NMTAP	83	192	6
NMTAP	83	288	3
NMTTP	84	0	3	E	0	M1
NMTTP	84	96	4	E	0	M1
NMTTP	84	192	5	E	0	M1
NMTTP	84	288	6	E	0	M1
NMTTP	85	0	7	E	0	M1
NMTTP	85	96	0	E	0	M1
NMTTP	85	192	1	E	0	M1
NMTTP	85	288	2	E	0	M1
NMTHO	86	0	0	384	C	1	M1
NMTAP	88	0	0
NMTAP	88	0	7
NMTAP	88	96	0
NMTAP	88	96	7
NMTAP	88	192	1
NMTAP	88	192	6
NMTAP	89	0	0
NMTAP	89	0	7
NMTAP	89	96	1
NMTAP	89	96	3
NMTAP	89	192	3
NMTAP	89	192	4
NMTAP	89	288	4
NMTAP	89	288	6
NMTAP	90	0	0
NMTAP	90	0	7
NMTAP	90	96	1
EXTAP	90	96	3
NMTAP	90	192	1
EXTAP	90	192	3
NMTAP	90	288	1
EXTAP	90	288	3
NMHLD	91	0	2	96
NMTAP	91	96	0
NMHLD	91	192	5	96
NMTAP	91	288	7
NMTAP	92	0	6
NMTAP	92	0	7
BRTAP	92	96	4
BRTAP	92	96	5
NMTAP	92	192	2
NMTAP	92	192	3
NMTAP	92	288	0
NMTAP	92	288	1
NMTAP	93	0	6
NMTAP	93	48	6
NMTAP	93	96	7
NMTAP	93	192	4
NMTAP	93	192	5
NMTAP	93	288	4
NMTAP	93	288	5
NMTAP	94	0	2
NMTAP	94	0	7
BXTAP	94	192	0
BRTAP	94	288	0
NMTAP	95	0	0
NMTAP	95	0	1
NMTAP	95	96	4
NMTAP	95	96	5
NMTAP	95	192	6
NMTAP	95	192	7
NMTAP	95	288	2
NMTAP	95	288	3
NMTAP	96	0	0
NMTAP	96	0	1
NMTAP	96	96	0
NMTAP	96	96	1
NMTAP	96	192	2
NMTAP	96	192	7
NMTAP	97	0	0
NMSTR	97	0	1
NMSCR	97	0	1	96	96	4
NMSTR	97	192	5
NMSCR	97	192	5	96	96	0
NMSTR	98	0	2
NMSUR	98	0	2	96	192	5
NMTAP	99	0	4
NMTAP	99	0	6
NMTAP	99	96	0
NMTAP	99	96	7
NMTAP	99	192	1
NMTAP	99	192	3
NMTAP	99	288	3
NMTAP	99	288	4
NMTAP	100	0	4
NMTAP	100	0	6
BRTAP	100	96	4
BRTAP	100	96	6
NMTAP	100	192	5
NMTAP	100	240	5
NMTAP	100	288	4
NMTAP	100	336	4
NMTAP	101	0	7
NMTAP	101	48	7
NMTAP	101	96	0
NMTAP	101	144	0
NMTAP	101	192	3
NMTAP	101	240	3
NMSTR	101	288	2
BRSUL	101	288	2	96	96	5
NMTAP	102	192	4
NMTAP	102	192	6
NMTAP	102	288	4
NMTAP	102	288	6
NMTAP	103	0	6
NMTAP	103	0	7
NMTAP	103	96	0
NMTAP	103	96	1
NMTAP	103	192	4
NMTAP	103	192	6
NMTAP	103	288	1
NMTAP	103	288	3
NMTTP	104	0	0	A	0	M1
NMTTP	104	0	0	D	1	M1
NMTTP	104	0	1	D	0	M1
NMTTP	104	0	7	A	0	M1
NMTTP	104	0	7	D	0	M1
NMHLD	105	0	2	96
NMTAP	105	96	3
NMTAP	105	192	1
NMTAP	105	240	1
NMTAP	105	288	0
NMHLD	106	0	6	96
NMTAP	106	96	7
NMTAP	106	192	5
NMTAP	106	240	5
NMTAP	106	288	4
NMTAP	107	0	4
NMTAP	107	0	5
NMTAP	107	96	6
NMTAP	107	192	2
NMTAP	107	192	3
NMTAP	107	288	1
NMTAP	108	0	6
NMTAP	108	0	7
NMTAP	108	96	6
NMTAP	108	96	7
NMTAP	108	192	0
NMTAP	108	192	5
NMHLD	109	0	6	96
NMTAP	109	96	4
NMTAP	109	192	2
NMTAP	109	240	2
NMTAP	109	288	3
NMHLD	110	0	1	96
NMTAP	110	96	3
NMTAP	110	192	5
NMTAP	110	240	5
NMTAP	110	288	4
NMTAP	111	0	1
NMTAP	111	0	7
NMTAP	111	96	1
NMTAP	111	96	7
NMTAP	111	192	0
NMTAP	111	192	6
NMTAP	111	288	0
NMTAP	111	288	6
NMTAP	112	0	2
NMTAP	112	0	4
NMTAP	112	96	2
NMTAP	112	96	4
BRTAP	112	192	1
BRTAP	112	192	5
NMSTR	113	0	0
NMSXL	113	0	0	96	480	3
NMSTR	113	0	6
NMSXR	113	0	6	96	480	3
NMSTR	115	0	2
NMSXR	115	0	2	96	480	7
NMSTR	115	0	4
NMSXL	115	0	4	96	480	7
NMTAP	117	0	6
NMTAP	117	0	7
NMTAP	117	96	6
NMTAP	117	96	7
NMTAP	117	192	1
NMTAP	117	240	1
NMTAP	117	288	0
NMHLD	118	0	1	72
NMHLD	118	72	2	72
NMTAP	118	144	3
NMTAP	118	240	6
NMTAP	118	288	4
NMTAP	118	288	6
NMTAP	119	0	5
NMTAP	119	48	5
NMTAP	119	96	4
EXTAP	119	192	3
EXTAP	119	192	4
EXTAP	119	264	2
EXTAP	119	264	5
BXTAP	119	336	1
BXTAP	119	336	6

T_REC_TAP	392
T_REC_BRK	33
T_REC_XTP	28
T_REC_BXX	10
T_REC_HLD	30
T_REC_XHO	2
T_REC_BHO	0
T_REC_BXH	0
T_REC_STR	24
T_REC_BST	0
T_REC_XST	0
T_REC_XBS	0
T_REC_TTP	34
T_REC_THO	2
T_REC_SLD	24
T_REC_BSL	1
T_REC_ALL	580
T_NUM_TAP	478
T_NUM_BRK	44
T_NUM_HLD	34
T_NUM_SLD	24
T_NUM_ALL	580
T_JUDGE_TAP	521
T_JUDGE_HLD	184
T_JUDGE_SLD	25
T_JUDGE_ALL	730
TTM_EACHPAIRS	153
TTM_SCR_TAP	239000
TTM_SCR_BRK	114400
TTM_SCR_HLD	34000
TTM_SCR_SLD	36000
TTM_SCR_ALL	423400
TTM_SCR_S	406450
TTM_SCR_SS	419000
TTM_RAT_ACV	10105

