VERSION	0.00.00	1.05.00
FES_MODE	0
BPM_DEF	202.000	202.000	202.000	202.000
MET_DEF	4	4
RESOLUTION	384
CLK_DEF	384
COMPATIBLE_CODE	MA2

BPM	0	0	202.000
MET	0	0	4	4

NMTAP	2	0	3
NMTAP	2	192	3
NMTAP	3	0	2
NMTAP	3	192	2
NMTAP	4	0	1
NMTAP	4	192	1
NMTAP	5	0	0
NMTAP	5	0	7
NMTAP	5	192	0
NMTAP	5	192	7
NMTAP	6	0	7
NMTAP	6	192	7
NMTAP	7	0	6
NMTAP	7	192	6
NMTAP	8	0	5
NMTAP	8	192	5
NMTAP	9	0	3
NMTAP	9	0	4
NMTAP	10	0	4
NMTAP	10	96	4
NMTAP	10	192	5
NMTAP	11	0	6
NMTAP	11	96	6
NMTAP	11	192	7
NMTAP	12	0	0
NMTAP	12	96	0
NMTAP	12	192	1
NMTAP	13	0	2
NMTAP	13	96	2
NMTAP	13	192	2
NMTAP	13	192	3
NMTAP	14	0	3
NMTAP	14	96	3
NMTAP	14	192	2
NMTAP	15	0	1
NMTAP	15	96	1
NMTAP	15	192	0
NMTAP	16	0	7
NMTAP	16	96	7
NMTAP	16	192	6
NMTAP	17	0	5
NMTAP	17	96	5
NMTAP	17	192	4
NMTAP	17	192	5
NMHLD	18	0	5	192
NMTAP	18	192	4
NMTAP	19	0	5
NMTAP	19	96	5
NMTAP	19	192	4
NMTAP	19	192	5
NMHLD	20	0	6	192
NMTAP	20	192	7
NMTAP	21	0	6
NMTAP	21	96	6
NMTAP	21	192	6
NMTAP	21	192	7
NMHLD	22	0	1	192
NMTAP	22	192	0
NMTAP	23	0	1
NMTAP	23	96	1
NMTAP	23	192	0
NMTAP	23	192	1
NMHLD	24	0	2	192
NMTAP	24	192	3
NMTAP	25	0	2
NMTAP	25	96	2
NMTAP	25	192	2
NMTAP	25	192	3
NMTAP	26	0	2
NMTAP	26	96	2
NMTAP	26	192	2
NMTAP	26	192	3
NMTAP	27	0	1
NMTAP	27	96	1
NMTAP	27	192	0
NMTAP	27	192	1
NMTAP	28	0	7
NMTAP	28	96	7
NMTAP	28	192	6
NMTAP	28	192	7
NMTAP	29	0	4
NMTAP	29	0	5
NMTAP	29	96	4
NMTAP	29	96	5
NMTAP	29	192	4
NMTAP	29	192	5
NMTAP	30	0	5
NMTAP	30	96	5
NMTAP	30	192	4
NMTAP	30	192	5
NMTAP	31	0	6
NMTAP	31	96	6
NMTAP	31	192	6
NMTAP	31	192	7
NMTAP	32	0	0
NMTAP	32	96	0
NMTAP	32	192	0
NMTAP	32	192	1
NMTAP	33	0	2
NMTAP	33	0	3
NMTAP	33	96	2
NMTAP	33	96	3
BXTAP	33	192	2
BXTAP	33	192	3
NMSTR	34	0	2
NMSI_	34	0	2	96	288	5
NMTAP	35	192	6
NMSTR	36	0	6
NMSI_	36	0	6	96	288	3
NMTAP	37	192	2
NMSTR	38	0	1
NMSI_	38	0	1	96	288	5
NMTAP	39	192	6
NMSTR	40	0	7
NMSI_	40	0	7	96	288	3
NMTAP	41	192	2
NMTAP	42	0	2
NMTAP	42	0	3
NMTAP	42	192	4
NMTAP	43	0	3
NMTAP	43	0	4
NMTAP	44	0	5
NMTAP	44	96	5
NMTAP	44	192	6
NMTAP	44	288	6
NMTAP	45	0	7
NMTAP	45	96	7
NMTAP	45	192	0
NMTAP	45	192	1
NMTAP	46	0	2
NMTAP	46	96	2
NMTAP	46	192	1
NMTAP	46	288	1
NMTAP	47	0	0
NMTAP	47	96	0
NMTAP	47	192	6
NMTAP	47	192	7
NMTAP	48	0	6
NMTAP	48	96	6
NMTAP	48	192	5
NMTAP	48	288	5
NMTAP	49	0	4
NMTAP	49	96	4
NMTAP	49	192	2
NMTAP	49	192	3
NMTAP	50	0	1
NMTAP	50	96	1
NMTAP	50	192	2
NMTAP	50	288	2
NMTAP	51	0	3
NMTAP	51	96	3
BXTAP	51	192	4
BXTAP	51	192	5
NMTAP	52	0	5
NMTAP	52	96	5
NMTAP	52	192	6
NMTAP	52	288	6
NMTAP	53	0	7
NMTAP	53	96	7
NMTAP	53	192	0
NMTAP	53	192	1
NMTAP	53	288	0
NMTAP	53	288	1
NMTAP	54	0	2
NMTAP	54	96	2
NMTAP	54	192	1
NMTAP	54	288	1
NMTAP	55	0	0
NMTAP	55	96	0
NMTAP	55	192	6
NMTAP	55	192	7
NMTAP	56	0	6
NMTAP	56	96	6
NMTAP	56	192	5
NMTAP	56	288	5
NMTAP	57	0	4
NMTAP	57	96	4
NMTAP	57	192	2
NMTAP	57	192	3
NMTAP	57	288	2
NMTAP	57	288	3
NMTAP	58	0	1
NMTAP	58	96	1
NMTAP	58	192	2
NMTAP	58	288	2
NMTAP	59	0	3
NMTAP	59	96	3
BXTAP	59	192	4
BXTAP	59	192	5
NMTAP	60	0	3
NMTAP	60	96	2
NMTAP	60	192	1
NMTAP	60	288	0
NMTAP	61	0	7
NMTAP	61	96	6
NMTAP	61	192	4
NMTAP	61	192	5
NMHLD	62	0	5	192
NMHLD	62	192	4	192
NMHLD	63	0	3	192
NMTAP	63	192	2
NMHLD	64	0	2	192
NMHLD	64	192	3	192
NMHLD	65	0	4	192
BXTAP	65	192	5
NMHLD	66	0	6	192
NMHLD	66	192	5	192
NMHLD	67	0	4	192
NMTAP	67	192	3
NMHLD	68	0	1	192
NMHLD	68	192	2	192
NMHLD	69	0	3	192
NMTAP	69	192	4
NMTAP	70	0	2
NMTAP	70	96	2
NMTAP	70	192	2
NMTAP	70	288	2
NMTAP	71	0	1
NMTAP	71	96	1
NMTAP	71	192	1
NMTAP	71	288	1
NMTAP	72	0	0
NMTAP	72	96	0
NMTAP	72	192	0
NMTAP	72	288	0
NMTAP	73	0	6
NMTAP	73	0	7
NMTAP	74	0	5
NMTAP	74	96	5
NMTAP	74	192	5
NMTAP	74	288	5
NMTAP	75	0	6
NMTAP	75	96	6
NMTAP	75	192	6
NMTAP	75	288	6
NMTAP	76	0	7
NMTAP	76	96	7
NMTAP	76	192	7
NMTAP	76	288	7
NMTAP	77	0	0
NMTAP	77	0	1
NMTTP	78	0	1	B	0	L1
NMTTP	78	96	2	B	0	L1
NMTTP	78	192	3	B	0	L1
NMTTP	79	0	6	B	0	L1
NMTTP	79	96	5	B	0	L1
NMTTP	79	192	4	B	0	L1
NMTTP	80	0	1	B	0	L1
NMTTP	80	96	2	B	0	L1
NMTTP	80	192	3	B	0	L1
NMTTP	80	288	4	B	0	L1
NMTTP	81	0	0	C	0	L1
NMTTP	82	0	7	B	0	L1
NMTTP	82	96	6	B	0	L1
NMTTP	82	192	4	B	0	L1
NMTTP	82	192	5	B	0	L1
NMTTP	83	0	0	B	0	L1
NMTTP	83	96	1	B	0	L1
NMTTP	83	192	2	B	0	L1
NMTTP	83	192	3	B	0	L1
NMTTP	84	0	6	B	0	L1
NMTTP	84	96	5	B	0	L1
NMTTP	84	192	4	B	0	L1
NMTTP	84	288	3	B	0	L1
NMTTP	85	0	2	B	0	L1
NMTTP	85	96	1	B	0	L1
NMTHO	85	192	0	192	C	1	L1
NMHLD	87	0	1	192
NMTAP	87	192	0
NMHLD	88	0	6	192
NMTAP	88	192	7
NMTAP	89	0	5
NMTAP	89	96	5
NMTAP	89	192	6
NMTAP	89	192	7
NMTAP	89	288	6
NMTAP	89	288	7
NMTAP	90	0	0
NMTAP	90	96	0
NMTAP	90	192	0
NMTAP	90	192	1
NMTAP	91	0	1
NMTAP	91	96	1
NMTAP	91	192	2
NMTAP	91	192	3
NMTAP	91	288	2
NMTAP	91	288	3
NMTAP	92	0	4
NMTAP	92	96	4
NMTAP	92	192	4
NMTAP	92	192	5
NMTAP	93	0	6
NMTAP	93	96	6
NMTAP	93	192	4
NMTAP	93	192	5
NMTAP	93	288	4
NMTAP	93	288	5
NMTAP	94	0	3
NMTAP	94	96	3
BRTAP	94	192	2
BRTAP	94	192	3
NMTAP	95	0	1
NMTAP	95	96	1
NMTAP	95	192	1
NMTAP	95	288	0
NMTAP	95	288	1
NMTAP	96	0	2
NMTAP	96	96	2
NMTAP	96	192	2
NMTAP	96	288	2
NMTAP	96	288	3
NMTAP	97	0	4
NMTAP	97	96	4
NMTAP	97	192	4
NMTAP	97	288	4
NMTAP	97	288	5
NMTAP	98	0	6
NMTAP	98	0	7
NMTAP	98	96	6
NMTAP	98	96	7
NMTAP	98	192	6
NMTAP	98	192	7
NMTAP	99	0	6
NMTAP	99	96	6
NMTAP	99	192	6
NMTAP	99	288	6
NMTAP	99	288	7
NMTAP	100	0	5
NMTAP	100	96	5
NMTAP	100	192	5
NMTAP	100	288	4
NMTAP	100	288	5
NMTAP	101	0	3
NMTAP	101	96	3
NMTAP	101	192	3
NMTAP	101	288	2
NMTAP	101	288	3
NMTAP	102	0	0
NMTAP	102	0	1
NMTAP	102	96	0
NMTAP	102	96	1
NMTAP	102	192	0
NMTAP	102	192	1
NMTAP	103	0	1
NMTAP	103	96	2
NMTAP	103	192	3
NMTAP	103	288	4
NMTAP	104	0	5
NMTAP	104	96	6
NMTAP	104	192	0
NMTAP	104	192	7
NMTAP	105	0	6
NMTAP	105	0	7
NMTAP	105	96	6
NMTAP	105	96	7
NMTAP	105	192	0
NMTAP	105	192	5
NMTAP	106	0	4
NMTAP	106	0	5
NMTAP	106	96	4
NMTAP	106	96	5
NMTAP	106	192	3
NMTAP	106	192	6
NMTAP	107	0	2
NMTAP	107	0	3
NMTAP	107	96	2
NMTAP	107	96	3
NMTAP	107	192	1
NMTAP	107	192	4
NMTAP	108	0	0
NMTAP	108	0	1
NMTAP	108	96	0
NMTAP	108	96	1
NMTAP	108	192	2
NMTAP	108	192	7
NMTAP	109	0	0
NMTAP	109	0	1
NMTAP	109	96	0
NMTAP	109	96	1
NMTAP	109	192	2
NMTAP	109	288	2
NMTAP	110	0	3
NMTAP	110	0	4
NMTAP	110	96	3
NMTAP	110	96	4
NMTAP	110	192	2
NMTAP	110	192	5
NMTAP	111	0	4
NMTAP	111	0	5
NMTAP	111	96	4
NMTAP	111	96	5
NMTAP	111	192	6
NMTAP	111	288	6
NMTAP	112	0	0
NMTAP	112	0	7
NMTAP	112	96	0
NMTAP	112	96	7
BRTAP	112	192	0
BRTAP	112	192	7
NMHLD	113	0	6	192
NMTAP	113	192	7
NMTAP	114	0	6
NMTAP	114	0	7
NMTAP	114	192	6
NMTAP	114	192	7
NMHLD	115	0	1	192
NMTAP	115	192	0
NMTAP	116	0	0
NMTAP	116	0	1
NMTAP	116	192	0
NMTAP	116	192	1
NMTAP	117	0	0
NMTAP	117	96	1
NMTAP	117	192	2
NMTAP	117	288	3
NMTAP	118	0	4
NMTAP	118	96	5
NMTAP	118	192	6
NMTAP	118	288	7
NMTAP	119	0	0
NMTAP	119	0	7
NMTAP	119	96	0
NMTAP	119	96	7
NMTAP	119	192	1
NMTAP	119	192	6
NMTAP	119	288	1
NMTAP	119	288	6
EXTAP	120	0	2
EXTAP	120	0	5

T_REC_TAP	362
T_REC_BRK	4
T_REC_XTP	2
T_REC_BXX	7
T_REC_HLD	20
T_REC_XHO	0
T_REC_BHO	0
T_REC_BXH	0
T_REC_STR	4
T_REC_BST	0
T_REC_XST	0
T_REC_XBS	0
T_REC_TTP	25
T_REC_THO	1
T_REC_SLD	4
T_REC_BSL	0
T_REC_ALL	429
T_NUM_TAP	393
T_NUM_BRK	11
T_NUM_HLD	21
T_NUM_SLD	4
T_NUM_ALL	429
T_JUDGE_TAP	404
T_JUDGE_HLD	84
T_JUDGE_SLD	4
T_JUDGE_ALL	492
TTM_EACHPAIRS	89
TTM_SCR_TAP	196500
TTM_SCR_BRK	28600
TTM_SCR_HLD	21000
TTM_SCR_SLD	6000
TTM_SCR_ALL	252100
TTM_SCR_S	243500
TTM_SCR_SS	251000
TTM_RAT_ACV	10043

