VERSION	0.00.00	1.05.00
FES_MODE	0
BPM_DEF	207.000	207.000	207.000	207.000
MET_DEF	4	4
RESOLUTION	384
CLK_DEF	384
COMPATIBLE_CODE	MA2

BPM	0	0	207.000
MET	0	0	4	4

EXTAP	4	0	1
EXTAP	4	0	3
NMTAP	4	96	2
NMTAP	4	96	3
EXTAP	4	144	4
EXTAP	4	144	6
NMTAP	4	240	4
NMTAP	4	240	5
BRTAP	4	288	0
NMSTR	5	0	1
NMSI_	5	0	1	96	48	4
NMTAP	5	48	1
NMTAP	5	96	4
NMTAP	5	144	5
NMTAP	5	192	6
NMTAP	5	240	4
NMTAP	5	288	3
NMTAP	5	336	5
NMSTR	6	0	6
NMSI_	6	0	6	96	48	3
NMTAP	6	48	6
NMTAP	6	96	3
NMTAP	6	144	2
NMTAP	6	192	1
NMTAP	6	240	3
NMTAP	6	288	4
NMTAP	6	336	1
NMSTR	7	0	0
NMSI_	7	0	0	96	48	4
NMTAP	7	48	0
NMTAP	7	96	4
NMTAP	7	144	5
NMTAP	7	192	6
NMTAP	7	240	4
NMTAP	7	288	3
NMTAP	7	336	5
NMSTR	8	0	6
NMSI_	8	0	6	96	48	3
NMTAP	8	48	6
NMSTR	8	96	1
NMSI_	8	96	1	96	48	5
NMTAP	8	144	1
NMHLD	8	192	7	96
NMTAP	8	288	4
NMTAP	8	336	4
NMSTR	9	0	6
NMSI_	9	0	6	96	48	3
NMTAP	9	48	6
NMTAP	9	96	3
NMTAP	9	144	2
NMTAP	9	192	1
NMTAP	9	240	3
NMTAP	9	288	4
NMTAP	9	336	2
NMSTR	10	0	1
NMSI_	10	0	1	96	48	4
NMTAP	10	48	1
NMTAP	10	96	4
NMTAP	10	144	5
NMTAP	10	192	6
NMTAP	10	240	4
NMTAP	10	288	3
NMTAP	10	336	6
NMSTR	11	0	7
NMSI_	11	0	7	96	48	3
NMTAP	11	48	7
NMTAP	11	96	3
NMHLD	11	144	2	144
BRSTR	11	288	0
NMSSL	11	288	0	96	192	4
EXTAP	12	288	3
EXTAP	12	288	5
NMTAP	13	0	4
NMTAP	13	0	6
NMSTR	13	96	4
NMSI_	13	96	4	96	96	1
NMTAP	13	96	6
NMTAP	13	192	6
CNSCR	13	288	1	0	48	2
NMTAP	13	288	6
CNSI_	13	336	2	0	96	5
NMTAP	14	0	6
NMTAP	14	96	6
NMTAP	14	192	6
NMTAP	14	288	6
NMTAP	14	336	4
NMTAP	15	0	6
NMTAP	15	48	4
NMTAP	15	96	6
NMTAP	15	144	3
NMTAP	15	192	6
NMSTR	15	240	4
NMSI_	15	240	4	96	72	7
NMTAP	15	288	6
NMTAP	16	0	6
CNSI_	16	24	7	0	72	1
CNSI_	16	96	1	0	96	5
NMTAP	16	96	6
NMTAP	16	192	6
NMTAP	16	288	6
NMTAP	16	336	3
NMTAP	17	0	6
NMSTR	17	48	3
NMSI_	17	48	3	96	48	0
NMTAP	17	96	6
NMTAP	17	192	6
NMTAP	17	288	6
NMSTR	17	288	7
NMSI_	17	288	7	96	48	4
NMTAP	18	0	6
NMTAP	18	96	6
NMTAP	18	192	6
NMTAP	18	240	4
NMTAP	18	264	4
EXTAP	18	288	6
NMTAP	19	0	5
NMSTR	19	48	6
NMSI_	19	48	6	96	48	3
NMSTR	19	48	7
NMSI_	19	48	7	96	48	3
BRTAP	19	144	6
BRTAP	19	144	7
NMTAP	19	288	2
NMSTR	19	336	0
NMSI_	19	336	0	96	48	4
NMSTR	19	336	1
NMSI_	19	336	1	96	48	4
BRTAP	20	48	0
BRTAP	20	48	1
BRTAP	20	192	7
NMTAP	20	288	3
NMTAP	20	288	5
NMTAP	21	0	2
NMSTR	21	0	6
NMSI_	21	0	6	96	48	4
NMTAP	21	96	2
NMTAP	21	192	1
NMTAP	21	192	3
NMTAP	21	288	1
NMSTR	21	288	3
NMSI_	21	288	3	96	48	0
NMTAP	22	0	2
NMTAP	22	96	2
NMTAP	22	192	1
NMTAP	22	288	1
NMTAP	22	288	7
NMTAP	23	0	2
NMTAP	23	0	6
NMTAP	23	96	2
NMSTR	23	96	6
NMSI_	23	96	6	96	48	4
NMTAP	23	192	1
NMTAP	23	288	1
NMSTR	23	288	3
NMSUR	23	288	3	96	48	7
NMTAP	24	0	2
NMTAP	24	96	0
NMTAP	24	96	2
NMTAP	24	192	1
NMSTR	24	192	7
NMSI_	24	192	7	96	48	3
NMTAP	24	288	1
NMTAP	25	0	2
NMTAP	25	48	4
NMTAP	25	96	2
NMTAP	25	144	4
NMTAP	25	192	1
NMTAP	25	240	3
NMTAP	25	288	1
NMTAP	25	336	3
NMTAP	26	0	2
NMSTR	26	0	4
NMSI_	26	0	4	96	48	7
NMTAP	26	96	2
NMTAP	26	192	1
NMTAP	26	240	7
NMTAP	26	264	7
EXTAP	26	288	1
NMTAP	27	0	2
NMSTR	27	48	0
NMSI_	27	48	0	96	48	4
NMSTR	27	48	1
NMSI_	27	48	1	96	48	4
BRTAP	27	144	0
BRTAP	27	144	1
NMTAP	27	288	5
NMSTR	27	336	6
NMSI_	27	336	6	96	48	3
NMSTR	27	336	7
NMSI_	27	336	7	96	48	3
BRTAP	28	48	6
BRTAP	28	48	7
BRTAP	28	192	0
BRTAP	28	192	4
NMTAP	28	288	1
NMTAP	28	288	3
NMSTR	29	0	5
NMSCR	29	0	5	96	144	1
NMTAP	29	48	5
NMTAP	29	96	3
NMTAP	29	192	4
NMTAP	29	288	3
NMSTR	29	336	3
NMSLL	29	336	3	96	144	7
NMTAP	30	48	4
NMTAP	30	96	4
NMTAP	30	192	3
NMTAP	30	288	4
NMSTR	30	336	4
NMSLR	30	336	4	96	144	0
NMTAP	31	48	3
NMTAP	31	96	3
NMTAP	31	192	2
NMTAP	31	288	0
NMTAP	31	288	1
NMTAP	31	336	0
NMSTR	31	336	1
NMSCR	31	336	1	96	144	5
NMTAP	32	48	7
NMTAP	32	96	7
NMTAP	32	192	0
NMTAP	32	240	0
NMSTR	32	336	7
NMSLL	32	336	7	96	144	3
NMTAP	33	48	2
NMTAP	33	96	2
NMTAP	33	192	0
NMTAP	33	288	7
NMSTR	33	336	7
NMSLR	33	336	7	96	144	3
NMTAP	34	48	4
NMTAP	34	96	4
NMTAP	34	192	5
NMTAP	34	288	6
NMSTR	34	336	6
NMSCL	34	336	6	96	144	2
NMTAP	35	48	0
NMTAP	35	96	0
NMTAP	35	192	7
NMTAP	35	240	7
NMSTR	35	336	1
NMSUR	35	336	1	96	192	4
EXTAP	36	288	5
BRTAP	37	0	6
BRTAP	37	0	7
BRTAP	37	72	4
BRTAP	37	72	5
BRTAP	37	144	2
BRTAP	37	144	3
BXHLD	37	192	1	480
BXHLD	37	192	2	96
NMTAP	38	0	3
NMTAP	38	96	3
NMTAP	38	192	3
NMTAP	38	288	3
BRTAP	39	0	0
BRTAP	39	0	1
BRTAP	39	72	2
BRTAP	39	72	3
BRTAP	39	144	4
BRTAP	39	144	5
BXHLD	39	192	5	96
BXHLD	39	192	6	384
NMTAP	40	0	4
NMTAP	40	96	4
NMTAP	40	192	4
NMTAP	40	288	5
EXTAP	41	0	6
EXTAP	41	0	7
EXTAP	41	48	6
EXTAP	41	48	7
NMTAP	41	96	5
EXTAP	41	144	5
EXTAP	41	192	3
EXTAP	41	192	4
NMTAP	41	240	3
NMTAP	41	240	4
NMTAP	41	288	2
NMTAP	41	336	2
NMTAP	42	0	0
NMTAP	42	0	1
NMTAP	42	48	0
NMTAP	42	48	1
NMTAP	42	96	2
NMTAP	42	144	2
NMTAP	42	192	3
NMTAP	42	192	4
NMTAP	42	240	3
NMTAP	42	240	4
NMSTR	42	288	5
NMSCR	42	288	5	96	96	1
NMSTR	43	0	1
NMSCR	43	0	1	96	96	5
NMSTR	43	96	5
NMSLR	43	96	5	96	96	1
NMSTR	43	192	1
NMSLR	43	192	1	96	96	5
NMSTR	43	288	5
NMSCR	43	288	5	96	96	1
NMSTR	44	0	1
NMSCR	44	0	1	96	96	5
NMSTR	44	96	5
NMSLR	44	96	5	96	96	1
NMSTR	44	192	1
NMSXR	44	192	1	96	384	3
NMHLD	44	288	4	672
NMTAP	47	0	5
NMTAP	47	24	3
NMTAP	47	48	5
NMTAP	47	72	3
NMTAP	47	96	5
NMTAP	47	120	3
NMTAP	47	144	5
NMTAP	47	168	3
NMTAP	47	192	5
NMTAP	47	216	3
NMTAP	47	240	5
NMTAP	47	264	3
NMTAP	47	288	4
NMTTP	47	336	2	E	0	M1
NMTTP	48	48	6	E	0	M1
NMTTP	48	144	4	B	0	M1
NMTTP	48	192	3	B	0	M1
EXSTR	48	288	0
NMSI_	48	288	0	96	48	4
NMTTP	49	0	0	A	1	M1
NMSTR	49	0	5
NMSI_	49	0	5	96	48	1
NMSTR	49	96	3
NMSI_	49	96	3	96	48	7
NMTTP	49	96	5	A	1	M1
NMTTP	49	192	3	A	1	M1
NMSTR	49	192	6
NMSCL	49	192	6	96	192	7
NMTAP	49	288	2
NMTTP	49	288	6	D	1	M1
NMSTR	50	96	4
NMSI_	50	96	4	96	96	0
NMSTR	50	192	0
NMSSL	50	192	0	96	144	4
EXTAP	50	288	5
EXTAP	50	336	5
NMTAP	51	48	7
NMSTR	51	96	7
NMSI_	51	96	7	96	48	5
NMTAP	51	192	1
NMSTR	51	240	1
NMSI_	51	240	1	96	96	4
NMSTR	51	336	4
NMSI_	51	336	4	96	48	0
NMTAP	52	48	6
NMSTR	52	96	6
NMSI_	52	96	6	96	72	2
NMTAP	52	192	0
NMTAP	52	240	0
CNSI_	52	264	2	0	72	7
NMSTR	52	336	1
NMSCR	52	336	1	96	48	4
NMTAP	53	48	5
NMSTR	53	96	6
NMSCR	53	96	6	96	48	1
NMTAP	53	192	4
NMTAP	53	240	3
NMSTR	53	336	6
NMSCL	53	336	6	96	48	3
NMTAP	54	48	2
NMSTR	54	96	1
NMSCL	54	96	1	96	48	6
NMTAP	54	192	3
NMTAP	54	240	3
NMSTR	54	288	4
NMSLR	54	288	4	96	96	0
NMSTR	55	0	0
NMSLR	55	0	0	96	96	4
NMTAP	55	96	4
NMTAP	55	192	0
NMSTR	55	288	1
NMSI_	55	288	1	96	48	4
NMSTR	55	288	7
NMSI_	55	288	7	96	48	3
EXTAP	56	0	1
EXTAP	56	0	7
EXTAP	56	96	2
EXTAP	56	96	5
NMTAP	56	192	6
NMTAP	56	216	4
NMTAP	56	240	6
NMTAP	56	264	4
EXSTR	56	288	7
NMSI_	56	288	7	96	48	3
NMSTR	57	0	2
NMSI_	57	0	2	96	48	6
BRTAP	57	0	7
BRTAP	57	96	2
NMSTR	57	96	4
NMSI_	57	96	4	96	48	0
NMSTR	57	192	1
NMSCR	57	192	1	96	192	0
BRTAP	57	192	4
BRTAP	57	288	1
NMTAP	57	288	5
NMSTR	58	96	3
NMSI_	58	96	3	96	96	7
NMSTR	58	192	7
NMSSR	58	192	7	96	96	3
EXTAP	58	288	2
EXTAP	58	336	2
NMTAP	59	48	0
NMSTR	59	96	0
NMSI_	59	96	0	96	48	2
NMTAP	59	192	6
NMSTR	59	240	6
NMSI_	59	240	6	96	96	3
NMSTR	59	336	3
NMSI_	59	336	3	96	48	7
NMTAP	60	48	1
NMSTR	60	96	1
NMSI_	60	96	1	96	72	5
NMTAP	60	192	7
NMTAP	60	240	7
CNSI_	60	264	5	0	72	0
NMSTR	60	336	6
NMSCL	60	336	6	96	48	3
NMTAP	61	48	2
NMSTR	61	96	1
NMSCL	61	96	1	96	48	6
NMTAP	61	192	3
NMTAP	61	240	4
NMSTR	61	336	1
NMSCR	61	336	1	96	48	4
NMTAP	62	48	5
NMHLD	62	96	6	96
EXTAP	62	192	4
NMTAP	62	240	0
EXTAP	62	264	7
EXTAP	62	336	1
EXTAP	62	336	3
NMTAP	63	0	1
NMTAP	63	0	3
NMTAP	63	96	4
NMTAP	63	96	6
NMTAP	63	144	4
NMTAP	63	144	5
NMTAP	63	240	1
NMTAP	63	240	3
NMTAP	63	288	2
NMTAP	63	288	3
NMTAP	64	0	0
NMTAP	64	0	2
NMTAP	64	48	1
NMTAP	64	144	5
NMTAP	64	144	7
NMTAP	64	192	6
NMTAP	64	288	1
NMTAP	64	288	3
BRHLD	64	336	0	144
NMTAP	65	96	4
NMTAP	65	144	3
NMTAP	65	144	5
NMTAP	65	240	7
NMTAP	65	288	0
NMTAP	65	288	6
NMTAP	66	0	3
NMTAP	66	48	2
NMTAP	66	48	4
NMTAP	66	144	0
NMTAP	66	192	1
NMTAP	66	192	7
NMSTR	66	288	6
NMSCL	66	288	6	96	576	7
NMTTP	67	0	0	C	1	M1
CNSCR	68	192	7	0	768	6
NMTAP	71	0	5
NMHLD	71	96	6	576
NMTTP	72	96	4	B	0	M1
NMTTP	72	288	3	B	0	M1
NMTAP	73	0	2
NMHLD	73	96	1	576
NMTTP	74	96	4	E	0	M1
NMSTR	74	288	3
NMSI_	74	288	3	96	48	7
EXTAP	75	0	3
NMSTR	75	192	1
NMSXR	75	192	1	96	288	6
NMSTR	75	192	5
NMSXR	75	192	5	96	288	2
NMSTR	76	288	0
NMSI_	76	288	0	96	48	4
EXTAP	77	0	0
NMSTR	77	192	2
NMSXL	77	192	2	96	288	7
NMSTR	77	192	6
NMSXL	77	192	6	96	288	3
NMSTR	78	288	1
NMSI_	78	288	1	96	48	4
NMSTR	78	288	5
NMSI_	78	288	5	96	48	0
EXTAP	79	0	1
EXTAP	79	0	5
NMSTR	79	192	2
NMSXR	79	192	2	96	288	5
NMSTR	79	192	6
NMSXR	79	192	6	96	288	1
NMSTR	80	288	3
NMSI_	80	288	3	96	48	0
NMSTR	80	288	7
NMSI_	80	288	7	96	48	4
EXTAP	81	0	3
EXTAP	81	0	7
NMTAP	81	192	2
NMTAP	81	192	6
NMTAP	81	288	1
NMSTR	81	336	1
NMSI_	81	336	1	96	96	7
NMTAP	82	48	3
NMTAP	82	96	3
NMTAP	82	192	4
NMSTR	82	288	6
NMSI_	82	288	6	96	48	0
NMTAP	83	0	4
NMTAP	83	96	3
NMTAP	83	192	4
NMHLD	83	288	1	384
NMSTR	84	0	3
NMSI_	84	0	3	96	48	7
CNSI_	84	144	7	0	48	5
EXHLD	84	288	7	1056
NMTAP	85	0	3
NMTAP	85	48	3
NMTAP	85	96	3
NMTAP	85	144	3
NMTAP	85	192	3
NMTAP	85	240	3
NMTAP	85	288	3
NMTAP	85	336	3
NMHLD	86	0	4	48
NMHLD	86	96	5	48
NMHLD	86	192	3	48
NMHLD	86	288	2	48
NMTAP	87	0	3
NMTAP	87	48	3
NMTAP	87	96	4
NMTAP	87	144	4
NMTAP	87	192	4
NMTAP	87	216	3
NMTAP	87	240	2
NMTAP	87	264	1
NMTAP	87	288	0
NMTAP	87	312	7
NMTAP	87	336	6
NMTAP	87	360	5
BXTAP	88	0	4
NMTAP	88	16	3
NMTAP	88	32	2
NMTAP	88	48	1
NMTAP	88	64	0
NMTAP	88	80	7
NMTAP	88	96	6
NMTAP	88	112	5
NMTAP	88	128	4
NMTAP	88	144	3
NMTAP	88	160	2
NMTAP	88	176	1
NMTAP	88	192	0
EXTAP	88	240	4
EXTAP	88	288	4
NMTAP	88	336	1
NMTTP	88	336	5	E	0	M1
NMTTP	89	48	3	E	0	M1
NMTAP	89	48	6
NMTAP	89	144	0
NMTAP	89	144	4
NMTAP	89	240	3
NMTAP	89	240	7
NMTAP	89	336	4
NMTAP	89	336	5
NMTAP	90	48	2
NMTAP	90	48	3
NMTTP	90	144	3	E	0	M1
NMTAP	90	144	6
NMTAP	90	240	1
NMTTP	90	240	5	E	0	M1
NMTTP	90	336	3	B	0	M1
NMTAP	90	336	7
NMTAP	91	48	0
NMTTP	91	48	4	B	0	M1
NMTTP	91	144	1	E	0	M1
NMTAP	91	144	5
NMTAP	91	240	2
NMTTP	91	240	7	E	0	M1
NMTTP	91	336	3	E	0	M1
NMTAP	91	336	6
NMTAP	92	48	1
NMTTP	92	48	5	B	0	M1
BXTAP	92	144	0
BXTAP	92	192	0
NMSTR	92	288	7
NMSUL	92	288	7	96	48	3
NMTHO	93	0	0	288	C	0	M1
BRTAP	93	0	7
BRTAP	94	96	0
BRTAP	94	192	6
BRTAP	94	192	7
BRTAP	94	288	2
BRTAP	94	336	0
BRTAP	94	336	1
BRTAP	95	144	4
BRTAP	95	144	6
NMTAP	95	336	0
NMTAP	95	360	7
NMTAP	96	0	0
NMTAP	96	24	7
NMTAP	96	48	0
NMTAP	96	72	7
NMTAP	96	96	0
NMTAP	96	120	7
NMTAP	96	144	0
NMTAP	96	168	7
NMTAP	96	192	0
NMTAP	96	204	1
NMTAP	96	216	2
NMTAP	96	228	3
NMTAP	96	240	4
NMTAP	96	252	5
NMTAP	96	264	6
NMTAP	96	276	7
NMTAP	96	288	0
NMTAP	96	300	1
NMTAP	96	312	2
NMTAP	96	324	3
NMTAP	96	336	4
NMTAP	96	348	5
NMTAP	96	360	6
NMTAP	96	372	7
NMSTR	97	0	0
NMSF_	97	0	0	96	48	4
NMTTP	97	96	0	B	1	M1
NMTTP	97	96	0	E	0	M1
NMTTP	97	96	1	E	0	M1
EXTAP	97	192	2
EXTAP	97	192	6
EXTAP	97	240	2
EXTAP	97	240	6
NMSTR	97	336	1
NMSI_	97	336	1	96	48	4
NMTAP	98	48	5
NMSTR	98	96	6
NMSI_	98	96	6	96	48	0
NMTAP	98	192	4
NMTAP	98	240	4
NMSTR	98	288	3
NMSI_	98	288	3	96	48	1
NMSI_	98	288	3	96	48	5
NMTAP	99	0	3
NMSTR	99	96	7
NMSI_	99	96	7	96	48	1
NMSI_	99	96	7	96	48	5
NMTAP	99	192	7
NMSTR	99	288	2
NMSI_	99	288	2	96	48	7
NMSTR	99	288	4
NMSI_	99	288	4	96	48	0
EXTAP	100	0	2
EXTAP	100	0	4
EXTAP	100	96	2
EXTAP	100	96	5
NMTAP	100	192	1
NMTAP	100	216	3
NMTAP	100	240	1
NMTAP	100	264	3
EXSTR	100	288	0
NMSI_	100	288	0	96	48	4
BRTAP	101	0	0
NMSTR	101	0	5
NMSI_	101	0	5	96	48	1
NMSTR	101	96	3
NMSI_	101	96	3	96	48	7
BRTAP	101	96	5
BRTAP	101	192	3
NMSTR	101	192	6
BRSLL	101	192	6	96	96	2
NMTAP	101	288	2
BRTAP	101	288	6
CNSI_	102	0	2	0	48	0
NMSTR	102	96	4
NMSI_	102	96	4	96	96	0
NMSTR	102	192	0
NMSSL	102	192	0	96	96	4
EXTAP	102	288	5
EXTAP	102	336	5
NMTAP	103	48	7
NMSTR	103	96	7
NMSI_	103	96	7	96	48	5
NMTAP	103	192	1
NMSTR	103	240	1
NMSI_	103	240	1	96	96	4
NMSTR	103	336	4
NMSI_	103	336	4	96	48	0
NMTAP	104	48	6
NMSTR	104	96	6
NMSI_	104	96	6	96	72	2
NMTAP	104	192	0
NMTAP	104	240	0
CNSI_	104	264	2	0	72	7
NMSTR	104	336	1
NMSV_	104	336	1	96	48	4
NMTAP	105	48	5
NMSTR	105	96	6
NMSCR	105	96	6	96	48	1
NMTAP	105	192	4
NMTAP	105	240	3
NMSTR	105	336	6
NMSV_	105	336	6	96	48	3
NMTAP	106	48	2
NMHLD	106	96	1	96
EXTAP	106	192	3
NMTAP	106	240	7
EXTAP	106	264	0
EXTAP	106	336	4
EXTAP	106	336	6
NMTAP	107	0	4
NMTAP	107	0	6
NMSTR	107	96	5
NMSI_	107	96	5	96	48	0
NMTAP	107	144	4
NMTAP	107	144	5
NMSTR	107	240	2
NMSI_	107	240	2	96	48	5
NMTAP	107	288	2
NMTAP	107	288	3
NMSTR	108	0	6
NMSI_	108	0	6	96	48	1
NMTAP	108	48	4
NMTAP	108	48	6
NMSTR	108	144	3
NMSI_	108	144	3	96	48	0
NMTAP	108	192	3
NMTAP	108	192	7
NMTAP	108	288	5
NMTAP	108	336	1
NMHLD	108	336	5	144
NMSTR	109	96	7
NMSCR	109	96	7	96	48	2
NMTAP	109	144	6
NMTAP	109	144	7
NMSTR	109	240	3
NMSCR	109	240	3	96	48	6
NMTAP	109	288	1
NMTAP	109	288	3
NMSTR	110	0	2
NMSI_	110	0	2	96	48	6
NMTAP	110	48	0
NMTAP	110	48	2
NMTAP	110	144	7
NMTAP	110	192	7
NMTAP	110	288	3
NMSTR	110	288	5
NMSI_	110	288	5	96	48	0
BRTAP	111	0	4
BRTAP	111	0	5
NMTAP	111	96	3
NMSTR	111	144	2
NMSI_	111	144	2	96	48	7
NMTAP	111	240	5
NMSTR	111	288	6
NMSI_	111	288	6	96	48	2
NMSI_	111	288	6	96	48	4
NMTAP	112	0	6
NMSTR	112	96	1
NMSI_	112	96	1	96	48	3
NMSI_	112	96	1	96	48	5
NMTAP	112	192	1
NMTAP	112	288	7
NMTAP	113	0	7
NMTAP	113	24	6
NMTAP	113	48	5
NMTAP	113	72	4
NMTAP	113	96	7
NMTAP	113	120	6
NMTAP	113	144	5
NMTAP	113	168	4
NMSTR	113	192	7
NMSI_	113	192	7	96	48	4
NMSTR	113	240	7
NMSI_	113	240	7	96	48	2
EXTAP	113	288	7
EXTAP	113	336	7
NMTAP	114	48	3
NMTAP	114	96	2
NMTAP	114	96	4
NMTAP	114	192	0
NMTAP	114	216	1
NMTAP	114	240	2
NMTAP	114	264	3
NMTAP	114	288	0
NMTAP	114	312	1
NMTAP	114	336	2
NMTAP	114	360	3
NMTAP	115	0	0
NMSTR	115	48	0
NMSCR	115	48	0	96	48	3
NMSTR	115	144	0
NMSCL	115	144	0	96	48	5
NMTAP	115	144	7
NMSTR	115	240	0
NMSI_	115	240	0	96	48	4
NMTAP	115	240	1
NMTAP	115	336	0
NMTAP	115	336	7
EXTAP	116	48	6
EXTAP	116	96	6
NMTAP	116	144	3
NMTAP	116	144	5
NMTAP	116	192	2
NMTAP	116	240	1
NMTAP	116	288	0
NMTAP	116	288	6
NMTAP	116	336	5
NMTAP	117	0	2
NMTAP	117	0	4
NMTAP	117	48	2
NMTAP	117	48	4
NMTAP	117	144	1
NMTAP	117	192	1
NMTAP	117	216	3
NMTAP	117	240	2
NMTAP	117	264	6
NMTAP	117	288	4
NMTAP	117	312	5
NMTAP	117	336	1
NMTAP	117	360	3
NMHLD	118	0	0	144
NMTAP	118	144	4
NMSTR	118	192	3
NMSI_	118	192	3	96	48	7
NMSTR	118	240	1
NMSI_	118	240	1	96	48	5
NMTAP	118	288	0

T_REC_TAP	420
T_REC_BRK	43
T_REC_XTP	54
T_REC_BXX	3
T_REC_HLD	14
T_REC_XHO	1
T_REC_BHO	1
T_REC_BXH	4
T_REC_STR	125
T_REC_BST	1
T_REC_XST	3
T_REC_XBS	0
T_REC_TTP	25
T_REC_THO	1
T_REC_SLD	132
T_REC_BSL	1
T_REC_ALL	828
T_NUM_TAP	627
T_NUM_BRK	53
T_NUM_HLD	16
T_NUM_SLD	132
T_NUM_ALL	828
T_JUDGE_TAP	674
T_JUDGE_HLD	118
T_JUDGE_SLD	133
T_JUDGE_ALL	925
TTM_EACHPAIRS	111
TTM_SCR_TAP	313500
TTM_SCR_BRK	137800
TTM_SCR_HLD	16000
TTM_SCR_SLD	198000
TTM_SCR_ALL	665300
TTM_SCR_S	640200
TTM_SCR_SS	660000
TTM_RAT_ACV	10080

