VERSION	0.00.00	1.05.00
FES_MODE	0
BPM_DEF	207.000	207.000	207.000	207.000
MET_DEF	4	4
RESOLUTION	384
CLK_DEF	384
COMPATIBLE_CODE	MA2

BPM	0	0	207.000
MET	0	0	4	4

NMTTP	3	0	3	E	0	M1
NMTTP	3	192	5	E	0	M1
NMTAP	4	0	3
NMTAP	4	96	3
NMTAP	4	192	3
BRTAP	4	288	1
BRTAP	4	288	5
NMTAP	5	0	6
NMHLD	5	48	6	96
NMTAP	5	144	0
NMTAP	5	192	0
NMTAP	5	288	2
NMHLD	5	336	2	96
NMTAP	6	48	4
NMTAP	6	96	4
NMTAP	6	192	3
NMTAP	6	192	5
NMTAP	6	288	2
NMTAP	6	288	6
NMTAP	7	0	1
NMHLD	7	48	1	96
NMTAP	7	144	3
NMTAP	7	192	3
NMTAP	7	288	2
NMTAP	7	288	4
NMTAP	7	336	2
NMTAP	7	336	4
NMTAP	8	48	6
NMSTR	8	96	6
NMSCL	8	96	6	96	96	3
NMTAP	9	0	1
NMHLD	9	48	1	96
NMTAP	9	144	7
NMTAP	9	192	7
NMTAP	9	288	5
NMHLD	9	336	5	96
NMTAP	10	48	3
NMTAP	10	96	3
NMTAP	10	192	2
NMTAP	10	192	4
NMTAP	10	288	3
NMTAP	10	288	5
NMTAP	11	0	1
NMTAP	11	0	7
NMTAP	11	48	1
NMTAP	11	48	7
NMSTR	11	144	2
NMSXR	11	144	2	96	432	3
NMSTR	11	144	6
NMSXR	11	144	6	96	432	7
NMTAP	13	0	4
NMTAP	13	96	4
NMTAP	13	192	4
NMTAP	13	288	4
NMTAP	14	0	3
NMTAP	14	0	5
NMTAP	14	96	3
NMTAP	14	192	3
NMTAP	14	288	3
NMTAP	15	0	2
NMTAP	15	0	4
NMTAP	15	96	4
NMTAP	15	192	2
NMTAP	15	288	2
NMTAP	16	0	3
NMTAP	16	0	5
NMTAP	16	96	5
NMTAP	16	192	5
NMTAP	16	288	5
NMTAP	17	0	2
NMTAP	17	0	4
NMTAP	17	96	2
NMTAP	17	192	4
NMTAP	17	288	4
NMTAP	18	0	3
NMTAP	18	0	5
NMTAP	18	96	4
NMTAP	18	192	3
NMTAP	18	288	2
NMTAP	19	0	1
NMTAP	19	0	7
NMSTR	19	48	1
NMSI_	19	48	1	96	96	5
NMTAP	19	48	7
NMTAP	19	288	6
NMSTR	19	336	6
NMSCL	19	336	6	96	96	3
EXTAP	20	192	0
BRTAP	20	288	1
BRTAP	20	288	7
NMTAP	21	0	5
NMTAP	21	96	4
NMTAP	21	96	6
NMTAP	21	192	3
NMTAP	21	288	3
NMTAP	21	288	4
NMTAP	22	0	2
NMTAP	22	96	1
NMTAP	22	96	3
NMTAP	22	192	4
NMTAP	22	288	3
NMTAP	22	288	4
NMTAP	23	0	5
NMTAP	23	96	4
NMTAP	23	96	6
NMTAP	23	192	3
NMTAP	23	192	5
NMTAP	23	288	2
NMTAP	23	288	4
NMHLD	24	0	1	96
NMHLD	24	0	3	96
NMHLD	24	144	4	96
NMHLD	24	144	6	96
NMTAP	24	288	0
NMTAP	24	288	7
NMTAP	25	0	1
NMTAP	25	96	2
NMTAP	25	96	3
NMTAP	25	192	4
NMTAP	25	288	3
NMTAP	25	288	5
NMTAP	26	0	6
NMSTR	26	96	0
NMSCR	26	96	0	96	96	3
NMSTR	26	96	7
NMSCL	26	96	7	96	96	4
NMTAP	27	0	6
NMTAP	27	0	7
NMSTR	27	48	6
NMSI_	27	48	6	96	96	2
NMTAP	27	48	7
NMTAP	27	288	0
NMSTR	27	336	0
NMSCR	27	336	0	96	96	3
EXTAP	28	192	4
EXTAP	28	192	5
EXTAP	28	288	2
EXTAP	28	288	6
BRTAP	29	0	0
BRTAP	29	0	7
NMHLD	29	192	2	144
NMTAP	29	336	3
NMTAP	30	48	5
NMTAP	30	96	5
NMHLD	30	192	6	144
NMTAP	30	336	4
NMTAP	31	48	2
NMTAP	31	96	2
NMHLD	31	192	1	144
NMTAP	31	336	3
NMTAP	32	48	5
NMTAP	32	96	5
NMTAP	32	192	3
NMTAP	32	192	4
NMTAP	32	288	2
NMTAP	32	288	5
NMTAP	33	0	1
NMTAP	33	96	1
NMTAP	33	192	2
NMTAP	33	192	3
NMTAP	33	288	0
NMTAP	34	0	6
NMTAP	34	96	6
NMTAP	34	192	4
NMTAP	34	192	5
NMTAP	34	288	7
NMTAP	35	0	1
NMTAP	35	96	1
NMTAP	35	192	2
NMSTR	35	240	2
NMSUR	35	240	2	96	288	4
NMTAP	36	288	5
EXTAP	37	0	6
EXTAP	37	0	7
EXTAP	37	72	6
EXTAP	37	72	7
EXTAP	37	144	6
EXTAP	37	144	7
BXTAP	37	192	0
BXTAP	37	192	5
NMTAP	38	0	1
NMTAP	38	96	1
NMTAP	38	192	3
NMTAP	38	288	2
EXTAP	39	0	0
EXTAP	39	0	1
EXTAP	39	72	0
EXTAP	39	72	1
EXTAP	39	144	0
EXTAP	39	144	1
BXTAP	39	192	2
BXTAP	39	192	7
NMTAP	40	0	6
NMTAP	40	96	6
NMTAP	40	192	4
NMTAP	40	288	5
EXTAP	41	0	6
EXTAP	41	0	7
EXTAP	41	72	6
EXTAP	41	72	7
EXTAP	41	144	6
EXTAP	41	144	7
BXTAP	41	192	0
BXTAP	41	192	5
NMTAP	42	0	1
NMTAP	42	96	1
NMTAP	42	192	3
NMTAP	42	288	2
NMHLD	43	0	6	96
NMHLD	43	96	5	96
NMHLD	43	192	4	96
NMHLD	43	288	3	96
NMHLD	44	0	2	96
NMHLD	44	96	1	96
NMSTR	44	192	7
NMSCL	44	192	7	96	672	0
NMTTP	44	288	0	C	1	M1
NMHLD	47	336	5	96
NMTAP	48	48	3
NMTAP	48	144	4
NMTAP	48	192	4
BRTAP	48	288	2
BRTAP	48	288	6
EXTAP	49	0	1
EXSTR	49	0	7
NMSI_	49	0	7	96	48	3
EXSTR	49	192	2
NMSCL	49	192	2	96	144	4
EXTAP	49	288	3
NMTAP	50	96	7
EXTAP	50	192	0
EXTAP	50	192	6
NMTAP	50	288	1
NMHLD	50	336	1	96
NMTAP	51	48	3
NMHLD	51	96	3	96
NMTAP	51	192	5
NMTAP	51	240	5
NMSTR	51	336	6
NMSI_	51	336	6	96	48	4
NMSTR	51	336	7
NMSI_	51	336	7	96	48	3
EXTAP	52	192	0
EXTAP	52	192	1
EXTAP	52	240	0
EXTAP	52	240	1
NMHLD	52	336	6	96
NMTAP	53	48	7
NMTAP	53	96	6
NMTAP	53	192	4
NMTAP	53	192	5
NMTAP	53	240	4
NMTAP	53	240	5
NMHLD	53	336	2	96
NMTAP	54	48	3
NMTAP	54	96	2
NMTAP	54	192	0
NMTAP	54	192	6
NMTAP	54	240	0
NMTAP	54	240	6
NMHLD	54	336	5	96
NMTAP	55	48	4
NMTAP	55	96	5
NMHLD	55	192	1	96
NMTAP	55	192	7
NMHLD	55	288	3	96
NMHLD	56	0	5	96
NMTAP	56	96	7
EXTAP	56	192	2
EXTAP	56	192	3
EXTAP	56	288	4
EXTAP	56	288	6
BRTAP	57	0	0
BRSTR	57	0	1
NMSI_	57	0	1	96	48	5
EXSTR	57	192	7
NMSCL	57	192	7	96	144	1
EXTAP	57	288	0
NMTAP	58	96	0
EXTAP	58	192	1
EXTAP	58	192	7
NMTAP	58	288	6
NMHLD	58	336	6	96
NMTAP	59	48	4
NMHLD	59	96	4	96
NMTAP	59	192	2
NMTAP	59	240	2
NMSTR	59	336	0
NMSI_	59	336	0	96	48	4
NMSTR	59	336	1
NMSI_	59	336	1	96	48	3
EXTAP	60	192	6
EXTAP	60	192	7
EXTAP	60	240	6
EXTAP	60	240	7
NMHLD	60	336	1	96
NMTAP	61	48	0
NMTAP	61	96	1
NMTAP	61	192	2
NMTAP	61	192	3
NMTAP	61	240	2
NMTAP	61	240	3
NMHLD	61	336	5	96
NMTAP	62	48	4
NMTAP	62	96	5
NMTAP	62	192	0
NMTAP	62	192	6
NMTAP	62	240	0
NMTAP	62	240	6
BRTAP	62	336	1
BRTAP	62	336	5
NMTAP	63	96	2
NMTAP	63	96	3
NMTAP	63	144	2
NMTAP	63	144	3
NMTAP	63	240	4
NMTAP	63	240	6
NMTAP	63	288	4
NMTAP	63	288	6
NMTAP	64	0	1
NMTAP	64	0	5
NMTAP	64	48	1
NMTAP	64	48	5
NMTAP	64	144	6
NMTAP	64	144	7
NMTAP	64	192	6
NMTAP	64	192	7
NMTAP	64	288	0
NMTAP	64	288	4
NMTAP	64	336	0
NMHLD	64	336	4	720
EXTAP	65	96	1
EXTAP	65	144	1
EXTAP	65	240	3
EXTAP	65	288	3
EXTAP	66	0	5
EXTAP	66	48	5
EXTAP	66	144	7
EXTAP	66	192	7
EXSTR	66	288	1
NMSCL	66	288	1	96	384	6
NMTTP	67	0	0	E	1	M1
CNSI_	68	0	6	0	384	2
CNSCR	69	0	2	0	384	5
NMTTP	75	0	0	B	0	M1
NMTTP	75	0	1	B	0	M1
NMTTP	75	0	1	E	1	M1
NMTTP	75	192	6	B	0	M1
NMTTP	75	192	6	E	1	M1
NMTTP	75	192	6	A	0	M1
NMTTP	75	336	3	B	1	M1
NMTTP	75	336	3	A	0	M1
NMTTP	75	336	4	E	0	M1
EXTAP	76	144	7
EXHLD	76	240	7	144
NMTAP	77	0	0
NMTAP	77	96	0
NMTAP	77	192	6
NMTAP	77	288	6
NMTAP	78	0	4
NMTAP	78	96	4
NMTAP	78	192	2
NMTAP	78	288	1
NMTAP	78	288	3
NMTTP	79	0	6	B	0	M1
NMTTP	79	0	7	B	0	M1
NMTTP	79	0	7	E	1	M1
NMTTP	79	192	1	B	0	M1
NMTTP	79	192	1	A	0	M1
NMTTP	79	192	2	E	1	M1
NMTTP	79	336	4	B	1	M1
NMTTP	79	336	4	E	0	M1
NMTTP	79	336	4	A	0	M1
EXTAP	80	144	0
EXHLD	80	240	0	144
NMTAP	81	0	7
NMTAP	81	96	7
NMTAP	81	192	1
NMTAP	81	288	1
NMHLD	82	0	5	192
NMTAP	82	96	4
NMTAP	82	192	4
NMHLD	82	288	3	192
NMTAP	83	0	4
NMTAP	83	96	4
NMHLD	83	192	6	96
NMTAP	83	288	4
NMHLD	84	0	2	192
NMTAP	84	96	3
NMTAP	84	192	3
NMHLD	84	288	5	384
NMTAP	85	0	4
NMTAP	85	96	4
NMTAP	85	192	2
NMTAP	85	288	0
NMTAP	86	0	6
NMTAP	86	0	7
NMTAP	86	96	4
NMTAP	86	96	5
NMTAP	86	192	2
NMTAP	86	192	3
NMTAP	86	288	0
NMTAP	86	288	1
NMTAP	87	0	6
NMTAP	87	0	7
NMTAP	87	96	4
NMTAP	87	96	5
NMTAP	87	192	1
NMTAP	87	192	3
NMTAP	87	288	4
NMTAP	87	288	6
NMTAP	88	0	3
NMTAP	88	48	3
NMTAP	88	96	5
NMTAP	88	144	5
NMTAP	88	192	1
NMTAP	88	240	1
NMTAP	88	288	7
NMTAP	88	336	7
NMTTP	89	48	3	E	0	M1
NMTTP	89	144	4	E	0	M1
NMTTP	89	240	5	E	0	M1
NMTTP	89	336	6	E	0	M1
NMTTP	90	48	7	E	0	M1
NMTTP	90	144	0	E	0	M1
NMTTP	90	240	1	E	0	M1
NMTTP	90	336	2	E	0	M1
NMTTP	91	48	3	E	0	M1
NMTTP	91	144	4	E	0	M1
NMTTP	91	240	5	E	0	M1
NMTTP	91	336	6	E	0	M1
NMTTP	92	48	7	E	0	M1
NMTAP	92	144	1
NMSTR	92	192	1
BRSI_	92	192	1	96	48	5
BXHLD	93	0	7	480
BRTAP	94	96	0
BRTAP	94	192	2
BRTAP	94	192	3
BRTAP	94	288	1
BRTAP	94	288	5
BRTAP	94	336	1
BRHLD	94	336	5	192
BRHLD	95	144	3	192
NMTAP	95	336	4
NMTAP	96	48	2
NMTAP	96	96	1
NMTAP	96	144	0
NMTAP	96	192	7
NMTAP	96	240	6
NMTAP	96	288	5
EXTAP	96	336	3
EXTAP	96	336	4
BRTAP	97	48	0
BRTAP	97	48	7
BRTAP	97	96	1
BRTAP	97	96	6
EXTAP	97	192	2
EXTAP	97	240	2
NMHLD	97	336	5	96
NMTAP	98	48	4
NMTAP	98	96	5
NMTAP	98	192	1
NMTAP	98	192	7
NMTAP	98	240	1
NMTAP	98	240	7
NMHLD	98	336	2	96
NMTAP	99	48	3
NMTAP	99	96	2
NMTAP	99	192	0
NMHLD	99	192	6	96
NMHLD	99	288	4	96
NMHLD	100	0	2	96
NMTAP	100	96	0
NMTAP	100	192	2
NMTAP	100	192	3
NMTAP	100	288	5
NMTAP	100	288	6
BRSTR	101	0	1
NMSI_	101	0	1	96	48	4
BRSTR	101	0	7
NMSI_	101	0	7	96	48	3
EXSTR	101	192	5
NMSCR	101	192	5	96	192	3
NMTAP	102	96	4
NMHLD	102	192	6	96
NMTAP	102	288	7
NMTAP	102	336	7
NMTAP	103	48	0
NMTAP	103	48	1
NMTAP	103	96	0
NMTAP	103	96	1
NMTAP	103	192	3
NMTAP	103	192	7
NMTAP	103	240	3
NMTAP	103	240	7
NMSTR	103	336	5
NMSCL	103	336	5	96	96	0
NMTAP	103	336	6
EXTAP	104	192	6
EXTAP	104	192	7
EXTAP	104	240	6
EXTAP	104	240	7
NMHLD	104	336	5	96
NMTAP	105	48	4
NMTAP	105	96	5
NMTAP	105	192	0
NMTAP	105	192	6
NMTAP	105	240	0
NMTAP	105	240	6
NMHLD	105	336	2	96
NMTAP	106	48	3
NMTAP	106	96	2
NMTAP	106	192	1
NMTAP	106	192	7
NMTAP	106	240	1
NMTAP	106	240	7
BRTAP	106	336	2
BRTAP	106	336	6
EXTAP	107	96	0
EXTAP	107	96	1
EXTAP	107	144	0
EXTAP	107	144	1
EXTAP	107	240	5
EXTAP	107	240	7
EXTAP	107	288	5
EXTAP	107	288	7
EXTAP	108	0	1
EXTAP	108	0	3
EXTAP	108	48	1
EXTAP	108	48	3
EXTAP	108	144	6
EXTAP	108	144	7
EXTAP	108	192	6
EXTAP	108	192	7
EXTAP	108	288	0
EXTAP	108	288	4
EXHLD	108	336	0	624
EXTAP	108	336	4
BRTAP	109	96	5
BRTAP	109	144	5
BRTAP	109	240	3
BRTAP	109	288	3
BRTAP	110	0	1
BRTAP	110	48	1
BRTAP	110	144	7
BRSTR	110	192	7
BRSI_	110	192	7	96	48	3
NMTAP	111	0	2
NMTAP	111	48	2
NMTAP	111	144	1
NMTAP	111	144	3
NMTAP	111	192	1
NMTAP	111	192	3
NMTAP	111	288	4
NMTAP	111	336	4
NMTAP	112	48	3
NMTAP	112	48	5
NMTAP	112	96	3
NMTAP	112	96	5
NMTAP	112	192	6
NMTAP	112	192	7
NMTAP	112	288	0
NMTAP	112	288	5
NMTAP	113	0	2
NMTAP	113	48	2
NMTAP	113	96	4
NMTAP	113	144	3
NMTAP	113	192	2
NMTAP	113	240	1
NMTAP	113	288	0
NMSTR	113	336	7
NMSCL	113	336	7	96	48	4
NMTAP	114	192	2
NMTAP	114	192	3
NMTAP	114	288	0
NMTAP	114	288	5
NMTAP	115	0	1
NMTAP	115	48	1
NMTAP	115	96	3
NMTAP	115	144	3
NMTAP	115	192	2
NMTAP	115	240	2
NMTAP	115	288	5
NMTAP	115	336	5
NMTAP	116	0	4
NMTAP	116	48	4
NMTAP	116	96	6
NMTAP	116	144	6
NMTAP	116	192	0
NMTAP	116	288	1
NMTAP	116	288	7
EXTAP	117	0	0
EXTAP	117	0	6
EXTAP	117	48	0
EXTAP	117	48	6
NMTAP	117	144	2
NMTAP	117	144	3
NMTAP	117	240	1
NMTAP	117	240	5
EXSTR	117	288	1
NMSSR	117	288	1	96	192	5
EXTAP	117	288	5
EXTAP	118	240	0
EXTAP	118	240	7
EXTAP	118	288	0
EXTAP	118	288	7
BXTAP	118	336	1
BXTAP	118	336	6

T_REC_TAP	339
T_REC_BRK	30
T_REC_XTP	88
T_REC_BXX	8
T_REC_HLD	45
T_REC_XHO	3
T_REC_BHO	2
T_REC_BXH	1
T_REC_STR	18
T_REC_BST	4
T_REC_XST	6
T_REC_XBS	0
T_REC_TTP	35
T_REC_THO	0
T_REC_SLD	26
T_REC_BSL	2
T_REC_ALL	607
T_NUM_TAP	486
T_NUM_BRK	47
T_NUM_HLD	48
T_NUM_SLD	26
T_NUM_ALL	607
T_JUDGE_TAP	528
T_JUDGE_HLD	155
T_JUDGE_SLD	28
T_JUDGE_ALL	711
TTM_EACHPAIRS	145
TTM_SCR_TAP	243000
TTM_SCR_BRK	122200
TTM_SCR_HLD	48000
TTM_SCR_SLD	39000
TTM_SCR_ALL	452200
TTM_SCR_S	434100
TTM_SCR_SS	447500
TTM_RAT_ACV	10105

