VERSION	0.00.00	1.05.00
FES_MODE	0
BPM_DEF	134.000	134.000	134.000	134.000
MET_DEF	4	4
RESOLUTION	384
CLK_DEF	384
COMPATIBLE_CODE	MA2

BPM	0	0	134.000
MET	0	0	4	4

BRTAP	1	0	1
NMTTP	1	0	4	A	0	M1
NMTTP	1	0	5	E	0	M1
NMTTP	1	0	5	D	0	M1
NMTTP	1	48	3	E	0	M1
NMTTP	1	48	3	A	0	M1
NMTTP	1	48	3	D	0	M1
BRTAP	1	48	6
BRTAP	1	312	0
NMTTP	1	312	5	B	0	M1
NMTTP	1	312	6	B	0	M1
NMTTP	1	312	6	E	1	M1
BRHLD	2	0	0	76
BRHLD	2	76	2	68
BRHLD	2	144	4	76
BRHLD	2	220	6	68
EXTAP	2	288	2
NMTAP	3	0	5
NMTAP	3	24	4
NMTAP	3	72	4
NMTAP	3	96	6
NMTAP	3	144	6
NMTAP	3	168	0
NMTAP	3	216	0
NMTAP	3	240	7
NMTAP	3	288	0
NMTAP	3	288	1
NMTAP	3	336	2
NMTAP	3	336	7
NMTAP	4	0	6
NMTAP	4	24	4
NMTAP	4	72	4
NMTAP	4	96	5
NMTAP	4	144	5
NMTAP	4	168	3
NMTAP	4	216	3
NMTAP	4	240	4
NMTAP	4	288	4
NMTAP	4	288	6
NMTAP	4	336	0
NMTAP	4	336	7
NMTAP	5	0	2
NMTAP	5	24	3
NMTAP	5	72	3
NMTAP	5	96	1
NMTAP	5	144	1
NMTAP	5	168	7
NMTAP	5	216	7
NMTAP	5	240	0
NMTAP	5	288	6
NMTAP	5	288	7
NMTAP	5	336	0
NMTAP	5	336	5
NMSTR	6	0	1
NMSCR	6	0	1	96	32	4
NMTAP	6	48	1
NMTAP	6	96	6
NMTAP	6	144	7
NMTAP	6	192	0
NMTAP	6	192	1
NMTAP	6	216	0
NMTAP	6	216	1
BRTAP	6	264	2
BRTAP	6	264	6
NMSTR	7	0	7
NMSCR	7	0	7	96	96	3
NMSTR	7	96	3
NMSCR	7	96	3	96	96	7
NMSTR	7	192	7
NMSSR	7	192	7	96	96	3
NMSTR	7	288	3
NMSCL	7	288	3	96	96	7
NMSTR	8	0	7
NMSSR	8	0	7	96	96	3
NMSTR	8	96	3
NMSCL	8	96	3	96	96	7
NMSTR	8	192	7
NMSCL	8	192	7	96	72	4
NMTAP	8	288	3
NMHLD	9	0	2	96
NMTAP	9	48	4
NMHLD	9	96	3	96
NMTAP	9	144	1
NMHLD	9	192	2	96
NMTAP	9	240	4
NMHLD	9	288	3	96
NMTAP	9	336	1
NMHLD	10	0	2	96
NMTAP	10	48	0
NMHLD	10	96	3	96
NMTAP	10	144	4
NMHLD	10	192	2	96
NMTAP	10	240	0
NMTAP	10	288	3
NMTAP	10	336	4
NMTAP	10	336	5
NMSTR	11	0	0
NMSCL	11	0	0	96	96	4
NMSTR	11	96	4
NMSCL	11	96	4	96	96	0
NMSTR	11	192	0
NMSSL	11	192	0	96	96	4
NMSTR	11	288	4
NMSCR	11	288	4	96	96	0
NMSTR	12	0	0
NMSSL	12	0	0	96	96	4
NMSTR	12	96	4
NMSCR	12	96	4	96	96	0
NMSTR	12	192	0
NMSCR	12	192	0	96	72	3
NMTAP	12	288	4
NMHLD	13	0	5	96
NMTAP	13	48	3
NMHLD	13	96	4	96
NMTAP	13	144	6
NMHLD	13	192	5	96
NMTAP	13	240	3
NMHLD	13	288	4	96
NMTAP	13	336	6
NMHLD	14	0	5	96
NMTAP	14	48	7
NMHLD	14	96	4	96
NMTAP	14	144	3
NMHLD	14	192	5	96
NMTAP	14	240	7
NMTAP	14	288	4
NMTAP	14	336	2
NMTAP	14	336	3
EXTAP	15	0	0
NMHLD	15	0	6	96
NMTAP	15	96	4
NMTAP	15	144	3
NMTAP	15	144	5
NMTAP	15	192	2
NMTAP	15	224	3
NMHLD	15	272	1	64
NMTAP	15	272	4
EXTAP	15	336	0
NMTAP	16	0	1
NMTAP	16	0	7
NMTAP	16	48	5
NMTAP	16	96	0
NMTAP	16	96	6
NMTAP	16	144	2
NMTAP	16	176	4
NMTAP	16	192	3
NMTAP	16	240	4
NMTAP	16	240	5
NMTAP	16	272	3
NMTAP	16	272	7
EXTAP	16	336	1
NMTAP	16	352	0
NMTAP	16	368	1
NMTAP	17	0	0
NMTAP	17	48	2
NMTAP	17	48	3
NMTAP	17	96	4
EXHLD	17	144	6	16
EXHLD	17	144	7	16
NMTAP	17	192	0
NMTAP	17	192	5
NMSTR	17	224	0
NMSCR	17	224	0	96	224	6
NMTAP	17	224	5
NMTAP	17	272	3
NMTAP	17	336	7
NMTAP	18	192	7
NMTAP	18	240	6
NMTAP	18	288	4
NMTAP	18	288	5
NMTAP	18	336	2
NMTAP	18	352	3
NMTAP	18	368	2
EXTAP	19	0	3
NMTAP	19	48	4
NMTAP	19	76	3
NMTAP	19	96	4
NMTAP	19	144	2
NMTAP	19	172	3
NMTAP	19	192	2
NMTAP	19	240	5
NMTAP	19	268	4
NMTAP	19	288	5
EXTAP	19	336	1
NMTAP	19	364	3
NMTAP	20	0	2
NMTAP	20	48	6
NMTAP	20	76	4
NMTAP	20	96	5
NMTAP	20	144	0
NMTAP	20	172	2
NMTAP	20	192	1
NMTAP	20	240	7
NMTAP	20	268	5
NMSTR	20	288	6
NMSI_	20	288	6	96	32	2
BRTAP	20	368	0
BRTAP	21	48	4
BRTAP	21	96	2
BRTAP	21	96	6
NMTAP	21	192	0
NMTAP	21	192	7
NMTAP	21	264	1
NMTAP	21	264	2
NMTAP	21	336	5
NMTAP	21	336	6
NMHLD	22	48	1	48
NMHLD	22	48	3	48
NMSTR	22	120	4
NMSI_	22	120	4	96	32	0
NMSTR	22	120	6
NMSCL	22	120	6	96	32	3
BRTAP	22	192	4
BRTAP	22	192	6
BRSTR	23	0	0
NMSCR	23	0	0	96	48	4
NMTAP	23	0	5
NMTAP	23	48	6
NMTAP	23	48	7
NMTAP	23	96	0
NMTAP	23	96	5
NMTAP	23	144	6
NMSTR	23	192	0
NMSUR	23	192	0	96	32	4
NMTAP	23	192	5
NMTAP	23	240	6
NMTAP	23	240	7
NMTAP	23	288	0
NMTAP	23	288	5
NMTAP	23	336	6
NMSTR	24	0	0
NMSI_	24	0	0	96	28	4
NMTAP	24	0	5
NMTAP	24	48	6
NMTAP	24	48	7
NMTAP	24	96	5
NMTAP	24	124	5
BRTAP	24	172	3
BRTAP	24	172	7
NMHLD	24	240	2	48
NMSTR	24	288	3
NMSI_	24	288	3	96	32	0
NMTAP	24	316	2
NMTAP	24	364	3
NMTAP	24	364	4
NMHLD	25	48	6	48
NMSTR	25	96	7
NMSI_	25	96	7	96	32	4
NMTAP	25	124	6
NMTAP	25	172	0
NMTAP	25	172	7
NMHLD	25	240	2	48
NMSTR	25	288	3
NMSI_	25	288	3	96	32	0
NMTAP	25	316	2
NMTAP	25	364	3
NMTAP	25	364	4
NMTAP	26	48	6
NMTAP	26	76	6
NMTAP	26	76	7
NMTAP	26	120	1
NMTAP	26	148	1
NMTAP	26	148	3
NMSTR	26	192	4
BRSI_	26	192	4	96	32	1
NMSTR	26	192	5
BRSI_	26	192	5	96	32	0
EXTAP	26	288	4
EXTAP	26	288	5
NMTAP	27	0	2
NMSTR	27	0	7
NMSCL	27	0	7	96	48	3
NMTAP	27	48	0
NMTAP	27	48	1
NMTAP	27	96	2
NMTAP	27	96	7
NMTAP	27	144	1
NMTAP	27	192	2
NMSTR	27	192	7
NMSUL	27	192	7	96	32	3
NMTAP	27	240	0
NMTAP	27	240	1
NMTAP	27	288	2
NMTAP	27	288	7
NMTAP	27	336	1
NMTAP	28	0	2
NMSTR	28	0	7
NMSI_	28	0	7	96	28	3
NMTAP	28	48	0
NMTAP	28	48	1
NMTAP	28	96	2
NMTAP	28	124	2
BRTAP	28	172	0
BRTAP	28	172	4
NMHLD	28	240	5	48
NMSTR	28	288	4
NMSI_	28	288	4	96	32	7
NMTAP	28	316	5
NMTAP	28	364	3
NMTAP	28	364	4
NMHLD	29	48	1	48
NMSTR	29	96	0
NMSI_	29	96	0	96	32	3
NMTAP	29	124	1
NMTAP	29	172	0
NMTAP	29	172	7
NMHLD	29	240	5	48
NMSTR	29	288	4
NMSI_	29	288	4	96	32	7
NMTAP	29	316	5
NMTAP	29	364	3
NMTAP	29	364	4
NMTAP	30	48	0
NMTAP	30	76	0
NMTAP	30	96	7
NMTAP	30	124	7
NMTAP	30	144	0
NMTAP	30	172	0
NMTAP	30	192	7
NMTAP	30	240	0
NMTAP	30	240	1
NMTAP	30	288	2
NMTAP	30	288	3
NMTAP	30	336	4
NMTAP	30	336	5
BRTAP	31	0	3
BRTAP	31	0	7
NMHLD	31	96	0	28
NMHLD	31	96	1	28
NMHLD	31	144	2	28
NMHLD	31	192	3	28
NMHLD	31	240	4	28
NMSTR	31	288	5
NMSCL	31	288	5	96	64	0
NMTAP	31	336	6
NMHLD	32	96	6	28
NMHLD	32	96	7	28
NMHLD	32	144	5	28
NMHLD	32	192	4	28
NMHLD	32	240	3	28
NMSTR	32	288	2
NMSCR	32	288	2	96	64	7
NMTAP	32	336	1
NMHLD	33	96	0	28
NMHLD	33	96	1	28
NMHLD	33	144	2	28
NMHLD	33	192	4	28
NMHLD	33	240	6	28
NMSTR	33	288	0
NMSI_	33	288	0	96	32	3
NMTAP	33	336	1
NMSTR	34	0	4
NMSI_	34	0	4	96	32	7
NMTAP	34	48	5
NMSTR	34	96	1
NMSI_	34	96	1	96	32	4
NMTAP	34	144	0
NMSTR	34	192	5
NMSI_	34	192	5	96	32	0
NMTAP	34	240	6
NMSTR	34	288	2
NMSI_	34	288	2	96	32	5
NMTAP	34	336	1
BRTAP	35	0	7
NMHLD	35	96	6	28
NMHLD	35	96	7	28
NMHLD	35	144	5	28
NMHLD	35	192	4	28
NMHLD	35	240	3	28
NMSTR	35	288	2
NMSCR	35	288	2	96	64	7
NMTAP	35	336	1
NMTAP	36	96	3
NMTAP	36	112	2
NMTAP	36	128	1
NMTAP	36	144	7
NMTAP	36	160	6
NMTAP	36	176	5
NMTAP	36	192	0
NMHLD	36	220	0	116
NMHLD	36	268	4	68
BRTAP	37	0	1
BRSTR	37	0	3
NMSXR	37	0	3	96	192	4
NMSXR	37	0	3	96	192	5
BRTAP	37	48	6
BRTAP	37	48	7
BRTAP	37	320	7
BRSTR	38	0	4
NMSXL	38	0	4	96	192	2
NMSXL	38	0	4	96	192	3
BRTAP	38	0	6
BRTAP	38	48	0
BRTAP	38	48	1
BRTAP	38	320	0
BRSTR	39	0	1
NMSXR	39	0	1	96	192	2
BRSTR	39	0	5
NMSXR	39	0	5	96	192	6
BRTAP	39	48	3
BRTAP	39	48	7
BRTAP	39	320	7
BRHLD	40	0	0	48
BRHLD	40	0	6	48
BRHLD	40	76	1	44
BRHLD	40	76	2	44
BRHLD	40	144	4	48
BRHLD	40	144	5	48
BRHLD	40	220	1	44
BRHLD	40	220	7	44
EXSTR	40	288	2
NMSXL	40	288	2	96	336	5
EXHLD	40	288	6	48
NMTTP	42	0	0	B	0	M1
NMTTP	42	0	0	E	0	M1
NMTTP	42	0	7	B	0	M1
NMTTP	42	96	2	E	0	M1
NMTTP	42	96	6	E	0	M1
NMTTP	42	192	4	E	0	M1
NMTAP	42	288	0
NMTAP	42	288	1
NMTAP	42	336	6
NMTAP	42	336	7
BRSTR	43	0	1
NMSI_	43	0	1	96	32	4
BRTAP	43	0	5
NMSTR	43	96	0
NMSI_	43	96	0	96	32	5
NMTAP	43	144	0
NMSTR	43	192	1
NMSCR	43	192	1	96	32	4
NMTAP	43	240	1
NMSTR	43	288	0
NMSV_	43	288	0	96	32	5
NMTAP	43	336	0
NMSTR	44	0	1
NMSCR	44	0	1	96	32	4
NMTAP	44	48	1
NMSTR	44	96	0
NMSUR	44	96	0	96	48	5
NMTAP	44	144	0
NMSTR	44	192	1
NMSCR	44	192	1	96	32	4
NMTAP	44	240	1
NMTAP	44	288	7
NMHLD	45	0	4	48
NMTAP	45	0	5
NMTAP	45	48	6
NMTAP	45	96	4
NMHLD	45	96	5	48
NMTAP	45	144	7
NMHLD	45	192	4	48
NMTAP	45	192	5
NMTAP	45	240	0
NMTAP	45	288	4
NMHLD	45	288	5	48
NMTAP	45	336	1
NMTAP	46	0	4
NMSTR	46	0	5
NMSI_	46	0	5	96	32	1
NMSTR	46	96	2
NMSI_	46	96	2	96	32	6
NMHLD	46	192	0	96
NMTAP	46	288	4
NMTAP	46	336	1
NMTAP	46	336	7
BRTAP	47	0	2
BRSTR	47	0	6
NMSI_	47	0	6	96	32	3
NMSTR	47	96	7
NMSI_	47	96	7	96	32	2
NMTAP	47	144	7
NMSTR	47	192	6
NMSCL	47	192	6	96	32	3
NMTAP	47	240	6
NMSTR	47	288	7
NMSV_	47	288	7	96	32	2
NMTAP	47	336	7
NMSTR	48	0	6
NMSCL	48	0	6	96	32	3
NMTAP	48	48	6
NMSTR	48	96	7
NMSUL	48	96	7	96	48	2
NMTAP	48	144	7
NMSTR	48	192	6
NMSCL	48	192	6	96	32	3
NMTAP	48	240	6
NMTAP	48	288	0
NMTAP	49	0	2
NMHLD	49	0	3	48
NMTAP	49	48	1
NMHLD	49	96	2	48
NMTAP	49	96	3
NMTAP	49	144	0
NMTAP	49	192	2
NMHLD	49	192	3	48
NMTAP	49	240	7
NMHLD	49	288	2	48
NMTAP	49	288	3
NMTAP	49	336	6
NMSTR	50	0	2
NMSUL	50	0	2	96	48	5
NMTAP	50	0	3
NMSTR	50	96	6
NMSUL	50	96	6	96	48	1
NMSTR	50	192	0
NMSUL	50	192	0	96	96	7
BRTAP	51	48	0
BRTAP	51	48	7
NMTAP	51	144	6
NMTAP	51	240	5
BRTAP	51	336	4
NMTAP	52	48	3
NMTAP	52	144	2
NMTAP	52	240	1
NMHLD	52	288	2	72
NMHLD	52	288	3	72
NMTAP	53	48	6
NMHLD	53	96	4	72
NMHLD	53	96	5	72
NMTAP	53	240	3
NMHLD	53	288	3	72
NMHLD	53	288	4	72
NMTAP	54	48	2
NMTAP	54	72	3
NMTAP	54	120	3
NMTAP	54	144	1
NMSTR	54	192	0
NMSCR	54	192	0	96	32	3
NMSTR	54	192	7
NMSCL	54	192	7	96	32	4
NMHLD	55	0	5	48
NMTAP	55	48	4
NMHLD	55	96	5	48
NMTAP	55	144	4
NMHLD	55	192	5	48
NMTAP	55	240	4
NMTAP	55	288	5
EXTAP	55	336	3
EXTAP	55	336	4
NMHLD	56	0	2	48
NMTAP	56	48	3
NMHLD	56	96	2	48
NMTAP	56	144	3
NMHLD	56	192	2	48
NMTAP	56	240	3
NMHLD	56	288	2	48
NMTAP	56	336	3
NMTAP	57	0	1
NMTAP	57	0	4
NMTAP	57	48	2
NMTAP	57	96	3
NMTAP	57	144	4
NMTAP	57	144	5
NMTAP	57	192	3
NMTAP	57	192	6
NMTAP	57	240	5
NMTAP	57	288	4
NMTAP	57	336	2
NMTAP	57	336	3
NMTAP	58	0	1
NMTAP	58	28	1
NMTAP	58	48	4
NMTAP	58	76	4
NMTAP	58	96	3
NMTAP	58	124	3
NMTAP	58	144	6
NMTAP	58	172	6
EXTAP	58	192	0
EXTAP	58	208	7
EXTAP	58	224	0
EXTAP	58	240	7
EXTAP	58	256	0
EXTAP	58	272	7
EXTAP	58	288	0
EXTAP	58	304	7
EXTAP	58	320	0
EXTAP	58	336	7
EXTAP	58	352	0
EXTAP	58	368	7
BRTAP	59	0	0
BRTAP	59	32	1
BRTAP	59	64	2
BRSTR	59	96	3
NMSCL	59	96	3	96	32	0
BRTAP	59	128	4
BRTAP	59	160	5
BRSTR	59	192	6
NMSCL	59	192	6	96	32	3
BRTAP	59	288	7
NMSTR	60	0	0
NMSI_	60	0	0	96	32	5
NMSTR	60	0	1
NMSI_	60	0	1	96	32	4
NMTAP	60	48	2
NMTAP	60	48	7
BXTAP	60	96	0
BXTAP	60	96	1
EXTAP	60	192	0
EXSTR	60	192	6
NMSCL	60	192	6	96	32	3
NMTAP	60	240	7
NMSTR	60	288	2
NMSI_	60	288	2	96	32	5
NMTAP	60	336	1
NMSTR	61	0	7
NMSI_	61	0	7	96	32	3
NMTAP	61	48	0
NMTAP	61	96	2
NMTAP	61	124	2
BRTAP	61	172	0
BRTAP	61	172	6
NMHLD	61	240	7	48
NMSTR	61	288	4
NMSI_	61	288	4	96	32	7
NMTAP	61	316	5
NMTAP	61	364	3
NMTAP	61	364	4
NMHLD	62	48	2	48
NMSTR	62	96	6
NMSI_	62	96	6	96	32	3
NMTAP	62	124	0
NMTAP	62	172	6
NMTAP	62	172	7
NMHLD	62	240	1	48
NMSTR	62	288	5
NMSI_	62	288	5	96	32	0
NMTAP	62	316	3
NMTAP	62	364	4
NMTAP	62	364	5
NMTAP	63	48	1
NMTAP	63	76	0
NMTAP	63	76	1
NMTAP	63	120	6
NMTAP	63	148	4
NMTAP	63	148	6
NMSTR	63	192	2
NMSI_	63	192	2	96	48	7
NMSTR	63	192	3
NMSI_	63	192	3	96	48	6
BRTAP	63	288	2
BRTAP	63	288	3
EXSTR	64	0	1
NMSCR	64	0	1	96	32	4
EXTAP	64	0	5
NMTAP	64	48	0
NMSTR	64	96	5
NMSI_	64	96	5	96	32	2
NMTAP	64	144	6
NMSTR	64	192	0
NMSI_	64	192	0	96	32	4
NMSTR	64	240	7
BRSCR	64	240	7	96	112	6
NMTAP	64	288	6
NMTAP	65	96	4
NMTAP	65	124	4
NMTAP	65	124	5
BRTAP	65	172	1
BRTAP	65	172	7
NMHLD	65	240	0	48
NMSTR	65	288	3
NMSI_	65	288	3	96	32	0
NMTAP	65	316	2
NMTAP	65	364	3
NMTAP	65	364	4
NMHLD	66	48	5	48
NMSTR	66	96	1
NMSI_	66	96	1	96	32	4
NMTAP	66	124	7
NMTAP	66	172	0
NMTAP	66	172	1
NMHLD	66	240	6	48
NMSTR	66	288	2
NMSI_	66	288	2	96	32	7
NMTAP	66	316	4
NMTAP	66	364	2
NMTAP	66	364	3
NMTAP	67	48	5
NMTAP	67	76	5
NMTAP	67	96	7
NMTAP	67	124	7
NMTAP	67	144	0
NMTAP	67	172	0
NMTAP	67	192	2
NMTAP	67	240	2
NMTAP	67	240	3
NMTAP	67	288	4
NMTAP	67	288	5
NMTAP	67	336	6
NMTAP	67	336	7
BRTAP	68	0	0
BRTAP	68	0	4
NMTAP	68	96	1
NMTAP	68	124	1
NMTAP	68	144	5
NMTAP	68	172	5
NMTAP	68	192	4
NMTAP	68	220	4
NMTAP	68	240	6
NMTAP	68	268	6
NMSTR	68	288	0
NMSCR	68	288	0	96	64	5
NMTAP	68	336	6
NMTAP	68	336	7
NMTAP	69	96	6
NMTAP	69	124	6
NMTAP	69	144	2
NMTAP	69	172	2
NMTAP	69	192	3
NMTAP	69	220	3
NMTAP	69	240	1
NMTAP	69	268	1
NMSTR	69	288	7
NMSCL	69	288	7	96	64	2
NMTAP	69	336	0
NMTAP	69	336	1
NMTAP	70	96	1
NMTAP	70	124	1
NMTAP	70	144	5
NMTAP	70	172	5
NMTAP	70	192	4
NMTAP	70	220	4
NMTAP	70	240	6
NMTAP	70	268	6
NMSTR	70	288	0
NMSI_	70	288	0	96	32	3
NMTAP	70	336	1
NMSTR	71	0	4
NMSI_	71	0	4	96	32	7
NMTAP	71	48	5
NMSTR	71	96	1
NMSI_	71	96	1	96	32	4
NMTAP	71	144	0
NMSTR	71	192	5
NMSI_	71	192	5	96	32	0
NMTAP	71	240	6
NMSTR	71	288	2
NMSI_	71	288	2	96	32	5
NMTAP	71	336	1
BRTAP	72	0	7
NMTAP	72	96	6
NMTAP	72	124	6
NMTAP	72	144	2
NMTAP	72	172	2
NMTAP	72	192	3
NMTAP	72	220	3
NMTAP	72	240	1
NMTAP	72	268	1
NMSTR	72	288	7
NMSCL	72	288	7	96	64	2
NMTAP	72	336	0
NMTAP	72	336	1
NMTAP	73	96	0
NMTAP	73	112	1
NMTAP	73	128	2
NMTAP	73	144	4
NMTAP	73	160	5
NMTAP	73	176	6
NMTAP	73	192	3
NMHLD	73	220	3	116
NMHLD	73	268	7	68
BRTAP	74	0	4
BRTAP	74	0	6
BRTAP	74	48	0
BRTAP	74	48	1
NMTAP	74	96	2
NMTAP	74	124	2
NMTAP	74	144	5
NMTAP	74	172	5
NMTAP	74	192	4
NMTAP	74	220	4
NMTAP	74	240	7
NMHLD	74	268	7	52
BRTAP	74	320	0
BRTAP	75	0	1
BRTAP	75	0	3
BRTAP	75	48	6
BRTAP	75	48	7
NMTAP	75	96	6
NMHLD	75	120	4	48
NMTAP	75	168	5
NMHLD	75	192	2	48
NMTAP	75	240	3
NMHLD	75	264	0	56
BRTAP	75	320	7
BRTAP	76	0	4
BRTAP	76	0	6
BRTAP	76	48	0
BRTAP	76	48	1
NMTAP	76	96	2
NMTAP	76	124	2
NMTAP	76	144	5
NMTAP	76	172	5
NMHLD	76	192	4	48
NMTAP	76	240	7
NMHLD	76	268	7	52
BRTAP	76	320	0
BRSTR	77	0	1
NMSI_	77	0	1	96	32	4
BRTAP	77	0	7
BRTAP	77	76	1
BRSTR	77	76	5
NMSI_	77	76	5	96	28	0
BRTAP	77	144	5
BRSTR	77	220	3
NMSF_	77	220	3	96	28	7
EXSTR	77	288	3
NMSCL	77	288	3	96	336	4
NMTTP	78	0	0	C	1	M1
NMTAP	79	0	1
NMTAP	79	24	3
NMTAP	79	72	3
NMTAP	79	96	2
NMTAP	79	144	2
NMTAP	79	168	4
NMTAP	79	216	4
NMTAP	79	240	3
NMTAP	79	288	1
NMTAP	79	288	3
NMTAP	79	336	0
NMTAP	79	336	7
NMTAP	80	0	5
NMTAP	80	24	4
NMTAP	80	72	4
NMTAP	80	96	6
NMTAP	80	144	6
NMTAP	80	168	0
NMTAP	80	216	0
NMTAP	80	240	7
NMTAP	80	288	0
NMTAP	80	288	1
NMTAP	80	336	2
NMTAP	80	336	7
NMSTR	81	0	6
NMSCL	81	0	6	96	32	3
NMTAP	81	48	6
NMTAP	81	96	1
NMTAP	81	144	0
NMTAP	81	192	6
NMTAP	81	192	7
NMTAP	81	216	6
NMTAP	81	216	7
NMTAP	81	264	1
NMTAP	81	264	2
NMTAP	81	312	4
NMTAP	81	312	5
BRTAP	81	360	1
BRTAP	81	360	7
EXTAP	82	48	2
EXTAP	82	48	3
EXTAP	82	96	4
EXTAP	82	96	5
NMTAP	82	144	6
NMTAP	82	168	0
NMTAP	82	216	0
NMTAP	82	240	7
NMTAP	82	288	0
NMTAP	82	288	1
NMTAP	82	336	2
NMTAP	82	336	7
NMTAP	83	0	6
NMTAP	83	24	4
NMTAP	83	72	4
NMTAP	83	96	5
NMTAP	83	144	5
NMTAP	83	168	3
NMTAP	83	216	3
NMTAP	83	240	4
NMTAP	83	288	4
NMTAP	83	288	6
NMTAP	83	336	0
NMTAP	83	336	7
NMTAP	84	0	2
NMTAP	84	24	3
NMTAP	84	72	3
NMTAP	84	96	1
NMTAP	84	144	1
NMTAP	84	168	7
NMTAP	84	216	7
NMTAP	84	240	0
NMTAP	84	288	6
NMTAP	84	288	7
NMTAP	84	336	0
NMTAP	84	336	5
NMSTR	85	0	1
NMSCR	85	0	1	96	32	4
NMTAP	85	48	1
NMTAP	85	96	6
NMTAP	85	144	7
NMTAP	85	192	0
NMTAP	85	192	1
NMTAP	85	216	0
NMTAP	85	216	1
NMTAP	85	264	2
NMTAP	85	264	6
NMTAP	85	288	3
NMTAP	85	304	4
NMTAP	85	320	5
NMTAP	85	336	6
NMTAP	85	352	7
NMTAP	85	368	0
BRTAP	86	0	1
BRTAP	86	0	5
NMTTP	86	76	3	B	0	M1
NMTTP	86	76	3	E	1	M1
NMTTP	86	76	3	A	0	M1
BRTAP	86	76	6
BRTAP	86	144	1
NMTTP	86	144	4	B	0	M1
NMTTP	86	144	4	A	0	M1
NMTTP	86	144	5	E	1	M1
NMTTP	86	220	2	B	0	M1
NMTTP	86	220	2	E	1	M1
NMTTP	86	220	2	A	0	M1
BRTAP	86	220	7
BRTAP	86	288	0
NMTTP	86	288	5	B	0	M1
NMTTP	86	288	5	A	0	M1
NMTTP	86	288	6	E	1	M1
EXSTR	87	0	0
BRSI_	87	0	0	96	32	4
EXSTR	87	0	7
BRSI_	87	0	7	96	32	3
NMTTP	87	96	0	C	1	M1

T_REC_TAP	487
T_REC_BRK	75
T_REC_XTP	28
T_REC_BXX	2
T_REC_HLD	82
T_REC_XHO	3
T_REC_BHO	12
T_REC_BXH	0
T_REC_STR	84
T_REC_BST	12
T_REC_XST	6
T_REC_XBS	0
T_REC_TTP	29
T_REC_THO	0
T_REC_SLD	99
T_REC_BSL	5
T_REC_ALL	924
T_NUM_TAP	634
T_NUM_BRK	106
T_NUM_HLD	85
T_NUM_SLD	99
T_NUM_ALL	924
T_JUDGE_TAP	723
T_JUDGE_HLD	133
T_JUDGE_SLD	104
T_JUDGE_ALL	960
TTM_EACHPAIRS	157
TTM_SCR_TAP	317000
TTM_SCR_BRK	275600
TTM_SCR_HLD	85000
TTM_SCR_SLD	148500
TTM_SCR_ALL	826100
TTM_SCR_S	791050
TTM_SCR_SS	815500
TTM_RAT_ACV	10129

