VERSION	0.00.00	1.05.00
FES_MODE	0
BPM_DEF	134.000	134.000	134.000	134.000
MET_DEF	4	4
RESOLUTION	384
CLK_DEF	384
COMPATIBLE_CODE	MA2

BPM	0	0	134.000
MET	0	0	4	4

EXTAP	1	0	3
EXTAP	1	0	4
EXHLD	1	48	3	268
EXHLD	1	48	4	268
EXHLD	2	0	2	76
EXHLD	2	0	3	76
EXHLD	2	144	4	76
EXHLD	2	144	5	76
EXTAP	2	288	0
EXTAP	2	288	7
NMHLD	3	0	1	96
NMHLD	3	96	3	96
NMTAP	3	192	2
NMTAP	3	240	2
NMTAP	3	288	4
NMHLD	4	0	5	96
NMHLD	4	96	4	96
NMTAP	4	192	6
NMTAP	4	240	6
NMTAP	4	288	7
NMHLD	5	0	5	96
NMTAP	5	96	4
NMTAP	5	192	2
NMTAP	5	240	2
NMTAP	5	288	3
NMTAP	6	0	1
NMTAP	6	48	1
NMTAP	6	96	7
NMTAP	6	144	7
NMTAP	6	192	0
NMTAP	6	288	1
NMTAP	6	288	6
NMSTR	7	0	2
NMSCR	7	0	2	96	192	5
NMTAP	7	288	6
NMSTR	8	0	5
NMSCL	8	0	5	96	192	2
NMTAP	8	288	1
NMSTR	9	0	1
NMSI_	9	0	1	96	96	4
NMSTR	9	192	5
NMSI_	9	192	5	96	96	0
NMSTR	10	0	2
NMSUR	10	0	2	96	192	5
NMSTR	11	0	6
NMSCL	11	0	6	96	192	2
NMTAP	11	288	0
NMSTR	12	0	1
NMSCR	12	0	1	96	192	5
NMTAP	12	288	7
NMSTR	13	0	6
NMSI_	13	0	6	96	96	3
NMSTR	13	192	2
NMSI_	13	192	2	96	96	7
NMSTR	14	0	5
NMSXR	14	0	5	96	192	2
NMHLD	15	0	1	672
NMTTP	15	96	3	E	0	M1
NMTTP	15	192	2	E	0	M1
NMTTP	15	288	1	E	0	M1
NMTTP	16	0	0	D	0	M1
NMTTP	16	96	1	D	0	M1
NMTTP	16	192	2	E	0	M1
NMTTP	16	288	3	D	0	M1
NMHLD	17	0	5	672
NMTTP	17	96	5	E	0	M1
NMTTP	17	192	6	E	0	M1
NMTTP	17	288	7	E	0	M1
NMTTP	18	0	0	D	0	M1
NMTTP	18	96	7	D	0	M1
NMTTP	18	192	6	E	0	M1
NMTTP	18	288	5	D	0	M1
NMTAP	19	0	2
NMTAP	19	48	2
NMTAP	19	96	2
NMTAP	19	96	3
NMTAP	19	192	1
NMTAP	19	192	4
NMTAP	19	288	2
NMTAP	19	288	3
NMTAP	20	0	5
NMTAP	20	48	5
NMTAP	20	96	4
NMTAP	20	96	5
NMTAP	20	192	3
NMTAP	20	192	6
NMTAP	20	288	4
NMTAP	20	288	5
NMTAP	21	0	6
NMTAP	21	48	6
NMTAP	21	96	6
NMTAP	21	96	7
NMTAP	21	192	1
NMTAP	21	240	1
NMTAP	21	288	0
NMTAP	21	288	1
NMTAP	22	0	0
NMTAP	22	0	7
NMTAP	22	48	0
NMTAP	22	48	7
NMTAP	22	96	0
NMTAP	22	96	7
NMTAP	22	192	1
NMTAP	22	192	6
EXSTR	23	0	0
NMSI_	23	0	0	96	48	4
EXSTR	23	0	1
NMSI_	23	0	1	96	48	4
NMHLD	23	192	5	76
NMHLD	23	268	6	68
NMTAP	23	336	7
NMTAP	24	48	0
NMTAP	24	48	7
NMTAP	24	96	0
NMTAP	24	96	7
BXTAP	24	172	0
BXTAP	24	172	1
NMHLD	24	240	1	48
NMTAP	24	288	0
EXTAP	24	364	2
EXTAP	24	364	7
NMHLD	25	48	6	48
NMTAP	25	96	7
EXTAP	25	172	0
EXTAP	25	172	5
NMHLD	25	240	1	48
NMTAP	25	288	0
EXTAP	25	364	2
EXTAP	25	364	7
NMTAP	26	48	1
NMTAP	26	96	0
NMTAP	26	144	7
NMTAP	26	192	6
NMTAP	26	288	0
NMTAP	26	288	7
NMSTR	27	0	6
NMSI_	27	0	6	96	48	3
NMSTR	27	0	7
NMSI_	27	0	7	96	48	3
NMHLD	27	192	2	76
NMHLD	27	268	1	68
NMTAP	27	336	0
NMTAP	28	48	0
NMTAP	28	48	7
NMTAP	28	96	0
NMTAP	28	96	7
BXTAP	28	172	6
BXTAP	28	172	7
NMHLD	28	240	6	48
NMTAP	28	288	7
EXTAP	28	364	0
EXTAP	28	364	5
NMHLD	29	48	1	48
NMTAP	29	96	0
EXTAP	29	172	2
EXTAP	29	172	7
NMHLD	29	240	6	48
NMTAP	29	288	7
BRTAP	29	364	0
BRTAP	29	364	5
NMTAP	30	48	6
NMTAP	30	96	7
NMTAP	30	144	0
NMTAP	30	192	1
NMTAP	30	288	0
NMTAP	30	288	7
BRTAP	31	0	6
NMTAP	31	48	6
NMTAP	31	96	4
NMTAP	31	144	4
NMSTR	31	192	5
NMSI_	31	192	5	96	48	0
NMTAP	32	0	1
NMTAP	32	48	1
NMTAP	32	96	3
NMTAP	32	144	3
NMSTR	32	192	2
NMSI_	32	192	2	96	48	7
NMTAP	33	0	6
NMTAP	33	48	6
NMTAP	33	96	4
NMTAP	33	144	4
NMSTR	33	192	5
NMSI_	33	192	5	96	48	2
BXTAP	34	0	0
BXTAP	34	0	1
EXTAP	34	96	0
EXTAP	34	96	1
BXTAP	34	192	6
BXTAP	34	192	7
EXTAP	34	288	6
EXTAP	34	288	7
NMTAP	35	0	6
NMTAP	35	48	6
NMTAP	35	96	7
NMTAP	35	144	7
NMSTR	35	192	5
NMSI_	35	192	5	96	48	0
NMTAP	36	0	1
NMTAP	36	48	1
NMTAP	36	96	0
NMTAP	36	144	0
NMSTR	36	192	2
NMSI_	36	192	2	96	48	7
NMTAP	37	0	0
NMTAP	37	0	6
NMHLD	37	48	0	240
NMHLD	37	48	6	240
NMTAP	38	0	1
NMTAP	38	0	3
NMHLD	38	48	1	240
NMHLD	38	48	3	240
NMTAP	39	0	4
NMTAP	39	0	6
NMHLD	39	48	4	240
NMHLD	39	48	6	240
EXTAP	40	0	1
EXTAP	40	0	7
EXTAP	40	76	1
EXTAP	40	76	7
EXTAP	40	144	0
EXTAP	40	144	6
EXTAP	40	220	0
EXTAP	40	220	6
EXTAP	40	288	1
EXTAP	40	288	5
NMTHO	41	0	0	288	C	0	M1
NMTTP	42	0	2	A	0	M1
NMTTP	42	96	1	A	0	M1
NMTTP	42	192	0	A	0	M1
NMTTP	42	288	0	C	0	M1
NMTTP	42	288	1	B	0	M1
NMTTP	42	288	5	B	0	M1
NMHLD	43	0	6	48
NMHLD	43	0	7	48
NMHLD	43	96	6	48
NMHLD	43	96	7	48
NMHLD	43	192	0	48
NMHLD	43	192	1	48
NMHLD	43	288	0	48
NMHLD	43	288	1	48
NMHLD	44	0	2	48
NMHLD	44	96	0	48
NMHLD	44	96	1	48
NMHLD	44	192	6	48
NMHLD	44	192	7	48
NMHLD	44	288	5	48
NMHLD	45	0	4	48
NMHLD	45	0	6	48
NMHLD	45	96	4	48
NMHLD	45	96	6	48
NMHLD	45	192	1	48
NMHLD	45	192	3	48
NMHLD	45	288	1	48
NMHLD	45	288	3	48
NMHLD	46	0	2	96
NMHLD	46	96	3	96
NMHLD	46	192	4	96
BRTAP	46	288	5
NMHLD	47	0	6	48
NMHLD	47	0	7	48
NMHLD	47	96	0	48
NMHLD	47	96	5	48
NMHLD	47	192	0	48
NMHLD	47	192	1	48
NMHLD	47	288	2	48
NMHLD	47	288	7	48
NMHLD	48	0	0	48
NMHLD	48	0	1	48
NMHLD	48	96	2	48
NMHLD	48	96	3	48
NMHLD	48	192	4	48
NMHLD	48	192	5	48
NMHLD	48	288	6	48
NMHLD	48	288	7	48
NMHLD	49	0	5	48
NMHLD	49	96	4	48
NMHLD	49	96	6	48
NMHLD	49	192	2	48
NMHLD	49	288	1	48
NMHLD	49	288	3	48
NMTAP	50	0	7
NMTAP	50	48	7
NMTAP	50	96	0
NMTAP	50	96	6
BRTAP	50	192	2
BRTAP	50	192	4
NMTAP	51	0	5
NMHLD	51	96	4	1152
NMTAP	51	96	6
NMTTP	51	288	7	E	0	M1
NMTTP	52	96	6	E	0	M1
NMTTP	52	288	5	E	0	M1
NMTTP	53	96	4	E	0	M1
NMTTP	53	288	3	E	0	M1
NMTTP	54	96	0	C	0	M1
NMHLD	54	288	6	288
NMTAP	55	96	4
NMTAP	55	192	3
NMHLD	55	288	2	288
NMTAP	56	96	3
NMTAP	56	192	4
NMHLD	56	288	5	192
NMTAP	57	96	4
NMHLD	57	192	2	96
NMTAP	57	288	3
NMTAP	58	0	4
NMTAP	58	48	4
NMTAP	58	96	3
NMTAP	58	144	3
NMTAP	58	192	5
NMTAP	58	288	3
NMTAP	58	288	4
NMHLD	59	0	3	96
NMHLD	59	0	4	96
NMTAP	59	192	3
EXTAP	59	192	4
EXTAP	59	288	3
NMTAP	59	288	4
NMSTR	60	0	4
NMSI_	60	0	4	96	48	0
NMSTR	60	0	5
NMSI_	60	0	5	96	48	0
NMHLD	60	192	1	76
NMHLD	60	268	3	68
NMTAP	60	336	4
NMTAP	61	48	4
NMTAP	61	48	6
NMTAP	61	96	4
NMTAP	61	96	6
BRTAP	61	172	0
BRTAP	61	172	7
NMHLD	61	240	1	48
EXTAP	61	288	0
EXTAP	61	316	1
NMTAP	61	364	2
NMTAP	61	364	7
NMHLD	62	48	6	48
EXTAP	62	96	7
EXTAP	62	124	6
NMTAP	62	172	0
NMTAP	62	172	5
NMHLD	62	240	2	48
EXTAP	62	288	3
EXTAP	62	316	2
NMTAP	62	364	1
NMTAP	62	364	4
NMTAP	63	48	1
NMTAP	63	96	3
NMTAP	63	144	4
NMTAP	63	192	6
BRTAP	63	288	0
BRTAP	63	288	7
NMSTR	64	0	0
NMSI_	64	0	0	96	48	5
NMSTR	64	0	1
NMSI_	64	0	1	96	48	4
NMHLD	64	192	6	76
NMHLD	64	268	4	68
NMTAP	64	336	3
NMTAP	65	48	0
NMTAP	65	48	1
NMTAP	65	96	0
NMTAP	65	96	1
NMTAP	65	172	2
NMTAP	65	172	3
NMHLD	65	240	5	48
EXTAP	65	288	4
EXTAP	65	316	5
NMTAP	65	364	3
NMTAP	65	364	6
NMHLD	66	48	1	48
EXTAP	66	96	0
EXTAP	66	124	1
NMTAP	66	172	2
NMTAP	66	172	7
NMHLD	66	240	6	48
EXTAP	66	288	7
EXTAP	66	316	6
NMTAP	66	364	0
NMTAP	66	364	5
NMTAP	67	48	2
NMTAP	67	48	3
NMSTR	67	96	2
NMSI_	67	96	2	96	48	0
NMSTR	67	96	3
NMSI_	67	96	3	96	48	5
NMTAP	68	0	6
NMTAP	68	48	6
NMTAP	68	96	7
NMTAP	68	144	5
NMSTR	68	192	0
BRSI_	68	192	0	96	48	4
NMTAP	68	192	4
NMTAP	69	0	5
NMTAP	69	48	5
NMTAP	69	96	4
NMTAP	69	144	6
NMSTR	69	192	3
BRSI_	69	192	3	96	48	7
NMTAP	69	192	7
NMTAP	70	0	6
NMTAP	70	48	6
NMTAP	70	96	0
NMTAP	70	144	7
NMSTR	70	192	1
BRSI_	70	192	1	96	48	5
NMHLD	70	192	6	96
NMTAP	71	0	6
NMTAP	71	0	7
NMTAP	71	96	0
NMTAP	71	96	5
NMTAP	71	192	0
NMTAP	71	192	1
NMTAP	71	288	2
NMTAP	71	288	7
NMTAP	72	0	1
NMTAP	72	48	1
NMTAP	72	96	0
NMTAP	72	144	2
NMTAP	72	192	3
NMSTR	72	192	7
NMSI_	72	192	7	96	48	3
NMTAP	73	0	1
NMTAP	73	48	1
NMTAP	73	96	3
NMTAP	73	144	2
NMSTR	73	192	3
NMSI_	73	192	3	96	48	0
NMSTR	73	192	4
NMSI_	73	192	4	96	48	7
EXTAP	74	0	1
EXTAP	74	0	6
EXSTR	74	48	1
NMSLR	74	48	1	96	144	7
EXHLD	74	48	6	240
EXTAP	75	0	0
EXTAP	75	0	5
EXHLD	75	48	0	240
EXSTR	75	48	5
NMSLR	75	48	5	96	144	2
EXTAP	76	0	1
EXTAP	76	0	3
EXHLD	76	48	1	240
EXSTR	76	48	3
NMSLR	76	48	3	96	144	0
EXTAP	77	0	0
EXTAP	77	0	1
EXTAP	77	76	2
EXTAP	77	76	3
EXTAP	77	144	4
EXTAP	77	144	5
EXTAP	77	220	6
EXTAP	77	220	7
BXTAP	77	288	0
BXTAP	77	288	7
NMHLD	78	0	1	96
NMTAP	78	96	3
NMTAP	78	192	0
NMTAP	78	240	0
NMTAP	78	288	7
NMHLD	79	0	6	96
NMTAP	79	96	4
NMTAP	79	192	7
NMTAP	79	240	7
NMTAP	79	288	0
NMHLD	80	0	1	96
NMTAP	80	96	3
NMTAP	80	192	6
NMTAP	80	240	6
NMTAP	80	288	4
NMTAP	81	0	0
NMTAP	81	0	5
NMTAP	81	96	2
NMTAP	81	96	3
NMTAP	81	192	2
NMTAP	81	192	7
NMTAP	81	288	4
NMSTR	81	288	5
NMSCR	81	288	5	96	96	1
NMTAP	82	192	2
NMTAP	82	240	2
NMTAP	82	288	1
NMTAP	82	288	3
NMTAP	83	0	0
NMSTR	83	0	1
NMSI_	83	0	1	96	48	4
NMTAP	83	192	5
NMTAP	83	240	5
NMTAP	83	288	4
NMTAP	83	288	6
NMTAP	84	0	3
NMSTR	84	0	5
NMSI_	84	0	5	96	48	0
NMTAP	84	192	1
NMTAP	84	240	1
NMTAP	84	288	0
NMTAP	84	288	2
NMSTR	85	0	2
NMSI_	85	0	2	96	48	7
NMTAP	85	0	4
NMTAP	85	192	6
NMTAP	85	240	6
NMTAP	85	288	5
NMTAP	85	288	7
EXTAP	86	0	4
EXTAP	86	0	6
EXTAP	86	76	4
EXTAP	86	76	6
EXTAP	86	144	1
EXTAP	86	144	3
EXTAP	86	220	1
EXTAP	86	220	3
EXTAP	86	288	0
EXTAP	86	288	7
NMTAP	87	0	3
NMTAP	87	0	4
BRTAP	87	96	1
BRTAP	87	96	6

T_REC_TAP	228
T_REC_BRK	12
T_REC_XTP	66
T_REC_BXX	10
T_REC_HLD	91
T_REC_XHO	9
T_REC_BHO	0
T_REC_BXH	0
T_REC_STR	33
T_REC_BST	0
T_REC_XST	5
T_REC_XBS	0
T_REC_TTP	26
T_REC_THO	1
T_REC_SLD	35
T_REC_BSL	3
T_REC_ALL	519
T_NUM_TAP	358
T_NUM_BRK	25
T_NUM_HLD	101
T_NUM_SLD	35
T_NUM_ALL	519
T_JUDGE_TAP	380
T_JUDGE_HLD	241
T_JUDGE_SLD	38
T_JUDGE_ALL	659
TTM_EACHPAIRS	131
TTM_SCR_TAP	179000
TTM_SCR_BRK	65000
TTM_SCR_HLD	101000
TTM_SCR_SLD	52500
TTM_SCR_ALL	397500
TTM_SCR_S	383150
TTM_SCR_SS	395000
TTM_RAT_ACV	10063

