VERSION	0.00.00	1.05.00
FES_MODE	0
BPM_DEF	180.000	180.000	180.000	180.000
MET_DEF	4	4
RESOLUTION	384
CLK_DEF	384
COMPATIBLE_CODE	MA2

BPM	0	0	180.000
MET	0	0	4	4

NMHLD	1	0	2	96
NMTAP	1	48	3
NMTAP	1	96	4
NMHLD	1	144	5	96
NMTAP	1	192	4
NMTAP	1	240	3
NMTAP	1	288	2
NMTAP	1	288	4
NMTAP	1	336	2
NMTAP	1	336	4
BRTAP	2	0	1
BRTAP	2	0	5
NMTTP	2	96	3	E	0	M1
NMTTP	2	144	4	E	0	M1
NMTAP	2	240	6
NMTAP	2	288	6
NMTAP	2	336	7
NMHLD	3	0	5	96
NMTTP	3	96	5	E	0	M1
NMTTP	3	144	4	E	0	M1
NMTAP	3	240	1
NMTAP	3	288	1
NMTAP	3	336	0
NMHLD	4	0	2	96
NMTTP	4	96	3	E	0	M1
NMTTP	4	144	4	E	0	M1
NMTAP	4	240	4
NMTAP	4	288	4
NMTAP	4	336	3
NMTAP	4	336	5
NMTAP	5	0	3
NMSTR	5	0	5
NMSI_	5	0	5	96	48	3
NMTAP	5	96	2
NMHLD	5	144	1	96
NMTAP	5	240	0
NMHLD	5	288	7	96
NMTTP	6	0	0	C	1	M1
NMTAP	6	96	0
NMHLD	6	144	0	96
NMTAP	6	240	2
NMTAP	6	288	3
NMTAP	6	336	4
NMSTR	7	0	1
NMSI_	7	0	1	96	48	3
NMTAP	7	96	7
NMHLD	7	144	7	96
NMTAP	7	240	5
NMTAP	7	288	4
NMTAP	7	336	3
NMSTR	8	0	6
NMSI_	8	0	6	96	48	2
NMTAP	8	96	0
NMHLD	8	144	0	96
NMTAP	8	240	3
NMSTR	8	288	3
NMSCR	8	288	3	96	192	7
NMTAP	9	0	1
NMTAP	9	96	2
NMTAP	9	144	2
CNSCL	9	192	7	0	192	3
NMTAP	9	240	1
NMTAP	9	288	1
NMTHO	10	0	0	192	C	0	M1
NMHLD	11	0	0	192
NMTTP	11	0	7	E	0	M1
NMTTP	11	96	6	E	0	M1
NMTTP	11	192	5	E	0	M1
NMTAP	11	288	0
NMTAP	11	288	4
NMTAP	11	336	0
NMHLD	12	0	1	192
NMTTP	12	0	6	E	0	M1
NMTTP	12	96	5	E	0	M1
NMTTP	12	192	4	E	0	M1
NMTAP	12	288	1
NMTAP	12	336	1
NMHLD	13	0	2	192
NMTAP	13	0	4
NMTAP	13	96	4
NMTAP	13	192	3
NMSTR	13	288	2
NMSLL	13	288	2	96	192	6
NMTAP	13	288	3
NMTAP	13	336	3
NMTAP	14	0	3
NMTAP	14	96	4
NMTAP	14	192	5
NMTAP	14	288	5
NMTAP	14	336	5
NMHLD	15	0	4	96
NMTAP	15	0	6
NMTAP	15	96	6
NMHLD	15	192	4	96
NMTAP	15	192	7
NMTAP	15	288	7
NMTAP	15	336	7
NMTTP	16	0	5	E	0	M1
NMTAP	16	0	6
NMTTP	16	96	0	C	0	M1
NMTAP	16	96	6
NMTTP	16	192	1	E	0	M1
NMTAP	16	192	7
NMTAP	16	288	6
NMTAP	16	336	5
NMTAP	17	0	4
NMHLD	17	0	7	96
NMHLD	17	96	5	96
NMHLD	17	192	4	96
NMTAP	17	288	6
NMTAP	18	0	7
NMTAP	18	48	6
NMSTR	18	96	5
NMSI_	18	96	5	96	48	7
NMTAP	18	144	4
NMTAP	18	192	3
NMTAP	18	288	2
NMTAP	18	288	4
NMSTR	19	0	0
NMSUL	19	0	0	96	48	4
NMSUR	19	0	0	96	48	4
NMTAP	19	0	6
NMTTP	19	96	0	C	0	M1
NMTAP	19	192	6
NMTAP	19	240	7
NMTAP	19	288	0
NMSTR	19	336	1
NMSI_	19	336	1	96	48	4
NMTAP	19	336	3
NMTAP	20	48	4
NMTAP	20	96	5
NMTAP	20	144	6
NMHLD	20	192	7	0
NMHLD	20	256	7	0
NMHLD	20	320	7	0
NMSTR	21	0	0
BRSI_	21	0	0	96	48	6
NMTAP	21	0	6
BXHLD	21	144	4	192
NMTAP	21	336	3
NMTAP	22	0	2
NMSTR	22	48	3
NMSCR	22	48	3	96	48	6
NMTAP	22	96	1
NMHLD	22	144	0	144
NMTTP	22	288	0	B	0	M1
NMTTP	22	288	0	E	0	M1
NMTTP	23	0	3	B	0	M1
NMTTP	23	0	4	E	0	M1
NMTAP	23	96	4
NMTAP	23	96	6
NMTAP	23	144	5
NMTAP	23	192	5
NMHLD	23	240	4	96
NMTAP	23	240	6
NMTAP	23	336	7
NMTAP	24	0	6
NMTAP	24	48	5
NMTAP	24	96	0
NMSTR	24	144	1
NMSI_	24	144	1	96	48	3
NMTAP	24	144	3
NMTAP	24	240	4
CNSV_	24	288	3	0	96	5
NMTAP	24	288	4
NMSTR	25	0	6
NMSUL	25	0	6	96	48	2
NMSUR	25	0	6	96	48	2
NMTTP	25	96	0	C	0	M1
NMTAP	25	240	0
NMTAP	25	288	7
NMTHO	25	336	0	240	C	0	M1
NMTAP	25	336	6
NMSTR	26	96	7
NMSUL	26	96	7	96	96	1
NMSTR	26	288	0
NMSI_	26	288	0	96	48	4
BRTAP	27	0	0
BRTAP	27	0	5
NMTAP	27	96	1
NMSTR	27	96	7
NMSI_	27	96	7	96	48	3
NMTAP	27	144	2
NMTAP	27	192	3
NMSTR	27	288	1
NMSI_	27	288	1	96	48	5
NMTAP	27	288	4
NMTAP	27	336	5
NMSTR	28	0	6
BRSCR	28	0	6	96	48	0
NMTAP	28	96	3
CNSI_	28	144	0	0	48	4
NMTAP	28	144	3
NMTAP	28	240	1
NMTAP	28	288	1
NMSTR	28	288	5
NMSCL	28	288	5	96	48	2
NMSTR	29	0	7
NMSXL	29	0	7	96	96	1
NMTAP	29	96	4
NMTAP	29	144	5
NMSTR	29	192	6
NMSXR	29	192	6	96	96	4
NMTAP	29	288	3
NMTAP	29	336	2
NMTAP	30	0	1
NMSTR	30	48	0
NMSV_	30	48	0	96	48	2
NMSV_	30	48	0	96	48	6
NMTAP	30	96	7
NMTAP	30	240	4
NMSTR	30	288	4
NMSI_	30	288	4	96	48	0
NMSI_	30	288	4	96	48	2
NMTAP	31	0	4
NMTAP	31	96	1
NMTAP	31	96	7
NMTAP	31	144	0
NMTAP	31	192	6
NMSTR	31	192	7
NMSI_	31	192	7	96	48	1
NMTAP	31	288	4
CNSI_	31	336	1	0	72	3
NMTAP	31	336	5
NMTAP	32	0	6
CNSI_	32	24	3	0	72	5
NMTAP	32	48	7
NMTAP	32	96	0
NMHLD	32	144	1	96
NMSTR	32	240	3
NMSI_	32	240	3	96	48	6
NMSI_	32	240	3	96	48	7
NMTAP	32	336	3
NMSTR	33	48	0
NMSI_	33	48	0	96	48	5
NMTAP	33	96	1
NMTAP	33	144	2
NMSTR	33	192	3
NMSI_	33	192	3	96	48	0
NMTAP	33	240	4
NMTAP	33	288	5
NMTAP	33	336	6
NMSTR	34	0	7
NMSI_	34	0	7	96	48	2
NMSTR	34	48	2
NMSCL	34	48	2	96	48	7
NMSTR	34	96	7
NMSCL	34	96	7	96	48	4
NMTTP	34	144	4	E	1	M1
EXTAP	34	240	1
NMTAP	34	288	1
NMSTR	34	288	3
NMSI_	34	288	3	96	48	0
BRTAP	35	0	0
BRTAP	35	0	3
NMTAP	35	96	1
NMSTR	35	96	7
NMSI_	35	96	7	96	48	3
NMTAP	35	144	2
NMTAP	35	192	3
NMSTR	35	288	1
NMSI_	35	288	1	96	48	5
NMTAP	35	288	4
NMTAP	35	336	5
NMSTR	36	0	6
BRSCR	36	0	6	96	48	0
NMTAP	36	96	3
CNSI_	36	144	0	0	48	4
NMTAP	36	144	3
NMTAP	36	240	1
NMTAP	36	288	1
NMSTR	36	288	5
NMSCL	36	288	5	96	48	2
NMSTR	37	0	7
NMSXL	37	0	7	96	96	1
NMTAP	37	96	4
NMTAP	37	144	5
NMSTR	37	192	6
NMSXR	37	192	6	96	96	4
NMTAP	37	288	3
NMTAP	37	336	2
NMTAP	38	0	1
EXSTR	38	48	0
NMSV_	38	48	0	96	48	3
NMSXR	38	48	0	96	48	6
NMTAP	38	96	7
NMTAP	38	240	2
NMHLD	38	288	2	96
NMTAP	39	0	3
NMTAP	39	48	3
NMTAP	39	96	2
NMTAP	39	96	4
NMSTR	39	144	1
NMSLR	39	144	1	96	72	5
NMTAP	39	144	5
NMTAP	39	240	0
NMTAP	39	288	7
NMHLD	39	336	6	240
NMSTR	40	288	6
NMSV_	40	288	6	96	48	3
NMSTR	40	288	7
NMSUR	40	288	7	96	48	3
BRTAP	41	0	6
BRTAP	41	0	7
NMTAP	41	96	2
NMTAP	41	96	4
NMHLD	41	192	1	72
NMTAP	41	264	3
NMSTR	41	288	2
NMSI_	41	288	2	96	48	7
NMTAP	41	336	1
NMTAP	41	336	4
NMHLD	42	0	5	192
NMHLD	42	96	0	96
NMTTP	42	200	1	D	0	M1
NMTTP	42	200	5	D	0	M1
NMTTP	42	208	1	A	0	M1
NMTTP	42	208	4	A	0	M1
NMTTP	42	216	2	D	0	M1
NMTTP	42	216	4	D	0	M1
NMTTP	42	224	2	A	0	M1
NMTTP	42	224	3	A	0	M1
NMTTP	42	232	3	D	0	M1
NMTAP	42	288	5
NMTAP	42	336	5
NMSTR	43	0	4
NMSI_	43	0	4	96	48	1
NMTAP	43	0	6
NMSTR	43	96	7
NMSI_	43	96	7	96	48	2
NMSTR	43	192	0
NMSI_	43	192	0	96	48	5
NMTAP	43	288	4
NMTAP	44	0	4
NMTAP	44	0	6
NMTAP	44	72	5
NMTAP	44	96	4
NMTAP	44	144	2
NMTAP	44	144	3
NMTAP	44	192	1
NMTAP	44	192	4
NMTAP	44	240	0
NMTAP	44	264	5
NMSTR	44	288	0
NMSI_	44	288	0	96	48	4
NMTAP	44	312	5
NMTAP	44	336	0
NMTAP	44	360	5
BRTAP	45	0	0
NMTAP	45	96	3
NMTAP	45	96	5
NMHLD	45	192	6	72
NMTAP	45	264	4
NMSTR	45	288	5
NMSI_	45	288	5	96	48	0
NMTAP	45	336	3
NMTAP	45	336	6
NMHLD	46	0	2	192
NMHLD	46	96	7	96
NMTTP	46	200	3	D	0	M1
NMTTP	46	200	7	D	0	M1
NMTTP	46	208	3	A	0	M1
NMTTP	46	208	6	A	0	M1
NMTTP	46	216	4	D	0	M1
NMTTP	46	216	6	D	0	M1
NMTTP	46	224	4	A	0	M1
NMTTP	46	224	5	A	0	M1
NMTTP	46	232	5	D	0	M1
NMTAP	46	288	2
NMTAP	46	336	2
NMTAP	47	0	1
NMSTR	47	0	3
NMSI_	47	0	3	96	48	6
NMSTR	47	96	0
NMSI_	47	96	0	96	48	5
NMSTR	47	192	7
NMSI_	47	192	7	96	48	2
NMTAP	47	288	3
NMTAP	48	0	1
NMTAP	48	0	3
NMTAP	48	72	2
NMTAP	48	96	3
NMTAP	48	144	4
NMTAP	48	144	5
NMSTR	48	192	3
NMSI_	48	192	3	96	48	5
NMSTR	48	192	6
NMSI_	48	192	6	96	48	4
NMTAP	48	240	2
NMTAP	48	240	7
NMSTR	48	288	3
NMSCL	48	288	3	96	288	6
NMSTR	48	288	6
NMSCR	48	288	6	96	288	3
NMTAP	50	0	4
NMTAP	50	0	5
NMHLD	50	96	6	192
NMTTP	50	192	4	B	0	M1
NMTTP	50	192	5	B	0	M1
NMTTP	50	192	5	E	0	M1
NMTAP	50	288	7
NMTAP	50	336	7
NMTAP	51	0	6
NMTAP	51	0	7
NMTAP	51	96	0
NMHLD	51	96	5	192
NMTHO	51	192	0	192	C	1	M1
NMTTP	51	192	5	B	0	M1
NMTTP	51	192	6	B	0	M1
NMTTP	51	192	6	E	0	M1
BRTAP	52	0	7
NMTAP	52	96	0
NMTAP	52	96	6
NMTAP	52	144	1
NMTAP	52	192	2
NMTAP	52	192	3
NMTAP	52	240	2
NMTAP	52	240	3
NMTAP	52	288	1
NMTAP	52	336	0
NMTAP	52	336	7
NMTAP	53	0	6
NMTAP	53	0	7
NMTAP	53	48	5
NMTAP	53	72	7
NMTAP	53	96	6
NMTAP	53	144	0
NMTAP	53	144	7
NMTAP	53	192	1
NMTAP	53	216	0
NMTAP	53	240	2
NMTAP	53	288	1
NMTAP	53	336	0
NMTAP	53	336	7
NMTAP	54	0	6
NMSTR	54	0	7
NMSCR	54	0	7	96	48	2
NMHLD	54	96	4	0
NMHLD	54	168	4	0
NMHLD	54	240	4	0
EXTAP	54	288	3
EXTAP	54	288	5
NMTAP	54	336	2
NMTAP	54	336	4
NMTAP	55	0	2
NMHLD	55	0	4	96
NMTAP	55	96	2
NMTAP	55	120	3
NMTAP	55	168	4
NMTAP	55	192	3
NMTAP	55	240	2
NMTAP	55	264	3
NMTAP	55	336	1
NMTAP	55	336	7
NMSTR	56	0	1
NMSI_	56	0	1	96	48	7
NMTAP	56	0	7
NMHLD	56	96	6	0
NMHLD	56	168	6	0
NMHLD	56	240	6	0
NMTAP	56	288	3
NMTAP	56	288	5
NMTAP	56	336	3
NMTAP	56	336	5
NMTAP	57	0	4
NMHLD	57	0	6	96
NMTAP	57	96	4
NMTAP	57	120	5
NMTAP	57	168	6
NMTAP	57	192	5
NMTAP	57	240	4
NMTAP	57	264	5
NMTAP	57	336	4
NMTAP	57	336	6
NMSTR	58	0	4
NMSCL	58	0	4	96	48	1
NMTAP	58	0	5
NMHLD	58	96	7	0
NMHLD	58	168	7	0
NMHLD	58	240	7	0
EXTAP	58	288	0
EXTAP	58	288	6
NMTAP	58	336	1
NMTAP	58	336	7
NMTAP	59	0	1
NMHLD	59	0	7	96
NMTAP	59	96	1
NMTAP	59	120	0
NMTAP	59	168	7
NMTAP	59	192	0
NMTAP	59	240	1
NMTAP	59	264	0
NMTAP	59	336	2
NMTAP	59	336	7
NMHLD	60	0	2	96
NMTAP	60	0	7
NMHLD	60	96	3	0
NMHLD	60	168	3	0
NMHLD	60	168	4	0
NMSTR	60	240	4
NMSI_	60	240	4	96	48	1
NMHLD	60	240	5	0
NMTAP	60	336	7
CNSI_	61	0	1	0	48	7
BXHLD	61	0	5	1344
NMSTR	62	0	4
NMSCL	62	0	4	96	480	4
NMHLD	64	0	4	96
NMSTR	64	192	4
NMSI_	64	192	4	96	48	7
BRTAP	64	288	4
BRTAP	64	288	6
NMTAP	65	0	0
NMTAP	65	0	1
NMSTR	65	48	0
BRSV_	65	48	0	96	48	3
NMSTR	65	48	1
BRSI_	65	48	1	96	48	4
BRTAP	65	144	0
BRTAP	65	144	1
NMTAP	65	240	2
NMTAP	65	240	5
NMSTR	65	288	2
NMSCL	65	288	2	96	96	6
NMTAP	65	288	5
BRSTR	66	0	6
BRSLR	66	0	6	96	96	2
NMTAP	66	96	3
NMTAP	66	144	4
NMSTR	66	192	5
NMSI_	66	192	5	96	48	7
NMSTR	66	288	2
NMSI_	66	288	2	96	48	4
NMTAP	66	288	5
NMSTR	67	0	2
NMSI_	67	0	2	96	48	7
NMSV_	67	0	2	96	72	5
NMTAP	67	0	5
CNSCL	67	144	7	0	24	6
NMTAP	67	288	3
NMTAP	67	288	6
NMSTR	67	336	2
NMSV_	67	336	2	96	48	7
NMSTR	67	336	7
NMSUL	67	336	7	96	48	3
BRTAP	68	48	2
BRTAP	68	48	7
NMTAP	68	144	0
NMTAP	68	144	4
NMSTR	68	192	1
NMSCR	68	192	1	96	48	4
NMSTR	68	192	5
NMSCR	68	192	5	96	48	0
NMSTR	68	288	1
NMSXL	68	288	1	96	144	4
NMSTR	68	288	5
NMSXL	68	288	5	96	144	0
EXTAP	69	0	1
EXTAP	69	0	5
NMTTP	69	96	0	C	1	M1
NMTAP	69	240	7
NMSTR	69	288	7
BRSF_	69	288	7	96	48	3
BRTAP	70	0	7
NMSTR	70	96	1
BRSI_	70	96	1	96	48	7
NMSTR	70	96	5
BRSI_	70	96	5	96	48	2
NMTAP	70	144	2
NMSTR	70	288	0
BRSCL	70	288	0	96	48	5
NMSTR	70	288	4
BRSI_	70	288	4	96	48	2
NMTAP	70	336	1
NMTAP	71	96	0
NMTAP	71	144	1
NMSTR	71	144	7
NMSV_	71	144	7	96	48	2
NMTAP	71	240	1
NMSTR	71	288	0
BRSI_	71	288	0	96	48	5
CNSCR	71	288	2	0	48	4
NMTAP	72	0	0
NMTAP	72	0	6
NMSTR	72	96	4
NMSI_	72	96	4	96	48	0
NMSTR	72	96	6
NMSI_	72	96	6	96	48	4
NMTAP	72	192	4
NMTAP	72	192	6
NMTAP	72	288	1
NMTAP	72	288	3
NMTAP	72	336	2
NMTAP	72	336	4
NMTAP	73	0	3
NMTAP	73	0	5
NMSTR	73	48	4
NMSI_	73	48	4	96	48	1
NMSTR	73	48	6
NMSI_	73	48	6	96	48	3
NMTAP	73	96	7
NMTAP	73	240	0
NMSTR	73	288	0
NMSI_	73	288	0	96	48	6
NMSTR	74	0	5
NMSI_	74	0	5	96	48	1
NMSTR	74	96	3
NMSCL	74	96	3	96	48	0
NMSCR	74	96	3	96	48	6
CNSI_	74	144	1	0	48	3
NMTAP	74	144	3
NMTAP	74	288	7
NMTAP	74	336	0
NMSTR	75	0	1
NMSCL	75	0	1	96	48	6
NMSTR	75	96	3
NMSI_	75	96	3	96	48	0
NMTAP	75	192	4
NMTAP	75	240	4
NMTAP	75	336	6
NMSTR	76	0	5
NMSUR	76	0	5	96	96	2
NMTAP	76	0	7
NMSTR	76	96	2
NMSUL	76	96	2	96	96	5
NMTAP	76	192	3
NMSTR	76	240	3
BRSF_	76	240	3	96	48	7
NMTTP	76	336	0	C	0	M1
NMTTP	76	336	3	B	0	M1
NMTTP	76	336	7	B	0	M1
NMTAP	77	288	3
NMTAP	77	288	4
BRTAP	78	0	2
BRTAP	78	0	7
NMTAP	78	48	1
NMTAP	78	72	0
NMTAP	78	120	0
NMTAP	78	168	1
NMTAP	78	168	7
NMTAP	78	216	0
NMTAP	78	216	2
NMTAP	78	264	7
NMTAP	78	288	3
NMTAP	78	312	7
NMTAP	78	336	3
NMTAP	78	360	7
EXTAP	79	0	4
NMTAP	79	48	4
NMTAP	79	96	4
NMTAP	79	120	5
NMTAP	79	144	4
NMTAP	79	168	5
NMTAP	79	192	3
NMTAP	79	216	4
NMTAP	79	240	3
NMTAP	79	264	4
NMTAP	79	288	2
NMTAP	79	312	3
NMTAP	79	336	2
BRTAP	80	0	0
BRTAP	80	0	7
NMTAP	80	48	6
NMTAP	80	72	4
NMTAP	80	120	4
NMTAP	80	144	5
BRTAP	80	192	0
BRTAP	80	192	7
NMTAP	80	240	1
NMTAP	80	264	3
NMTAP	80	312	3
NMTAP	80	336	2
BRTAP	81	0	5
NMTAP	81	24	7
NMTAP	81	48	6
NMTAP	81	72	7
NMTAP	81	96	5
BRTAP	81	144	2
NMTAP	81	168	0
NMTAP	81	192	1
NMTAP	81	216	0
NMTAP	81	240	2
NMHLD	81	288	2	24
NMHLD	81	288	3	24
NMHLD	81	336	1	24
NMHLD	81	336	4	24
BRTAP	82	0	0
BRTAP	82	0	5
NMTAP	82	48	6
NMTAP	82	72	7
NMTAP	82	120	7
NMTAP	82	168	0
NMTAP	82	168	6
NMTAP	82	216	5
NMTAP	82	216	7
NMTAP	82	264	0
NMTAP	82	288	4
NMTAP	82	312	0
NMTAP	82	336	4
NMTAP	82	360	0
EXTAP	83	0	3
NMTAP	83	48	3
NMTAP	83	96	3
NMTAP	83	120	2
NMTAP	83	144	3
NMTAP	83	168	2
NMTAP	83	192	4
NMTAP	83	216	3
NMTAP	83	240	4
NMTAP	83	264	3
NMTAP	83	288	5
NMTAP	83	312	4
NMTAP	83	336	5
NMTAP	83	360	4
BRTAP	84	0	6
NMTAP	84	48	1
NMTAP	84	72	3
NMTAP	84	120	3
NMTAP	84	144	2
BRTAP	84	192	0
BRTAP	84	192	5
NMTAP	84	240	6
NMTAP	84	264	4
NMTAP	84	312	4
NMTAP	84	336	5
BRTAP	85	0	2
NMTAP	85	24	3
NMTAP	85	48	1
NMTAP	85	72	3
NMTAP	85	96	2
BRTAP	85	144	5
NMTAP	85	168	4
NMTAP	85	192	6
NMTAP	85	216	4
NMTAP	85	240	5
NMTAP	85	288	3
NMSTR	85	288	6
NMSI_	85	288	6	96	48	2
NMHLD	86	0	1	288
NMTTP	87	0	0	C	0	M1
NMTTP	87	0	0	E	0	M1
NMTTP	87	0	0	D	0	M1
NMTTP	87	0	5	E	0	M1
NMTTP	87	0	5	A	0	M1
NMTTP	87	0	5	D	0	M1
NMTTP	87	0	6	B	0	M1
NMTTP	87	0	6	E	0	M1
NMTTP	87	0	6	A	0	M1
NMTTP	87	0	6	D	0	M1
NMTTP	87	0	7	E	0	M1
NMTTP	87	0	7	A	0	M1
NMTTP	87	0	7	D	0	M1

T_REC_TAP	384
T_REC_BRK	32
T_REC_XTP	9
T_REC_BXX	0
T_REC_HLD	56
T_REC_XHO	0
T_REC_BHO	0
T_REC_BXH	2
T_REC_STR	90
T_REC_BST	1
T_REC_XST	1
T_REC_XBS	0
T_REC_TTP	64
T_REC_THO	3
T_REC_SLD	87
T_REC_BSL	13
T_REC_ALL	742
T_NUM_TAP	548
T_NUM_BRK	48
T_NUM_HLD	59
T_NUM_SLD	87
T_NUM_ALL	742
T_JUDGE_TAP	581
T_JUDGE_HLD	159
T_JUDGE_SLD	100
T_JUDGE_ALL	840
TTM_EACHPAIRS	114
TTM_SCR_TAP	274000
TTM_SCR_BRK	124800
TTM_SCR_HLD	59000
TTM_SCR_SLD	130500
TTM_SCR_ALL	588300
TTM_SCR_S	566000
TTM_SCR_SS	583500
TTM_RAT_ACV	10082

