VERSION	0.00.00	1.05.00
FES_MODE	0
BPM_DEF	180.000	180.000	180.000	180.000
MET_DEF	4	4
RESOLUTION	384
CLK_DEF	384
COMPATIBLE_CODE	MA2

BPM	0	0	180.000
MET	0	0	4	4

NMTAP	1	0	1
NMTAP	1	0	7
NMTAP	1	96	0
NMTAP	1	96	6
EXTAP	1	240	2
EXTAP	1	240	3
EXTAP	1	288	2
EXTAP	1	288	3
EXHLD	2	0	1	240
EXTAP	2	0	4
NMTAP	2	96	3
NMTAP	2	240	3
NMTAP	2	288	3
NMTAP	3	0	2
NMTAP	3	96	2
NMTAP	3	96	4
NMTAP	3	192	5
NMTAP	3	288	3
NMTAP	3	288	5
NMHLD	4	0	6	240
NMTAP	4	96	4
NMTAP	4	240	4
NMTAP	4	288	4
NMTAP	5	0	5
NMTAP	5	96	4
NMTAP	5	96	5
NMTAP	5	192	2
NMTAP	5	288	2
NMTAP	5	288	3
EXHLD	6	0	1	240
EXTAP	6	0	4
NMTAP	6	96	3
NMTAP	6	240	3
NMTAP	6	288	3
NMTAP	7	0	2
NMTAP	7	96	2
NMTAP	7	96	4
NMTAP	7	192	5
NMTAP	7	288	3
NMTAP	7	288	5
NMHLD	8	0	6	240
NMTAP	8	96	4
NMTAP	8	240	4
NMTAP	8	288	4
NMTAP	9	0	6
NMTAP	9	0	7
NMTAP	9	96	0
NMTAP	9	96	7
NMTAP	9	192	0
NMTAP	9	192	1
NMSTR	9	288	2
NMSCL	9	288	2	96	192	5
NMTAP	11	0	6
NMSTR	11	96	6
NMSCL	11	96	6	96	96	3
NMTAP	11	96	7
NMTAP	12	0	0
NMSTR	12	96	1
NMSCR	12	96	1	96	96	4
NMTAP	13	0	6
NMTAP	13	96	4
NMTAP	13	96	6
NMTAP	13	192	1
NMTAP	13	288	1
NMTAP	13	288	3
NMTAP	14	0	5
NMTAP	14	96	4
NMTAP	14	96	5
NMTAP	14	192	2
NMTAP	14	288	2
NMTAP	14	288	3
NMTAP	15	0	4
NMTAP	15	96	4
NMSTR	15	96	5
NMSCR	15	96	5	96	96	0
NMTAP	16	0	3
NMSTR	16	96	2
NMSCL	16	96	2	96	96	7
NMTAP	17	0	6
NMTAP	17	96	4
NMTAP	17	96	5
NMTAP	17	192	2
NMTAP	17	192	3
NMTAP	17	288	1
NMTAP	18	0	0
NMTAP	18	0	7
NMSTR	18	96	0
NMSCR	18	96	0	96	96	3
NMSTR	18	96	7
NMSCL	18	96	7	96	96	4
NMTAP	19	0	3
NMHLD	19	0	4	240
NMTAP	19	240	3
NMTAP	19	288	3
NMHLD	19	336	4	96
NMTAP	20	48	2
NMTAP	20	96	3
NMTAP	20	144	4
EXSTR	20	192	5
NMSV_	20	192	5	96	240	3
NMSXR	20	192	5	96	240	3
NMTAP	21	336	2
NMTAP	22	0	2
NMTAP	22	48	4
NMTAP	22	96	4
NMHLD	22	144	2	96
NMHLD	22	144	4	96
NMTAP	22	288	5
NMTAP	22	336	5
NMTAP	23	0	3
NMTAP	23	144	5
NMTAP	23	192	4
NMHLD	23	240	5	96
NMTAP	23	336	3
NMTAP	24	0	4
NMTAP	24	48	5
NMTAP	24	96	3
NMTAP	24	144	2
NMTAP	24	240	0
NMTAP	24	288	0
NMTAP	24	336	3
NMHLD	25	0	3	480
NMTAP	25	240	1
NMSTR	25	288	1
NMSV_	25	288	1	96	96	4
EXTAP	26	192	1
EXTAP	26	192	6
EXTAP	26	288	0
EXTAP	26	288	7
BRSTR	27	0	0
NMSI_	27	0	0	96	48	3
BRSTR	27	0	1
NMSI_	27	0	1	96	48	4
NMSTR	27	192	6
NMSI_	27	192	6	96	48	3
NMSTR	27	192	7
NMSI_	27	192	7	96	48	4
NMTAP	28	0	0
NMTAP	28	0	1
NMTAP	28	96	2
NMTAP	28	96	3
NMTAP	28	144	2
NMTAP	28	144	3
NMTAP	28	240	5
NMHLD	28	288	5	96
NMSTR	29	0	7
NMSI_	29	0	7	96	48	3
NMSTR	29	192	6
NMSI_	29	192	6	96	48	3
NMTAP	30	0	2
NMTAP	30	96	0
NMTAP	30	96	1
NMTAP	30	144	0
NMTAP	30	144	1
NMTAP	30	240	2
NMTAP	30	240	3
NMTAP	30	288	2
NMTAP	30	288	3
NMHLD	31	0	4	96
NMSTR	31	96	5
NMSCL	31	96	5	96	96	2
NMHLD	32	0	6	96
NMSTR	32	96	7
NMSCL	32	96	7	96	96	4
NMTAP	33	0	6
NMTAP	33	96	3
NMTAP	33	96	4
NMTAP	33	192	2
NMTAP	33	192	3
NMTAP	33	288	1
NMTAP	34	0	0
NMTAP	34	96	6
NMTAP	34	96	7
NMTAP	34	144	6
NMTAP	34	144	7
NMTAP	34	240	0
NMTAP	34	240	5
NMTAP	34	288	0
NMTAP	34	288	5
NMSTR	35	0	6
NMSI_	35	0	6	96	48	3
NMSTR	35	0	7
NMSI_	35	0	7	96	48	4
NMSTR	35	192	0
NMSI_	35	192	0	96	48	3
NMSTR	35	192	1
NMSI_	35	192	1	96	48	4
NMTAP	36	0	6
NMTAP	36	0	7
NMTAP	36	96	4
NMTAP	36	96	5
NMTAP	36	144	4
NMTAP	36	144	5
NMTAP	36	240	2
NMHLD	36	288	2	96
NMSTR	37	0	0
NMSI_	37	0	0	96	48	4
NMSTR	37	192	1
NMSI_	37	192	1	96	48	4
NMTAP	38	0	5
NMTAP	38	96	6
NMTAP	38	96	7
NMTAP	38	144	6
NMTAP	38	144	7
NMTAP	38	240	0
NMTAP	38	240	5
NMTAP	38	288	0
NMTAP	38	288	5
NMTAP	39	0	2
NMSTR	39	0	3
NMSUL	39	0	3	96	96	7
NMSUR	39	0	3	96	96	7
BRTAP	39	288	1
BRTAP	39	288	5
BRTAP	39	336	1
BRHLD	39	336	5	336
NMTTP	40	144	2	A	0	M1
NMTTP	40	192	3	D	0	M1
NMTTP	40	240	3	A	0	M1
NMTTP	40	288	4	D	0	M1
NMTAP	41	0	4
NMTAP	41	0	5
NMTAP	41	96	4
NMTAP	41	96	5
NMTAP	41	192	6
NMTAP	41	240	6
NMTAP	41	288	6
NMTAP	41	288	7
NMTAP	42	0	1
NMTAP	42	48	1
NMTAP	42	96	0
NMTAP	42	96	1
NMTAP	42	192	2
NMTAP	42	192	3
NMTAP	42	288	1
NMTAP	42	288	4
NMTAP	43	0	2
NMTAP	43	0	3
NMTAP	43	96	2
NMTAP	43	96	3
NMTAP	43	192	1
NMTAP	43	240	1
NMTAP	43	288	0
NMTAP	43	288	1
NMTAP	44	0	6
NMTAP	44	48	6
NMTAP	44	96	6
NMTAP	44	96	7
NMTAP	44	192	4
NMTAP	44	192	5
NMTAP	44	288	3
NMTAP	44	288	6
NMTAP	45	0	4
NMHLD	45	0	5	96
NMTAP	45	96	7
NMTAP	45	192	0
NMTAP	45	288	1
NMTAP	45	288	7
NMTAP	46	0	0
NMSTR	46	0	1
NMSUR	46	0	1	96	192	3
NMHLD	47	0	2	96
NMTAP	47	0	3
NMTAP	47	96	0
NMTAP	47	192	0
NMTAP	47	192	7
NMTAP	47	288	1
NMTAP	47	288	6
NMTHO	48	0	0	384	C	0	M1
NMTTP	49	0	4	E	0	M1
NMTTP	49	0	4	D	0	M1
NMTAP	50	0	6
NMSTR	50	96	6
NMSCL	50	96	6	96	96	3
NMTAP	50	96	7
NMTAP	51	0	0
NMSTR	51	96	1
NMSI_	51	96	1	96	96	4
NMHLD	52	0	3	48
NMHLD	52	0	5	72
NMHLD	52	192	2	72
NMHLD	52	192	3	48
NMTAP	53	0	0
NMTAP	53	0	1
EXHLD	53	96	2	12
EXHLD	53	144	4	12
EXHLD	53	192	3	12
EXHLD	53	240	5	12
BXTAP	53	288	3
BXTAP	53	288	5
NMHLD	54	0	6	96
NMTAP	54	96	7
NMHLD	54	144	7	96
NMTAP	54	240	5
NMTAP	54	288	5
NMTAP	55	0	6
NMTAP	55	0	7
NMTTP	55	96	7	E	0	M1
NMTTP	55	192	5	B	0	M1
NMTTP	55	288	4	E	0	M1
NMHLD	56	0	1	96
NMTAP	56	96	0
NMHLD	56	144	0	96
NMTAP	56	240	2
NMTAP	56	288	2
NMTAP	57	0	0
NMTAP	57	0	1
NMTTP	57	96	1	E	0	M1
NMTTP	57	192	2	B	0	M1
NMTTP	57	288	4	E	0	M1
NMHLD	58	0	5	96
NMTAP	58	96	4
NMHLD	58	144	4	96
NMTAP	58	240	6
NMTAP	58	288	6
NMTAP	59	0	4
NMTAP	59	0	5
NMTTP	59	96	5	E	0	M1
NMTTP	59	192	6	B	0	M1
NMTTP	59	288	0	E	0	M1
NMHLD	60	0	2	96
NMTAP	60	96	3
NMHLD	60	144	3	96
NMTAP	60	240	1
NMTAP	60	288	1
NMTTP	61	0	2	D	0	M1
NMTTP	61	0	4	E	0	M1
NMTTP	61	96	0	C	0	M1
NMTTP	61	96	1	A	0	M1
NMTTP	61	192	0	A	0	M1
NMTTP	61	192	0	D	0	M1
NMSTR	62	0	0
NMSCR	62	0	0	96	96	1
NMHLD	62	0	5	864
CNSI_	62	192	1	0	96	4
EXSTR	63	0	4
NMSCR	63	0	4	96	96	6
CNSI_	63	192	6	0	96	1
EXHLD	64	0	1	96
NMTAP	64	192	1
NMTAP	64	192	5
BRTAP	64	288	0
BRTAP	64	288	4
NMTAP	65	0	1
NMTAP	65	0	5
BRSTR	65	96	0
NMSUR	65	96	0	96	96	4
BRSTR	65	96	4
NMSUR	65	96	4	96	96	0
NMHLD	66	0	6	96
NMSTR	66	96	5
NMSUR	66	96	5	96	96	1
NMHLD	67	0	4	96
NMSTR	67	96	5
NMSUL	67	96	5	96	96	1
NMTAP	68	0	6
NMTAP	68	96	6
NMTAP	68	96	7
NMTAP	68	192	4
NMTAP	68	192	5
NMTAP	68	288	2
NMTAP	68	288	3
NMTAP	69	0	0
NMTAP	69	0	1
NMTAP	69	96	1
NMTAP	69	96	3
NMTAP	69	144	1
NMTAP	69	144	3
NMTAP	69	240	4
NMTAP	69	240	6
NMTAP	69	288	4
NMTAP	69	288	6
NMSTR	70	0	4
NMSI_	70	0	4	96	48	7
NMSTR	70	0	5
NMSI_	70	0	5	96	48	0
NMSTR	70	192	2
NMSI_	70	192	2	96	48	7
NMSTR	70	192	3
NMSI_	70	192	3	96	48	0
NMTAP	71	0	4
NMTAP	71	0	5
NMTAP	71	96	2
NMTAP	71	96	3
NMTAP	71	144	2
NMTAP	71	144	3
NMTAP	71	240	1
NMHLD	71	288	1	96
NMSTR	72	0	3
NMSI_	72	0	3	96	48	7
NMSTR	72	192	2
NMSI_	72	192	2	96	48	7
NMTAP	73	0	6
NMTAP	73	96	4
NMTAP	73	96	5
NMTAP	73	144	4
NMTAP	73	144	5
NMTAP	73	240	3
NMTAP	73	240	6
NMTAP	73	288	3
NMTAP	73	288	6
NMSTR	74	0	1
NMSI_	74	0	1	96	96	6
NMSTR	74	0	7
NMSI_	74	0	7	96	96	4
NMTAP	74	288	4
NMTAP	74	288	7
NMSTR	75	0	0
NMSI_	75	0	0	96	96	3
NMSTR	75	0	4
NMSI_	75	0	4	96	96	7
NMSTR	75	288	7
NMSCL	75	288	7	96	96	3
NMSCR	75	288	7	96	96	3
NMTAP	76	192	2
NMTAP	76	192	4
NMTAP	76	288	0
NMTAP	76	288	6
NMTAP	76	336	0
NMTAP	76	336	6
NMTTP	77	96	1	E	0	M1
NMTTP	77	96	6	E	0	M1
NMTTP	77	192	3	E	0	M1
NMTTP	77	192	3	A	0	M1
NMTTP	77	192	4	E	0	M1
NMTTP	77	288	1	A	0	M1
NMTTP	77	288	2	D	0	M1
NMTTP	77	288	5	A	0	M1
NMTTP	77	288	5	D	0	M1
EXTAP	78	0	3
NMTAP	78	96	5
NMTAP	78	144	5
NMTAP	78	192	4
NMTAP	78	288	6
NMTAP	78	336	6
NMTAP	79	0	7
NMTAP	79	96	1
NMTAP	79	144	1
NMTAP	79	192	0
NMTAP	79	240	0
NMTAP	79	288	2
NMTAP	80	0	2
NMTAP	80	0	3
NMTAP	80	96	1
NMTAP	80	144	1
NMTAP	80	192	0
NMTAP	80	288	6
NMTAP	80	336	6
NMTAP	81	0	7
NMTAP	81	96	5
NMTAP	81	144	5
NMTAP	81	192	4
NMTAP	81	240	4
NMSTR	81	288	6
NMSI_	81	288	6	96	48	2
EXTAP	82	0	2
NMTAP	82	96	1
NMTAP	82	144	1
NMTAP	82	192	0
NMTAP	82	288	6
NMTAP	82	336	6
NMTAP	83	0	7
NMTAP	83	48	7
NMTAP	83	96	5
NMTAP	83	144	5
NMTAP	83	192	4
NMTAP	83	240	4
NMTAP	83	288	4
NMTAP	83	288	5
NMSTR	84	0	6
NMSI_	84	0	6	96	48	2
NMSTR	84	0	7
NMSI_	84	0	7	96	48	3
NMSTR	84	192	0
NMSI_	84	192	0	96	48	4
NMSTR	84	192	1
NMSI_	84	192	1	96	48	5
NMTAP	85	0	6
NMTAP	85	0	7
NMTAP	85	96	4
NMTAP	85	96	5
NMSTR	85	192	2
BRSI_	85	192	2	96	48	6
NMSTR	85	192	3
BRSI_	85	192	3	96	48	7
BRTAP	87	0	1
BRTAP	87	0	5

T_REC_TAP	290
T_REC_BRK	7
T_REC_XTP	12
T_REC_BXX	2
T_REC_HLD	30
T_REC_XHO	7
T_REC_BHO	1
T_REC_BXH	0
T_REC_STR	45
T_REC_BST	4
T_REC_XST	2
T_REC_XBS	0
T_REC_TTP	30
T_REC_THO	1
T_REC_SLD	52
T_REC_BSL	2
T_REC_ALL	485
T_NUM_TAP	379
T_NUM_BRK	16
T_NUM_HLD	38
T_NUM_SLD	52
T_NUM_ALL	485
T_JUDGE_TAP	392
T_JUDGE_HLD	122
T_JUDGE_SLD	54
T_JUDGE_ALL	568
TTM_EACHPAIRS	118
TTM_SCR_TAP	189500
TTM_SCR_BRK	41600
TTM_SCR_HLD	38000
TTM_SCR_SLD	78000
TTM_SCR_ALL	347100
TTM_SCR_S	335150
TTM_SCR_SS	345500
TTM_RAT_ACV	10046

