VERSION	0.00.00	1.05.00
FES_MODE	0
BPM_DEF	137.500	137.500	137.500	137.500
MET_DEF	4	4
RESOLUTION	384
CLK_DEF	384
COMPATIBLE_CODE	MA2

BPM	0	0	137.500
MET	0	0	4	4

BXTAP	3	0	0
BXTAP	3	0	7
NMTAP	3	96	2
NMTAP	3	96	6
NMTAP	3	144	5
EXTAP	3	160	4
EXTAP	3	176	5
EXTAP	3	192	3
NMTAP	3	240	2
NMTAP	3	288	1
NMHLD	3	336	0	96
NMTAP	4	48	3
EXTAP	4	64	1
EXTAP	4	80	3
EXTAP	4	96	2
NMTAP	4	144	4
NMTAP	4	192	5
NMTAP	4	240	4
NMTAP	4	240	6
NMTAP	4	288	4
NMTAP	4	288	6
NMTAP	4	336	3
NMTAP	4	336	5
NMTAP	5	0	2
NMTAP	5	0	6
NMTAP	5	96	1
NMTAP	5	96	5
NMTAP	5	144	2
EXTAP	5	160	3
EXTAP	5	176	2
EXTAP	5	192	4
NMTAP	5	240	5
NMTAP	5	288	6
NMHLD	5	336	7	96
NMTAP	6	48	4
EXTAP	6	64	6
EXTAP	6	80	4
EXTAP	6	96	5
NMTAP	6	144	3
NMTAP	6	192	2
NMTAP	6	240	1
NMTAP	6	240	3
NMTAP	6	288	1
NMTAP	6	288	3
NMTAP	6	336	4
BRTAP	7	0	2
BRTAP	7	0	5
NMTAP	7	96	6
NMTAP	7	144	6
NMTAP	7	168	4
NMTAP	7	192	5
NMSTR	7	240	5
NMSCR	7	240	5	96	48	7
NMTAP	7	336	3
NMTAP	8	0	3
NMTAP	8	96	2
NMTAP	8	144	2
NMTAP	8	168	3
NMTAP	8	192	1
NMTAP	8	240	0
NMTAP	8	288	7
NMTAP	8	336	6
NMSTR	9	0	5
NMSI_	9	0	5	96	48	3
NMSTR	9	96	2
NMSI_	9	96	2	96	48	0
NMTAP	9	144	2
NMTAP	9	192	6
NMHLD	9	240	6	96
NMHLD	9	336	4	96
NMHLD	10	48	3	96
NMHLD	10	144	1	96
NMTAP	10	240	0
NMTAP	10	288	0
NMTAP	11	0	2
NMTAP	11	0	3
NMTAP	11	96	1
NMTAP	11	144	1
NMTAP	11	168	3
NMTAP	11	192	2
NMTAP	11	240	2
NMTAP	11	288	4
NMSTR	11	336	6
NMSCL	11	336	6	96	48	3
NMTAP	12	48	0
NMSTR	12	144	1
NMSI_	12	144	1	96	48	4
NMTAP	12	240	5
NMTAP	12	288	6
NMSTR	12	336	7
NMSCL	12	336	7	96	48	4
NMTAP	13	48	4
NMTAP	13	96	3
NMSTR	13	144	3
NMSI_	13	144	3	96	48	7
NMTAP	13	240	4
NMSTR	13	288	4
NMSCL	13	288	4	96	144	6
NMSTR	14	288	0
NMSI_	14	288	0	96	48	3
NMTAP	14	336	7
NMSTR	15	0	0
NMSI_	15	0	0	96	48	4
NMSTR	15	96	0
NMSCR	15	96	0	96	48	3
NMSTR	15	192	0
NMSCL	15	192	0	96	48	5
NMTAP	15	288	0
NMTAP	16	0	4
NMTAP	16	48	3
NMTAP	16	96	2
NMHLD	16	144	1	96
NMTAP	16	240	3
NMSTR	16	288	4
NMSI_	16	288	4	96	48	7
NMTAP	16	336	3
NMSTR	17	0	4
NMSI_	17	0	4	96	48	0
NMSTR	17	96	4
NMSCR	17	96	4	96	48	7
NMSTR	17	192	4
NMSCL	17	192	4	96	48	1
NMTAP	17	288	4
NMTAP	18	0	7
NMTAP	18	48	6
NMTAP	18	96	5
NMHLD	18	144	4	96
NMTAP	18	240	7
NMTAP	18	288	0
NMTAP	18	336	1
NMTAP	18	336	5
NMSTR	19	0	1
NMSV_	19	0	1	96	72	2
NMSTR	19	0	5
NMSV_	19	0	5	96	72	6
EXTAP	19	240	3
EXTAP	19	240	7
NMTAP	19	336	2
NMHLD	20	0	2	72
NMHLD	20	72	0	72
NMTAP	20	144	7
NMTAP	20	240	6
NMSTR	20	288	6
NMSCL	20	288	6	96	96	2
NMTAP	20	336	2
NMTAP	21	0	1
NMTAP	21	72	7
NMTAP	21	144	0
NMTAP	21	192	0
NMTAP	21	288	6
NMHLD	21	336	6	96
NMTAP	22	48	4
NMTAP	22	96	3
NMTAP	22	96	5
NMTAP	22	144	2
NMTAP	22	144	4
NMTAP	22	192	2
NMTAP	22	216	3
NMTAP	22	240	2
NMTAP	22	264	3
NMTAP	22	288	2
NMTAP	22	312	3
NMTAP	22	336	2
NMTAP	22	360	3
BRSTR	23	0	1
NMSI_	23	0	1	96	96	4
NMTAP	23	96	4
NMTAP	23	192	5
NMTAP	23	288	5
NMSTR	24	0	4
NMSUL	24	0	4	96	96	7
NMTAP	24	0	5
NMTAP	24	96	5
NMTAP	24	192	5
NMTAP	24	288	5
NMTAP	25	0	5
NMSTR	25	0	7
NMSI_	25	0	7	96	96	3
NMTAP	25	96	5
NMTAP	25	192	5
NMTAP	25	288	5
NMSTR	26	0	4
NMSCL	26	0	4	96	48	3
NMTAP	26	0	5
NMTAP	26	96	5
CNSI_	26	144	3	0	48	0
NMTAP	26	192	5
NMTAP	26	288	0
NMTAP	26	288	4
NMTAP	27	0	0
NMSTR	27	0	4
NMSI_	27	0	4	96	96	7
NMTAP	27	96	1
NMTAP	27	192	1
NMTAP	27	288	1
EXTAP	27	288	7
NMSTR	28	0	0
NMSUL	28	0	0	96	96	3
NMTAP	28	0	1
NMTAP	28	96	1
NMTAP	28	192	1
NMTAP	28	288	1
EXTAP	28	288	3
NMTAP	29	0	1
NMSTR	29	0	4
NMSSL	29	0	4	96	144	0
NMTAP	29	96	1
NMTAP	29	192	1
NMTAP	29	288	1
NMSTR	30	0	0
NMSSL	30	0	0	96	144	4
NMTAP	30	0	1
NMTAP	30	96	1
NMTAP	30	192	1
NMHLD	30	288	0	96
NMSTR	31	0	5
NMSI_	31	0	5	96	48	0
NMTAP	31	48	5
NMSTR	31	96	2
NMSI_	31	96	2	96	48	7
NMTAP	31	144	2
NMTAP	31	192	4
NMTAP	31	240	4
NMTAP	31	288	3
NMTAP	31	336	3
NMTAP	32	0	2
NMTAP	32	24	4
NMTAP	32	48	2
NMTAP	32	72	4
NMTAP	32	96	2
NMTAP	32	144	5
NMTAP	32	168	3
NMTAP	32	192	5
NMTAP	32	240	4
NMTAP	32	240	6
NMSTR	32	288	4
NMSCL	32	288	4	96	192	7
NMTAP	32	288	6
BXTAP	33	0	7
BXTAP	33	48	6
BXTAP	33	96	5
BXTAP	33	144	4
BXTAP	33	192	3
BXTAP	33	240	2
BXTAP	33	288	1
BXTAP	33	336	0
NMTAP	34	48	7
NMTAP	34	96	7
NMTAP	34	144	3
NMTAP	34	192	2
NMTAP	34	192	4
NMTAP	34	240	1
NMSTR	34	288	0
NMSI_	34	288	0	96	96	5
NMTAP	35	0	3
EXTAP	35	96	4
CNSI_	35	96	5	0	48	7
EXTAP	35	144	4
CNSI_	35	144	7	0	96	2
NMTAP	35	240	7
NMSTR	35	288	7
NMSI_	35	288	7	96	96	2
NMTAP	36	0	4
CNSI_	36	96	2	0	48	0
EXTAP	36	96	3
CNSI_	36	144	0	0	96	5
EXTAP	36	144	3
NMTAP	36	240	1
NMTAP	36	288	0
NMSTR	36	336	0
NMSCR	36	336	0	96	96	4
BRTAP	37	48	4
BRTAP	37	96	6
BRSTR	37	144	0
NMSCL	37	144	0	96	96	4
NMTAP	37	240	4
NMTAP	37	288	2
NMSTR	37	336	0
NMSCR	37	336	0	96	96	4
BRTAP	38	48	4
BRTAP	38	96	6
BRSTR	38	144	0
NMSCL	38	144	0	96	96	4
NMTAP	38	240	4
NMTAP	38	288	2
NMTAP	38	336	0
NMTAP	39	0	0
NMTAP	39	72	1
NMTAP	39	72	3
NMTAP	39	144	4
NMTAP	39	144	5
NMSTR	39	192	4
NMSXR	39	192	4	96	192	0
NMTAP	39	192	5
BRTAP	39	240	6
BRTAP	39	288	7
BRTAP	39	336	0
NMTAP	40	48	7
NMTAP	40	96	6
NMTAP	40	144	5
NMTAP	40	192	4
BXTAP	40	240	1
BXTAP	40	240	3
NMTAP	40	288	1
NMSTR	40	288	3
NMSCR	40	288	3	96	192	0
EXTAP	41	0	0
EXTAP	41	48	1
EXTAP	41	96	2
EXTAP	41	144	3
EXTAP	41	192	4
EXTAP	41	240	5
EXTAP	41	288	6
EXTAP	41	336	7
NMTAP	42	48	0
NMTAP	42	96	0
NMTAP	42	144	4
NMTAP	42	192	3
NMTAP	42	192	5
NMTAP	42	240	6
NMSTR	42	288	7
NMSI_	42	288	7	96	96	3
NMTAP	43	0	4
EXTAP	43	96	2
CNSI_	43	96	3	0	48	0
CNSI_	43	144	0	0	96	5
EXTAP	43	144	2
NMTAP	43	240	0
NMSTR	43	288	0
NMSI_	43	288	0	96	96	4
NMTAP	44	0	3
CNSI_	44	96	4	0	48	7
EXTAP	44	96	5
EXTAP	44	144	5
CNSI_	44	144	7	0	96	2
NMTAP	44	240	6
NMTAP	44	288	7
NMSTR	44	336	7
NMSLL	44	336	7	96	96	3
EXTAP	45	48	3
EXTAP	45	96	1
BXSTR	45	144	7
NMSLR	45	144	7	96	96	3
NMTAP	45	240	3
NMTAP	45	288	5
NMSTR	45	336	7
NMSLL	45	336	7	96	96	3
EXTAP	46	48	3
EXTAP	46	96	1
BXSTR	46	144	7
NMSLR	46	144	7	96	96	3
NMTAP	46	240	3
NMTAP	46	288	5
NMTAP	46	336	7
NMHLD	47	0	7	96
NMTAP	47	96	4
NMTAP	47	144	3
NMSTR	47	240	0
NMSUR	47	240	0	96	144	7
NMSTR	47	240	1
NMSCR	47	240	1	96	144	7
NMTAP	47	288	0
NMTAP	47	288	1
NMTAP	48	240	5
NMTAP	48	288	4
NMSTR	48	336	3
NMSCL	48	336	3	96	96	7
EXTAP	49	48	7
EXTAP	49	96	5
BXSTR	49	144	3
NMSCR	49	144	3	96	96	7
NMTAP	49	240	7
NMTAP	49	288	1
NMSTR	49	336	3
NMSCL	49	336	3	96	96	7
EXTAP	50	48	7
EXTAP	50	96	5
BXSTR	50	144	3
NMSCR	50	144	3	96	96	7
NMTAP	50	240	7
NMTAP	50	288	1
NMTAP	50	336	2
EXHLD	51	0	2	288
BRSTR	51	288	3
NMSCL	51	288	3	96	192	5
NMTTP	52	0	0	B	0	M1
NMTTP	52	0	1	B	0	M1
NMTTP	52	0	1	E	1	M1
CNSCR	52	192	5	0	192	3
EXTAP	53	96	1
EXTAP	53	96	7
NMTAP	53	192	4
NMTAP	53	240	5
EXTAP	53	288	6
EXTAP	53	288	7
NMTAP	54	0	3
EXTAP	54	96	0
EXTAP	54	96	1
NMTAP	54	192	2
NMTAP	54	192	3
EXTAP	54	288	4
EXTAP	54	336	5
NMSTR	55	0	4
NMSI_	55	0	4	96	48	0
NMTAP	55	0	6
NMSTR	55	96	5
NMSI_	55	96	5	96	48	1
NMSTR	55	192	3
NMSI_	55	192	3	96	48	0
NMTAP	55	288	4
BRTAP	56	0	5
EXTAP	56	96	0
EXTAP	56	96	6
NMTAP	56	192	3
NMTAP	56	240	2
EXTAP	56	288	0
EXTAP	56	288	1
NMTAP	57	0	4
EXTAP	57	96	6
EXTAP	57	96	7
NMTAP	57	192	4
NMTAP	57	240	3
EXTAP	57	288	0
EXTAP	57	288	2
NMTAP	58	0	4
EXTAP	58	96	6
EXTAP	58	96	7
NMTAP	58	192	3
NMTAP	58	240	2
NMSTR	58	288	1
BRSCL	58	288	1	96	192	4
NMSTR	58	288	3
BRSUR	58	288	3	96	192	4
BXTAP	59	0	1
BXTAP	59	0	3
EXTAP	59	288	3
EXTAP	59	288	5
EXTAP	60	0	2
EXTAP	60	0	3
BRSTR	60	96	0
NMSI_	60	96	0	96	48	5
BRSTR	60	96	1
NMSI_	60	96	1	96	48	4
BRTAP	60	192	0
BRTAP	60	192	1
NMSTR	60	288	6
NMSCL	60	288	6	96	96	2
NMSTR	61	0	2
NMSCL	61	0	2	96	96	6
NMTAP	61	96	6
NMTAP	61	192	2
NMTAP	61	288	0
NMTAP	61	288	4
NMTAP	61	336	2
NMTAP	62	0	4
NMTAP	62	0	6
BRSTR	62	96	6
NMSI_	62	96	6	96	48	3
BRSTR	62	96	7
NMSI_	62	96	7	96	48	2
BRTAP	62	192	6
BRTAP	62	192	7
NMSTR	62	288	5
NMSCR	62	288	5	96	96	1
NMSTR	63	0	1
NMSCL	63	0	1	96	96	5
NMTAP	63	96	3
NMTAP	63	192	3
NMTAP	63	288	2
NMTAP	63	288	4
NMTAP	64	0	3
NMTAP	64	0	5
BRSTR	64	96	4
NMSI_	64	96	4	96	48	1
BRSTR	64	96	5
NMSI_	64	96	5	96	48	0
BRTAP	64	192	4
BRTAP	64	192	5
NMSTR	64	288	2
NMSCR	64	288	2	96	96	6
NMSTR	65	0	6
NMSCR	65	0	6	96	96	2
NMTAP	65	96	2
NMTAP	65	192	6
NMTAP	65	288	0
NMTAP	65	288	4
NMTAP	65	336	1
BRSTR	66	0	2
NMSI_	66	0	2	96	48	7
BRSTR	66	0	3
NMSI_	66	0	3	96	48	7
BRTAP	66	96	2
BRTAP	66	96	3
BRSTR	66	192	4
NMSI_	66	192	4	96	48	0
BRSTR	66	192	5
NMSI_	66	192	5	96	48	0
BRTAP	66	288	4
BRTAP	66	288	5
NMSTR	67	0	7
NMSI_	67	0	7	96	48	3
NMSTR	67	96	7
NMSI_	67	96	7	96	48	1
NMSTR	67	192	7
NMSCL	67	192	7	96	96	3
BRTAP	67	288	7
NMTAP	68	0	2
NMTAP	68	72	2
NMTAP	68	96	3
NMHLD	68	144	1	96
NMTAP	68	240	3
NMTAP	68	288	4
NMTAP	69	0	5
NMTAP	69	72	5
NMTAP	69	96	4
NMHLD	69	144	6	96
NMTAP	69	240	4
NMTAP	69	288	3
NMTAP	70	0	2
NMTAP	70	0	4
NMTAP	70	72	2
NMTAP	70	96	4
NMTAP	70	120	3
NMTAP	70	144	2
NMTAP	70	168	1
NMTAP	70	192	0
NMTAP	70	216	7
NMTAP	70	240	6
NMTAP	70	264	5
NMTAP	70	288	4
NMTAP	70	312	3
NMTAP	70	336	2
NMTAP	70	360	1
NMTAP	71	0	0
NMTAP	71	72	2
NMTAP	71	96	3
NMHLD	71	144	1	96
NMTAP	71	240	3
NMSTR	71	288	4
NMSI_	71	288	4	96	144	2
NMTAP	71	336	4
BXHLD	72	0	2	1248
CNSCL	72	144	2	0	912	5
CNSI_	74	288	5	0	96	3

T_REC_TAP	262
T_REC_BRK	21
T_REC_XTP	62
T_REC_BXX	14
T_REC_HLD	16
T_REC_XHO	1
T_REC_BHO	0
T_REC_BXH	1
T_REC_STR	58
T_REC_BST	14
T_REC_XST	0
T_REC_XBS	4
T_REC_TTP	3
T_REC_THO	0
T_REC_SLD	74
T_REC_BSL	2
T_REC_ALL	532
T_NUM_TAP	385
T_NUM_BRK	56
T_NUM_HLD	17
T_NUM_SLD	74
T_NUM_ALL	532
T_JUDGE_TAP	438
T_JUDGE_HLD	64
T_JUDGE_SLD	76
T_JUDGE_ALL	578
TTM_EACHPAIRS	67
TTM_SCR_TAP	192500
TTM_SCR_BRK	145600
TTM_SCR_HLD	17000
TTM_SCR_SLD	111000
TTM_SCR_ALL	466100
TTM_SCR_S	446700
TTM_SCR_SS	460500
TTM_RAT_ACV	10121

