VERSION	0.00.00	1.05.00
FES_MODE	0
BPM_DEF	137.500	137.500	137.500	137.500
MET_DEF	4	4
RESOLUTION	384
CLK_DEF	384
COMPATIBLE_CODE	MA2

BPM	0	0	137.500
MET	0	0	4	4

EXTAP	3	0	3
EXTAP	3	0	4
NMTAP	3	96	2
NMTAP	3	96	3
NMTAP	3	192	1
NMTAP	3	240	1
NMTAP	3	288	0
NMHLD	4	0	6	96
NMTAP	4	96	7
NMTAP	4	192	4
NMTAP	4	192	5
NMTAP	4	288	3
NMTAP	4	288	6
NMTAP	5	0	3
NMTAP	5	0	4
NMTAP	5	96	4
NMTAP	5	96	5
NMTAP	5	192	6
NMTAP	5	240	6
NMTAP	5	288	7
NMHLD	6	0	1	96
NMTAP	6	96	0
BXTAP	6	192	2
BXTAP	6	192	6
NMHLD	7	0	5	240
NMTAP	7	96	3
NMTAP	7	192	4
NMTAP	7	240	4
NMTAP	7	336	4
NMTAP	7	336	6
NMTAP	8	0	4
NMTAP	8	0	6
NMTAP	8	96	5
EXTAP	8	192	4
EXSTR	8	192	6
NMSCR	8	192	6	96	96	1
NMTAP	9	96	2
NMTAP	9	192	1
NMTAP	9	192	3
NMTAP	9	240	1
NMTAP	9	240	3
NMHLD	9	336	2	96
NMHLD	10	48	3	96
NMHLD	10	144	1	96
NMTAP	10	240	0
NMTAP	10	288	0
NMTAP	11	0	1
NMTAP	11	0	3
NMTAP	11	96	2
NMTAP	11	144	3
NMTAP	11	192	4
NMTAP	11	288	6
NMHLD	11	336	6	96
NMHLD	12	48	4	96
NMHLD	12	144	5	96
NMTAP	12	240	7
NMTAP	12	336	0
NMTAP	12	336	6
NMTAP	13	48	1
NMTAP	13	48	5
NMTAP	13	144	6
NMTAP	13	240	0
NMTAP	13	240	5
NMTAP	13	288	0
NMSTR	13	288	5
NMSXR	13	288	5	96	192	2
NMTAP	14	288	0
NMTAP	14	288	7
NMTAP	15	0	1
NMTAP	15	48	1
NMTAP	15	96	0
NMTAP	15	192	6
NMTAP	15	240	6
NMTAP	15	288	7
NMTAP	16	0	0
NMTAP	16	0	5
NMTAP	16	96	2
NMTAP	16	96	7
NMTAP	16	144	2
NMTAP	16	144	7
NMTAP	16	240	3
NMTAP	16	240	5
NMTAP	16	288	3
NMTAP	16	288	5
NMTAP	17	0	6
NMTAP	17	48	6
NMTAP	17	96	4
NMTAP	17	192	1
NMTAP	17	240	1
NMTAP	17	288	3
NMTAP	18	0	2
NMTAP	18	0	3
NMTAP	18	96	4
NMTAP	18	96	5
NMSTR	18	144	4
NMSI_	18	144	4	96	96	0
NMTAP	18	144	5
NMTAP	19	0	7
NMTAP	19	96	0
NMTAP	19	96	6
NMTAP	19	144	0
NMTAP	19	144	6
NMTAP	19	240	4
NMTAP	19	240	5
EXTAP	19	336	6
NMHLD	20	0	6	72
NMHLD	20	72	7	72
NMTAP	20	144	0
NMTAP	20	240	1
NMTAP	20	240	7
NMTAP	20	288	1
NMTAP	20	288	7
NMHLD	21	0	1	72
NMHLD	21	72	3	72
NMTAP	21	144	2
NMTAP	21	192	2
NMTAP	21	288	4
NMTAP	21	288	5
NMTAP	21	336	4
NMTAP	21	336	5
NMTAP	22	48	1
NMTAP	22	48	3
NMTAP	22	96	1
NMTAP	22	96	3
NMTAP	22	192	4
NMTAP	22	192	6
NMTAP	22	288	3
NMTAP	22	288	7
NMSTR	23	0	0
NMSCR	23	0	0	96	192	4
NMHLD	23	0	2	480
NMTAP	24	0	4
NMTAP	24	96	4
NMTAP	24	192	3
NMTAP	24	192	5
NMTAP	24	288	3
NMTAP	24	288	5
NMSTR	25	0	4
NMSCR	25	0	4	96	192	0
NMHLD	25	0	6	480
NMTAP	26	0	0
NMTAP	26	96	0
NMTAP	26	192	1
NMTAP	26	192	7
NMTAP	26	288	1
NMTAP	26	288	7
NMSTR	27	0	0
NMSCR	27	0	0	96	192	3
NMTAP	27	0	6
NMSTR	28	0	7
NMSCL	28	0	7	96	192	4
NMSTR	29	0	0
NMSSL	29	0	0	96	192	4
NMSTR	30	0	7
NMSLR	30	0	7	96	216	5
CNSI_	30	312	5	0	72	3
NMHLD	31	0	2	96
NMTAP	31	96	4
NMHLD	31	192	5	96
NMTAP	31	288	3
NMTAP	32	0	4
NMTAP	32	48	4
NMSTR	32	96	3
NMSI_	32	96	3	96	96	0
NMSI_	32	96	3	96	96	6
BXTAP	33	0	1
NMTAP	33	48	2
NMTAP	33	96	3
NMTAP	33	144	4
NMTAP	33	192	5
NMTAP	33	240	6
NMTAP	33	288	7
BRTAP	33	336	0
NMTAP	34	48	2
NMHLD	34	96	2	96
NMHLD	34	192	0	96
NMHLD	34	288	7	96
NMHLD	35	0	5	96
NMTAP	35	96	4
NMTAP	35	144	4
NMSTR	35	240	6
NMSUR	35	240	6	96	96	3
NMSTR	35	240	7
NMSCR	35	240	7	96	96	2
EXTAP	36	144	4
EXTAP	36	144	5
EXTAP	36	240	4
EXSTR	36	240	5
NMSCR	36	240	5	96	96	0
BXSTR	37	48	1
BRSCR	37	48	1	96	96	4
NMSTR	37	240	6
NMSI_	37	240	6	96	96	3
BRSTR	38	48	2
BRSI_	38	48	2	96	96	7
NMTAP	38	240	5
NMTAP	38	288	5
BXTAP	39	0	4
BXTAP	39	0	6
BXTAP	39	72	0
BXTAP	39	72	7
BXTAP	39	144	1
BXTAP	39	144	3
NMTAP	39	240	2
NMSTR	39	288	2
NMSCL	39	288	2	96	192	5
BRTAP	40	288	0
BRTAP	40	288	7
BXTAP	41	0	6
NMTAP	41	48	5
NMTAP	41	96	4
NMTAP	41	144	3
NMTAP	41	192	2
NMTAP	41	240	1
NMTAP	41	288	0
BRTAP	41	336	7
NMTAP	42	48	5
NMHLD	42	96	5	96
NMHLD	42	192	7	96
NMHLD	42	288	0	96
NMHLD	43	0	2	96
NMTAP	43	96	3
NMTAP	43	144	3
NMSTR	43	240	0
NMSCL	43	240	0	96	96	5
NMSTR	43	240	1
NMSUL	43	240	1	96	96	4
EXTAP	44	144	2
EXTAP	44	144	3
EXSTR	44	240	2
NMSCL	44	240	2	96	96	7
EXTAP	44	240	3
BXSTR	45	48	6
BRSCL	45	48	6	96	96	3
NMSTR	45	240	1
NMSI_	45	240	1	96	96	4
BRSTR	46	48	5
BRSI_	46	48	5	96	96	0
NMTAP	46	240	1
NMSTR	46	288	1
NMSCR	46	288	1	96	96	4
NMSTR	47	96	0
NMSCL	47	96	0	96	96	5
NMTAP	47	288	4
NMTAP	48	0	3
NMTAP	48	0	4
NMTAP	48	96	2
NMTAP	48	96	3
NMTAP	48	144	2
NMTAP	48	144	3
NMTAP	48	240	5
NMTAP	48	288	5
NMTAP	48	336	4
NMTAP	48	336	6
NMTAP	49	48	7
NMTAP	49	96	7
NMTAP	49	144	0
NMTAP	49	144	6
NMTAP	49	240	1
NMTAP	49	288	1
NMTAP	49	336	0
NMTAP	49	336	2
NMTAP	50	48	3
NMTAP	50	96	3
NMSTR	50	144	3
NMSI_	50	144	3	96	96	0
NMSTR	50	144	4
NMSI_	50	144	4	96	96	7
NMTAP	51	96	1
NMTAP	51	96	3
NMTAP	51	144	1
NMTAP	51	144	3
NMTAP	51	240	4
NMTAP	51	240	6
NMTTP	51	336	0	B	1	M1
NMTTP	51	336	0	A	0	M1
NMTTP	51	336	1	B	0	M1
NMTTP	51	336	1	E	0	M1
NMTTP	51	336	1	A	0	M1
NMTAP	53	192	0
NMTAP	53	192	7
NMTAP	53	288	1
NMTAP	53	288	6
NMHLD	54	0	2	96
NMTAP	54	96	3
NMTAP	54	192	5
NMTAP	54	240	5
NMTAP	54	288	4
NMTAP	55	0	2
NMTAP	55	96	1
NMTAP	55	96	3
NMTAP	55	192	5
NMTAP	55	288	4
NMTAP	55	288	6
NMHLD	56	0	1	96
NMTAP	56	96	0
NMTAP	56	192	6
NMTAP	56	240	6
NMTAP	56	288	7
NMTAP	57	0	1
NMTAP	57	96	0
NMTAP	57	96	2
NMTAP	57	192	6
NMTAP	57	288	5
NMTAP	57	288	7
NMHLD	58	0	1	96
NMTAP	58	96	3
NMTAP	58	192	6
NMTAP	58	240	6
NMSTR	58	288	4
BRSCR	58	288	4	96	192	3
NMTAP	59	288	4
NMTAP	59	288	5
NMTAP	60	0	2
NMTAP	60	0	7
NMSTR	60	96	0
NMSI_	60	96	0	96	48	5
NMSTR	60	96	1
NMSI_	60	96	1	96	48	4
NMTAP	61	0	5
NMTAP	61	48	6
NMTAP	61	96	7
NMTAP	61	144	0
NMTAP	61	144	1
NMTAP	61	240	2
NMTAP	61	240	3
NMTAP	61	288	2
NMTAP	61	288	3
NMTAP	62	0	4
NMTAP	62	0	5
NMSTR	62	96	6
NMSI_	62	96	6	96	48	3
NMSTR	62	96	7
NMSI_	62	96	7	96	48	2
EXTAP	62	288	1
EXHLD	62	336	1	96
NMHLD	63	48	3	96
NMHLD	63	144	5	96
NMTAP	63	240	7
NMTAP	63	288	7
NMTAP	64	0	3
NMTAP	64	0	6
NMSTR	64	96	4
NMSI_	64	96	4	96	48	1
NMSTR	64	96	5
NMSI_	64	96	5	96	48	7
NMTAP	65	0	0
NMTAP	65	48	7
NMTAP	65	96	6
NMTAP	65	144	4
NMTAP	65	144	5
NMTAP	65	240	2
NMTAP	65	240	3
NMTAP	65	288	2
NMTAP	65	288	3
NMTAP	66	0	1
NMTAP	66	0	4
NMSTR	66	96	2
NMSI_	66	96	2	96	48	0
NMSTR	66	96	3
NMSI_	66	96	3	96	48	6
EXTAP	66	288	5
EXHLD	66	336	5	96
NMHLD	67	48	7	96
NMHLD	67	144	1	96
NMTAP	67	240	3
NMTAP	67	288	3
BRTAP	68	0	0
BRTAP	68	0	7
NMTAP	68	96	1
NMTAP	68	144	1
NMTAP	68	192	3
NMSTR	68	240	2
NMSXR	68	240	2	96	240	5
NMTAP	69	288	4
NMTAP	69	288	6
NMTAP	70	0	6
NMTAP	70	0	7
NMTAP	70	96	5
NMTAP	70	144	5
NMTAP	70	192	4
NMSTR	70	240	6
NMSI_	70	240	6	96	96	4
CNSI_	71	48	4	0	72	7
CNSI_	71	120	7	0	72	3
NMSTR	71	288	1
NMSI_	71	288	1	96	48	5

T_REC_TAP	238
T_REC_BRK	6
T_REC_XTP	12
T_REC_BXX	10
T_REC_HLD	32
T_REC_XHO	2
T_REC_BHO	0
T_REC_BXH	0
T_REC_STR	32
T_REC_BST	2
T_REC_XST	3
T_REC_XBS	2
T_REC_TTP	5
T_REC_THO	0
T_REC_SLD	35
T_REC_BSL	5
T_REC_ALL	384
T_NUM_TAP	290
T_NUM_BRK	25
T_NUM_HLD	34
T_NUM_SLD	35
T_NUM_ALL	384
T_JUDGE_TAP	310
T_JUDGE_HLD	87
T_JUDGE_SLD	40
T_JUDGE_ALL	437
TTM_EACHPAIRS	88
TTM_SCR_TAP	145000
TTM_SCR_BRK	65000
TTM_SCR_HLD	34000
TTM_SCR_SLD	52500
TTM_SCR_ALL	296500
TTM_SCR_S	285200
TTM_SCR_SS	294000
TTM_RAT_ACV	10085

