VERSION	0.00.00	1.05.00
FES_MODE	0
BPM_DEF	137.500	137.500	137.500	137.500
MET_DEF	4	4
RESOLUTION	384
CLK_DEF	384
COMPATIBLE_CODE	MA2

BPM	0	0	137.500
MET	0	0	4	4

NMTAP	3	0	2
NMTAP	3	96	2
NMTAP	3	192	2
NMTAP	4	0	3
NMTAP	4	96	3
NMTAP	4	192	3
NMTAP	5	0	4
NMTAP	5	96	4
NMTAP	5	192	4
NMTAP	6	0	3
NMTAP	6	0	4
NMTAP	7	0	4
NMTAP	7	96	4
NMTAP	7	192	5
NMTAP	8	0	6
NMTAP	8	96	6
NMTAP	8	192	7
NMTAP	9	0	0
NMTAP	9	96	0
NMTAP	9	192	1
NMTAP	10	0	2
NMTAP	10	96	2
NMTAP	10	192	2
NMTAP	10	192	3
NMTAP	11	0	3
NMTAP	11	96	3
NMTAP	11	192	2
NMTAP	12	0	1
NMTAP	12	96	1
NMTAP	12	192	0
NMTAP	13	0	7
NMTAP	13	96	7
NMTAP	13	192	6
NMTAP	14	0	5
NMTAP	14	96	5
NMTAP	14	192	4
NMTAP	14	192	5
NMTTP	15	0	6	B	0	L1
NMTTP	15	96	5	B	0	L1
NMTTP	15	192	4	B	0	L1
NMTTP	16	0	1	B	0	L1
NMTTP	16	96	2	B	0	L1
NMTTP	16	192	3	B	0	L1
NMTTP	17	0	6	B	0	L1
NMTTP	17	96	5	B	0	L1
NMTTP	17	192	4	B	0	L1
NMTTP	17	288	3	B	0	L1
NMTTP	18	0	2	B	0	L1
NMTTP	18	96	1	B	0	L1
NMTTP	18	192	0	C	0	L1
NMTTP	19	0	0	B	0	L1
NMTTP	19	96	1	B	0	L1
NMTTP	19	192	2	B	0	L1
NMTTP	19	192	3	B	0	L1
NMTTP	20	0	7	B	0	L1
NMTTP	20	96	6	B	0	L1
NMTTP	20	192	4	B	0	L1
NMTTP	20	192	5	B	0	L1
NMTTP	21	0	1	B	0	L1
NMTTP	21	96	2	B	0	L1
NMTTP	21	192	3	B	0	L1
NMTTP	21	288	4	B	0	L1
NMTTP	22	0	0	C	1	L1
NMHLD	23	0	6	192
NMHLD	23	192	7	192
NMHLD	24	0	0	192
NMTAP	24	192	1
NMHLD	25	0	1	192
NMHLD	25	192	0	192
NMHLD	26	0	7	192
NMTAP	26	192	6
NMHLD	27	0	5	192
NMHLD	27	192	4	192
NMHLD	28	0	3	192
NMTAP	28	192	2
NMHLD	29	0	2	192
NMHLD	29	192	3	192
NMHLD	30	0	4	192
NMTAP	30	192	5
NMTAP	31	0	3
NMTAP	31	96	3
NMTAP	31	192	4
NMTAP	31	288	4
NMTAP	32	0	3
NMTAP	32	0	4
NMTAP	32	192	3
NMTAP	32	192	4
BXTAP	33	0	2
NMTAP	33	96	2
NMTAP	33	192	1
NMTAP	33	288	1
NMTAP	34	0	0
NMTAP	34	96	0
NMTAP	34	192	6
NMTAP	34	192	7
NMTAP	35	0	5
NMTAP	35	96	5
NMTAP	35	192	6
NMTAP	35	288	6
NMTAP	36	0	7
NMTAP	36	96	7
NMTAP	36	192	0
NMTAP	36	192	1
NMTAP	37	0	1
NMTAP	37	96	1
NMTAP	37	192	2
NMTAP	37	288	2
NMTAP	38	0	3
NMTAP	38	96	3
NMTAP	38	192	4
NMTAP	38	192	5
NMTAP	39	0	6
NMTAP	39	96	6
NMTAP	39	192	5
NMTAP	39	288	5
NMTAP	40	0	4
NMTAP	40	96	4
BRTAP	40	192	2
BRTAP	40	192	3
NMTAP	41	0	2
NMTAP	41	96	2
NMTAP	41	192	0
NMTAP	41	192	1
NMTAP	41	288	0
NMTAP	41	288	1
NMTAP	42	0	7
NMTAP	42	96	7
NMTAP	42	192	6
NMTAP	42	192	7
NMTAP	43	0	5
NMTAP	43	96	5
NMTAP	43	192	6
NMTAP	43	192	7
NMTAP	43	288	6
NMTAP	43	288	7
NMTAP	44	0	0
NMTAP	44	96	0
NMTAP	44	192	0
NMTAP	44	192	1
NMTAP	45	0	1
NMTAP	45	96	1
NMTAP	45	192	2
NMTAP	45	192	3
NMTAP	45	288	2
NMTAP	45	288	3
NMTAP	46	0	4
NMTAP	46	96	4
NMTAP	46	192	4
NMTAP	46	192	5
NMTAP	47	0	6
NMTAP	47	96	6
NMTAP	47	192	4
NMTAP	47	192	5
NMTAP	47	288	4
NMTAP	47	288	5
NMTAP	48	0	3
NMTAP	48	96	3
NMTAP	48	192	2
NMTAP	48	192	3
NMTTP	49	0	1	B	0	L1
NMTTP	49	96	2	B	0	L1
NMTTP	49	192	3	B	0	L1
NMTTP	50	0	6	B	0	L1
NMTTP	50	96	5	B	0	L1
NMTTP	50	192	4	B	0	L1
NMTHO	51	0	0	384	C	1	L1
EXTAP	53	0	0
EXTAP	53	0	7
EXTAP	53	192	0
EXTAP	53	192	7
NMSTR	54	0	6
NMSI_	54	0	6	96	192	3
NMSTR	55	0	1
NMSI_	55	0	1	96	192	4
NMSTR	56	0	5
NMSI_	56	0	5	96	192	0
NMSTR	57	0	1
NMSI_	57	0	1	96	192	5
NMSTR	58	0	6
NMSI_	58	0	6	96	192	2
NMSTR	59	0	0
NMSI_	59	0	0	96	192	4
NMTAP	60	0	5
NMTAP	60	96	5
NMTAP	60	192	5
NMTAP	60	288	4
NMTAP	60	288	5
NMTAP	61	0	6
NMTAP	61	96	6
NMTAP	61	192	6
NMTAP	61	288	6
NMTAP	61	288	7
NMTAP	62	0	0
NMTAP	62	96	0
NMTAP	62	192	0
NMTAP	62	288	0
NMTAP	62	288	1
NMTAP	63	0	2
NMTAP	63	0	3
NMTAP	63	96	2
NMTAP	63	96	3
NMTAP	63	192	2
NMTAP	63	192	3
NMTAP	64	0	2
NMTAP	64	96	2
NMTAP	64	192	2
NMTAP	64	288	2
NMTAP	64	288	3
NMTAP	65	0	1
NMTAP	65	96	1
NMTAP	65	192	1
NMTAP	65	288	0
NMTAP	65	288	1
NMTAP	66	0	7
NMTAP	66	96	7
NMTAP	66	192	7
NMTAP	66	288	6
NMTAP	66	288	7
NMTAP	67	0	4
NMTAP	67	0	5
NMTAP	67	96	4
NMTAP	67	96	5
NMTAP	67	192	4
NMTAP	67	192	5
NMHLD	68	0	5	192
NMTAP	68	192	4
NMHLD	69	0	2	192
NMTAP	69	192	3
NMHLD	70	0	4	192
NMTAP	70	192	3
NMTAP	71	0	3
NMTAP	71	0	4
NMTAP	71	96	3
NMTAP	71	96	4
NMTAP	71	192	2
NMTAP	71	192	5
NMTAP	71	288	1
NMTAP	71	288	6
BXTAP	72	0	0
BXTAP	72	0	7

T_REC_TAP	171
T_REC_BRK	2
T_REC_XTP	4
T_REC_BXX	3
T_REC_HLD	15
T_REC_XHO	0
T_REC_BHO	0
T_REC_BXH	0
T_REC_STR	6
T_REC_BST	0
T_REC_XST	0
T_REC_XBS	0
T_REC_TTP	32
T_REC_THO	1
T_REC_SLD	6
T_REC_BSL	0
T_REC_ALL	240
T_NUM_TAP	213
T_NUM_BRK	5
T_NUM_HLD	16
T_NUM_SLD	6
T_NUM_ALL	240
T_JUDGE_TAP	218
T_JUDGE_HLD	68
T_JUDGE_SLD	6
T_JUDGE_ALL	292
TTM_EACHPAIRS	40
TTM_SCR_TAP	106500
TTM_SCR_BRK	13000
TTM_SCR_HLD	16000
TTM_SCR_SLD	9000
TTM_SCR_ALL	144500
TTM_SCR_S	139700
TTM_SCR_SS	144000
TTM_RAT_ACV	10034

