VERSION	0.00.00	1.05.00
FES_MODE	0
BPM_DEF	137.500	137.500	137.500	137.500
MET_DEF	4	4
RESOLUTION	384
CLK_DEF	384
COMPATIBLE_CODE	MA2

BPM	0	0	137.500
MET	0	0	4	4

NMTAP	3	0	0
NMTAP	3	192	0
NMTAP	4	0	0
NMTAP	5	0	7
NMTAP	5	192	7
NMTAP	6	0	0
NMTAP	6	0	7
NMTAP	7	0	0
NMTAP	7	192	0
NMTAP	8	0	1
NMTAP	9	0	2
NMTAP	9	192	2
NMTAP	10	0	3
NMTAP	10	0	4
NMTAP	11	0	4
NMTAP	11	192	4
NMTAP	12	0	5
NMTAP	13	0	6
NMTAP	13	192	6
NMTAP	14	0	0
NMTAP	14	0	7
NMHLD	15	0	6	192
NMHLD	15	0	7	192
NMTAP	16	0	6
NMTAP	16	0	7
NMHLD	17	0	4	192
NMHLD	17	0	5	192
NMTAP	18	0	4
NMTAP	18	0	5
NMHLD	19	0	2	192
NMHLD	19	0	3	192
NMTAP	20	0	2
NMTAP	20	0	3
NMHLD	21	0	0	192
NMHLD	21	0	1	192
NMTAP	22	0	0
NMTAP	22	0	1
NMTTP	23	0	0	B	0	L1
NMTTP	24	0	7	B	0	L1
NMTTP	25	0	6	B	0	L1
NMTTP	26	0	5	B	0	L1
NMTTP	27	0	4	B	0	L1
NMTTP	28	0	3	B	0	L1
NMTTP	29	0	2	B	0	L1
NMTTP	30	0	1	B	0	L1
NMTHO	31	0	0	384	C	1	L1
BRTAP	33	0	0
NMTAP	33	96	0
NMTAP	33	192	0
NMTAP	34	0	1
NMTAP	34	192	1
NMTAP	35	0	2
NMTAP	35	96	2
NMTAP	35	192	2
NMTAP	36	0	3
NMTAP	36	0	4
NMTAP	36	192	3
NMTAP	36	192	4
NMTAP	37	0	4
NMTAP	37	96	4
NMTAP	37	192	4
NMTAP	38	0	5
NMTAP	38	192	5
NMTAP	39	0	6
NMTAP	39	96	6
NMTAP	39	192	6
NMTAP	40	0	0
NMTAP	40	0	7
NMTAP	41	0	7
NMTAP	41	96	7
NMTAP	41	192	7
NMTAP	42	0	6
NMTAP	42	192	6
NMTAP	43	0	5
NMTAP	43	96	5
NMTAP	43	192	5
NMTAP	44	0	3
NMTAP	44	0	4
NMTAP	44	192	3
NMTAP	44	192	4
NMTAP	45	0	3
NMTAP	45	96	3
NMTAP	45	192	3
NMTAP	46	0	2
NMTAP	46	192	2
NMTAP	47	0	1
NMTAP	47	96	1
NMTAP	47	192	1
NMTAP	48	0	0
NMTAP	48	192	0
NMTAP	49	0	7
NMTAP	49	96	7
NMTAP	49	192	7
NMTAP	50	0	0
NMTAP	50	0	7
NMTAP	50	192	0
NMTAP	50	192	7
BXTAP	51	0	0
BXTAP	51	0	7
NMSTR	52	0	7
NMSI_	52	0	7	96	288	3
NMSTR	54	0	0
NMSI_	54	0	0	96	288	4
NMSTR	56	0	6
NMSI_	56	0	6	96	288	2
NMSTR	58	0	1
NMSI_	58	0	1	96	288	5
BXTAP	60	0	7
NMTAP	60	96	7
NMTAP	60	192	7
NMTAP	61	0	6
NMTAP	61	96	6
NMTAP	61	192	6
NMTAP	62	0	5
NMTAP	62	96	5
NMTAP	62	192	5
NMTAP	63	0	3
NMTAP	63	0	4
NMTAP	63	192	3
NMTAP	63	192	4
NMTAP	64	0	3
NMTAP	64	96	3
NMTAP	64	192	3
NMTAP	65	0	2
NMTAP	65	96	2
NMTAP	65	192	2
NMTAP	66	0	1
NMTAP	66	96	1
NMTAP	66	192	1
EXTAP	67	0	0
EXTAP	67	0	7
NMTTP	68	0	0	B	0	L1
NMTTP	68	0	7	B	0	L1
NMTTP	69	0	1	B	0	L1
NMTTP	69	0	6	B	0	L1
NMTTP	70	0	2	B	0	L1
NMTTP	70	0	5	B	0	L1
NMTTP	71	0	3	B	0	L1
NMTTP	71	0	4	B	0	L1
NMTTP	72	0	0	C	0	L1

T_REC_TAP	100
T_REC_BRK	1
T_REC_XTP	2
T_REC_BXX	3
T_REC_HLD	8
T_REC_XHO	0
T_REC_BHO	0
T_REC_BXH	0
T_REC_STR	4
T_REC_BST	0
T_REC_XST	0
T_REC_XBS	0
T_REC_TTP	17
T_REC_THO	1
T_REC_SLD	4
T_REC_BSL	0
T_REC_ALL	140
T_NUM_TAP	123
T_NUM_BRK	4
T_NUM_HLD	9
T_NUM_SLD	4
T_NUM_ALL	140
T_JUDGE_TAP	127
T_JUDGE_HLD	40
T_JUDGE_SLD	4
T_JUDGE_ALL	171
TTM_EACHPAIRS	22
TTM_SCR_TAP	61500
TTM_SCR_BRK	10400
TTM_SCR_HLD	9000
TTM_SCR_SLD	6000
TTM_SCR_ALL	86900
TTM_SCR_S	83950
TTM_SCR_SS	86500
TTM_RAT_ACV	10046

