VERSION	0.00.00	1.05.00
FES_MODE	0
BPM_DEF	156.000	156.000	156.000	156.000
MET_DEF	4	4
RESOLUTION	384
CLK_DEF	384
COMPATIBLE_CODE	MA2

BPM	0	0	156.000
MET	0	0	4	4

NMTAP	2	0	3
NMSTR	2	96	3
NMSI_	2	96	3	96	144	0
NMTAP	3	0	4
NMSTR	3	96	4
NMSI_	3	96	4	96	144	7
NMTAP	4	0	2
NMSTR	4	96	2
NMSCL	4	96	2	96	144	7
NMTAP	5	0	5
NMSTR	5	96	5
NMSCR	5	96	5	96	144	0
EXHLD	6	0	2	384
NMTTP	6	96	3	E	0	M1
NMTTP	6	192	4	E	0	M1
NMTTP	6	288	5	E	0	M1
EXHLD	7	0	5	384
NMTTP	7	96	5	D	0	M1
NMTTP	7	192	4	D	0	M1
NMTTP	7	288	3	D	0	M1
EXHLD	8	0	2	96
NMHLD	8	144	3	96
NMHLD	8	144	5	96
NMTAP	8	288	4
EXSTR	8	336	4
NMSF_	8	336	4	96	240	0
BRTAP	10	0	1
BRTAP	10	0	7
NMTAP	10	48	6
NMTAP	10	72	4
NMTAP	10	96	5
NMTAP	10	144	2
NMTAP	10	144	3
NMTAP	10	192	1
NMSTR	10	240	2
NMSI_	10	240	2	96	48	7
NMTAP	10	240	4
NMTAP	10	288	5
NMTAP	10	336	6
NMSTR	11	48	2
NMSCL	11	48	2	96	96	6
NMTAP	11	48	3
NMTAP	11	96	4
NMHLD	11	144	5	96
BRTAP	11	288	0
BRTAP	11	288	4
NMTAP	12	0	6
NMTAP	12	0	7
NMTAP	12	48	1
NMTAP	12	72	3
NMTAP	12	96	2
NMTAP	12	144	4
NMTAP	12	144	5
NMTAP	12	192	6
NMTAP	12	240	3
NMSTR	12	240	5
NMSI_	12	240	5	96	48	0
NMTAP	12	288	2
NMTAP	12	336	1
NMTAP	13	48	4
NMSTR	13	48	5
NMSCR	13	48	5	96	96	1
NMTAP	13	96	3
NMHLD	13	144	2	96
BRTAP	13	288	3
BRTAP	13	288	7
NMTAP	14	0	0
NMTAP	14	0	1
NMTAP	14	48	6
NMTAP	14	72	4
NMTAP	14	96	5
NMTAP	14	144	2
NMTAP	14	144	3
NMTAP	14	192	1
NMSTR	14	240	2
NMSI_	14	240	2	96	48	7
NMTAP	14	240	4
NMTAP	14	288	5
NMTAP	14	336	6
NMSTR	15	48	2
NMSCL	15	48	2	96	96	6
NMTAP	15	48	3
NMTAP	15	96	4
NMHLD	15	144	5	96
BRTAP	15	288	0
BRTAP	15	288	4
NMHLD	16	0	1	48
NMHLD	16	0	3	48
NMTAP	16	72	1
NMTAP	16	72	3
NMHLD	16	144	4	48
NMHLD	16	144	6	48
NMTAP	16	216	4
NMTAP	16	216	6
NMHLD	16	288	0	48
NMHLD	16	288	1	48
NMTAP	16	360	0
NMTAP	16	360	1
NMHLD	17	48	4	48
NMHLD	17	48	5	48
NMTAP	17	120	4
NMSTR	17	120	5
NMSCR	17	120	5	96	168	2
NMTHO	17	192	0	192	C	1	M1
NMHLD	19	0	2	192
NMTTP	19	192	2	B	0	M1
NMHLD	20	0	3	192
NMTTP	20	192	3	B	0	M1
NMHLD	21	0	4	192
NMTTP	21	192	4	B	0	M1
NMTAP	22	0	3
NMHLD	22	0	5	192
NMTTP	22	192	5	B	0	M1
NMHLD	23	0	2	192
NMTAP	23	0	4
NMTTP	23	192	2	B	0	M1
NMTAP	24	0	3
NMTAP	24	0	4
NMTHO	24	192	0	192	C	0	M1
NMTTP	25	0	2	B	0	M1
NMTTP	25	0	5	B	0	M1
NMTAP	25	192	0
NMTAP	25	288	0
NMTAP	26	0	1
NMSTR	26	0	3
NMSI_	26	0	3	96	96	6
NMTAP	26	96	2
NMHLD	26	144	2	144
EXTAP	26	288	7
NMSTR	27	0	4
NMSCL	27	0	4	96	96	1
NMTAP	27	0	6
NMTAP	27	96	5
NMHLD	27	144	5	144
EXTAP	27	288	0
NMHLD	28	0	2	96
NMTAP	28	96	3
NMTAP	28	144	3
NMTAP	28	192	2
NMSTR	28	240	2
NMSXL	28	240	2	96	144	3
NMSLL	28	240	2	96	144	3
NMHLD	29	192	4	96
NMHLD	29	288	5	96
NMSTR	30	0	6
NMSLL	30	0	6	96	120	0
NMTAP	30	96	1
NMHLD	30	144	1	144
EXTAP	30	288	0
NMSTR	31	0	2
NMSLL	31	0	2	96	120	4
NMTAP	31	96	5
NMHLD	31	144	5	144
EXTAP	31	288	4
NMHLD	32	0	5	192
NMTAP	32	96	4
NMTAP	32	144	3
NMHLD	32	192	2	144
NMTAP	32	288	4
NMTAP	32	336	4
NMSTR	33	48	1
NMSV_	33	48	1	96	120	3
NMSTR	33	48	5
NMSCR	33	48	5	96	120	1
EXTAP	34	0	2
EXTAP	34	0	3
NMTAP	34	48	1
NMSTR	34	96	0
NMSI_	34	96	0	96	48	6
NMTAP	34	96	3
NMTAP	34	192	0
NMTAP	34	192	3
NMTAP	34	288	3
NMTAP	35	0	3
NMTAP	35	0	6
NMTAP	35	96	3
NMSTR	35	96	7
NMSI_	35	96	7	96	48	1
NMTAP	35	192	3
NMTAP	35	192	7
NMTAP	35	288	3
NMTAP	35	336	2
NMSTR	36	0	2
NMSCL	36	0	2	96	96	6
NMTAP	36	0	4
NMSTR	36	96	6
NMSCL	36	96	6	96	96	2
NMTAP	36	192	2
NMTAP	36	288	6
NMTAP	36	336	5
NMSTR	37	0	4
NMSSL	37	0	4	96	144	0
NMSTR	37	48	3
BRSSR	37	48	3	96	96	7
NMTAP	38	0	4
NMTAP	38	0	5
NMTAP	38	48	6
NMTAP	38	96	4
NMSTR	38	96	7
NMSI_	38	96	7	96	48	1
NMTAP	38	192	4
NMTAP	38	192	7
NMTAP	38	288	4
NMTAP	39	0	1
NMTAP	39	0	4
NMSTR	39	96	0
NMSI_	39	96	0	96	48	6
NMTAP	39	96	4
NMTAP	39	192	0
NMTAP	39	192	4
NMTAP	39	288	4
NMTAP	39	336	5
NMTAP	40	0	3
NMTAP	40	0	5
NMTAP	40	96	1
NMTAP	40	96	6
NMTAP	40	144	2
NMTAP	40	144	5
NMTAP	40	192	3
NMTAP	40	192	4
NMSTR	40	240	3
NMSCL	40	240	3	96	144	5
NMSTR	40	240	4
NMSCR	40	240	4	96	144	2
NMTTP	40	336	3	E	0	M1
NMTTP	40	336	3	A	0	M1
NMTTP	40	336	3	D	0	M1
NMTTP	40	336	4	A	0	M1
NMTTP	40	336	5	E	0	M1
NMTTP	40	336	5	D	0	M1
NMTAP	41	192	3
NMTAP	41	216	4
NMTAP	41	240	3
BRTAP	41	288	1
BRTAP	41	288	6
NMHLD	42	0	3	96
NMSTR	42	0	5
NMSLR	42	0	5	96	120	1
NMTAP	42	192	2
NMTTP	42	240	3	E	0	M1
NMTTP	42	240	3	A	1	M1
NMTTP	42	240	3	D	0	M1
NMSTR	43	0	2
NMSLL	43	0	2	96	120	6
NMHLD	43	0	4	96
NMTAP	43	192	5
NMTTP	43	240	4	A	1	M1
NMTTP	43	240	5	E	0	M1
NMTTP	43	240	5	D	0	M1
NMTAP	44	0	3
NMSTR	44	0	4
NMSCR	44	0	4	96	120	1
NMTAP	44	192	2
NMHLD	44	240	2	96
NMTAP	44	336	3
NMTTP	45	48	1	B	0	M1
NMTTP	45	48	1	E	0	M1
NMTTP	45	48	1	A	0	M1
NMTTP	45	48	1	D	0	M1
NMTTP	45	48	2	B	0	M1
NMTTP	45	48	2	D	0	M1
NMTTP	45	48	3	B	0	M1
NMTTP	45	48	3	E	0	M1
NMTTP	45	48	3	A	1	M1
NMTTP	45	48	4	E	0	M1
BRTAP	45	192	5
BRTAP	45	288	6
EXTAP	46	0	1
BXTAP	46	0	7
NMSTR	46	96	2
NMSCR	46	96	2	96	48	5
NMTAP	46	96	7
NMTAP	46	144	2
NMTAP	46	192	7
NMTAP	46	288	7
NMTAP	47	0	0
NMTAP	47	0	6
NMTAP	47	96	0
NMSTR	47	96	5
NMSCL	47	96	5	96	48	2
NMTAP	47	144	5
NMTAP	47	192	0
NMTAP	47	288	0
NMTAP	48	0	1
NMTAP	48	0	3
NMTAP	48	96	4
NMTAP	48	96	6
NMTAP	48	144	4
NMTAP	48	144	6
NMSTR	48	240	2
NMSCR	48	240	2	96	204	0
NMTAP	48	240	5
NMHLD	48	336	5	336
EXTAP	49	180	1
EXTAP	49	192	2
EXHLD	49	204	3	84
NMTTP	50	0	0	E	0	M1
NMTTP	50	48	1	E	0	M1
NMTTP	50	96	2	E	0	M1
NMTTP	50	144	7	E	0	M1
NMTTP	50	192	0	C	0	M1
NMTTP	50	240	3	E	0	M1
NMTTP	50	288	6	E	0	M1
NMTTP	50	336	5	E	0	M1
NMTTP	51	0	4	E	0	M1
NMTTP	51	48	6	B	0	M1
NMTTP	51	48	7	E	0	M1
NMTTP	51	96	3	B	0	M1
NMTTP	51	96	3	E	0	M1
NMTHO	51	144	0	144	C	0	M1
BRTAP	51	240	0
BRTAP	51	288	0
NMTTP	52	0	0	E	0	M1
NMTTP	52	48	7	E	0	M1
NMTTP	52	96	6	E	0	M1
NMTTP	52	144	1	E	0	M1
NMTTP	52	192	0	C	0	M1
NMTTP	52	240	5	E	0	M1
NMTTP	52	288	2	E	0	M1
NMTTP	52	336	3	E	0	M1
NMTTP	53	0	4	E	0	M1
NMTTP	53	48	1	B	0	M1
NMTTP	53	48	1	E	0	M1
NMTTP	53	96	4	B	0	M1
NMTTP	53	96	5	E	0	M1
NMTHO	53	144	0	144	C	0	M1
BRTAP	53	240	7
BRTAP	53	288	7
NMTTP	54	0	6	A	0	M1
NMTTP	54	48	0	E	0	M1
NMTTP	54	96	1	A	0	M1
NMTTP	54	144	6	E	0	M1
NMTTP	54	192	0	C	0	M1
NMTTP	54	240	2	E	0	M1
NMTTP	54	288	5	A	0	M1
NMTTP	54	336	4	E	0	M1
NMTTP	55	0	2	A	0	M1
NMTTP	55	48	4	B	0	M1
NMTTP	55	48	5	B	0	M1
NMTTP	55	96	2	B	0	M1
NMTTP	55	96	3	B	0	M1
NMTTP	55	144	0	C	0	M1
EXSTR	55	240	0
NMSI_	55	240	0	96	48	4
EXTAP	55	240	1
BRTAP	55	336	0
BRTAP	55	336	7
NMTAP	56	48	5
NMTAP	56	96	3
NMSTR	56	96	6
NMSI_	56	96	6	96	96	4
NMTAP	56	192	1
NMTAP	56	240	1
NMTAP	56	288	1
CNSV_	56	288	4	0	48	2
EXSTR	56	336	0
NMSV_	56	336	0	96	48	3
NMTAP	57	48	7
CNSCL	57	96	3	0	48	2
NMTAP	57	96	7
CNSV_	57	144	2	0	96	5
NMTAP	57	192	6
NMTAP	57	240	6
NMTAP	57	288	6
EXTAP	57	336	3
EXHLD	57	336	7	288
NMTAP	58	48	2
NMTAP	58	96	1
NMTAP	58	144	0
NMTAP	58	192	6
NMTAP	58	240	5
NMTAP	58	288	4
EXTAP	58	336	3
EXTAP	58	336	7
NMTTP	59	48	6	B	0	M1
NMTTP	59	48	6	A	0	M1
NMTTP	59	48	7	E	0	M1
NMTTP	59	96	2	B	0	M1
NMTTP	59	96	2	A	0	M1
NMTTP	59	96	3	E	0	M1
NMTHO	59	144	0	96	C	1	M1
BRTAP	59	240	0
NMTAP	60	0	2
NMSTR	60	0	6
NMSCL	60	0	6	96	48	3
NMTAP	60	96	1
NMSTR	60	144	1
NMSCL	60	144	1	96	48	6
NMTAP	60	240	2
NMTAP	60	288	2
NMTAP	60	336	3
NMTAP	61	0	0
NMSTR	61	0	4
NMSCR	61	0	4	96	48	7
NMTAP	61	96	1
NMSTR	61	144	1
NMSCR	61	144	1	96	48	4
NMTAP	61	240	0
NMTAP	61	288	7
NMTAP	61	336	6
NMTAP	61	360	6
BRSTR	62	0	4
NMSV_	62	0	4	96	48	1
NMTAP	62	96	7
NMSTR	62	144	7
NMSUR	62	144	7	96	48	4
NMTAP	62	240	2
NMTAP	62	288	2
NMTAP	62	336	1
NMSTR	63	0	0
NMSV_	63	0	0	96	48	5
NMTAP	63	96	7
NMTAP	63	144	7
NMTAP	63	240	3
NMTAP	63	240	6
NMTAP	63	288	5
NMTAP	63	312	4
NMTAP	63	336	5
NMTAP	63	360	4
BRTAP	64	0	5
NMSTR	64	48	3
NMSI_	64	48	3	96	48	0
NMTAP	64	48	4
NMTAP	64	96	2
BRHLD	64	144	1	96
NMTAP	64	240	7
NMTAP	64	288	0
NMTAP	64	288	6
NMTAP	64	336	1
BRTAP	65	0	2
NMTAP	65	48	3
NMSTR	65	48	4
NMSI_	65	48	4	96	48	7
NMTAP	65	96	5
BRHLD	65	144	6	96
NMTAP	65	240	0
NMTAP	65	288	1
NMTAP	65	288	7
NMTAP	65	336	2
NMTAP	65	336	6
NMHLD	66	0	3	96
NMHLD	66	0	5	96
NMTAP	66	144	1
NMTAP	66	144	3
NMTAP	66	192	2
NMTAP	66	192	4
NMTAP	66	240	3
NMTAP	66	240	5
NMTAP	66	288	4
NMTAP	66	288	6
BRHLD	66	336	3	288
BRTAP	66	336	7
EXTAP	67	48	0
EXTAP	67	96	1
EXTAP	67	144	2
NMTTP	67	240	2	A	0	M1
NMTTP	67	240	2	D	1	M1
NMTTP	67	248	1	A	0	M1
NMTTP	67	256	1	D	0	M1
NMTTP	67	264	0	A	0	M1
NMTTP	67	272	0	D	0	M1
NMTTP	67	280	7	A	0	M1
NMTTP	67	288	7	D	0	M1
NMTTP	67	296	6	A	0	M1
NMTTP	67	304	6	D	0	M1
NMTTP	67	312	5	A	0	M1
NMTTP	67	320	5	D	0	M1
BXTAP	68	0	1
BXTAP	68	0	4
NMSTR	68	48	2
NMSCR	68	48	2	96	48	5
NMTAP	68	96	6
NMSTR	68	144	7
NMSXR	68	144	7	96	96	7
NMTAP	68	240	0
NMTAP	68	288	1
NMSTR	68	336	2
BRSXL	68	336	2	96	96	3
BRSLL	68	336	2	96	96	3
BXTAP	69	192	0
BXTAP	69	192	7
NMTAP	69	288	6
NMTAP	69	336	4
NMTAP	69	336	5
NMTAP	70	0	2
NMTAP	70	0	3
NMTAP	70	96	6
NMTAP	70	96	7
NMTAP	70	144	0
NMTAP	70	144	1
NMTAP	70	240	1
NMTAP	70	240	7
NMTAP	70	288	2
NMTAP	70	288	6
NMHLD	70	336	3	288
NMTAP	70	336	5
NMTTP	71	0	5	E	0	M1
NMTTP	71	0	6	E	1	M1
NMTTP	71	16	7	E	0	M1
NMTTP	71	32	0	E	0	M1
NMTTP	71	48	1	E	0	M1
NMTTP	71	64	2	E	0	M1
NMTTP	71	80	3	E	0	M1
NMTTP	71	144	2	A	0	M1
NMTTP	71	144	2	D	1	M1
NMTTP	71	152	1	A	0	M1
NMTTP	71	160	1	D	0	M1
NMTTP	71	168	0	A	0	M1
NMTTP	71	176	0	D	0	M1
NMTTP	71	184	7	A	0	M1
NMTTP	71	192	7	D	0	M1
NMTTP	71	200	6	A	0	M1
NMTTP	71	208	6	D	0	M1
NMTTP	71	216	5	A	0	M1
NMTTP	71	224	5	D	0	M1
NMTTP	71	232	4	A	0	M1
NMSTR	72	0	5
NMSV_	72	0	5	96	72	2
NMTAP	72	96	1
NMSTR	72	144	1
NMSCL	72	144	1	96	72	6
NMTAP	72	240	3
NMTAP	72	288	4
NMTAP	72	336	5
NMTAP	73	48	5
NMTAP	73	48	7
NMTAP	73	96	0
NMTAP	73	96	4
BRTAP	73	144	1
BRTAP	73	144	3
NMTTP	73	240	0	B	0	M1
NMTTP	73	240	0	C	0	M1
NMTTP	73	240	0	E	0	M1
NMTTP	73	240	1	B	0	M1
NMTTP	73	240	2	B	0	M1
NMTTP	73	240	2	E	1	M1
NMTTP	73	240	3	B	0	M1
NMTTP	73	240	4	E	0	M1
NMSTR	74	0	5
NMSCL	74	0	5	96	72	2
NMTAP	74	96	0
NMSTR	74	144	1
NMSUR	74	144	1	96	72	5
NMTAP	74	240	0
NMTAP	74	288	0
NMSTR	74	336	7
NMSI_	74	336	7	96	48	3
NMSTR	75	48	2
NMSI_	75	48	2	96	48	5
NMTAP	75	48	7
NMTAP	75	144	2
NMSTR	75	144	6
NMSCR	75	144	6	96	48	1
NMTAP	75	240	3
NMTAP	75	240	6
NMTAP	75	336	0
NMTAP	75	336	4
NMSTR	76	0	0
BRSCL	76	0	0	96	24	7
NMSTR	76	0	4
BRSCL	76	0	4	96	24	3
CNSI_	76	120	3	0	48	1
CNSI_	76	120	7	0	48	5
NMTAP	76	240	0
NMTAP	76	240	4
NMTAP	76	288	1
NMTAP	76	288	5
NMHLD	76	336	2	144
NMTAP	76	336	6
NMTAP	77	48	0
NMTAP	77	96	7
NMTAP	77	144	6
NMTAP	77	192	2
NMTAP	77	192	5
NMTAP	77	240	2
NMTAP	77	240	5
NMTAP	77	288	4
NMTAP	77	312	3
NMTAP	77	336	4
NMTAP	77	360	3
BRSTR	78	0	5
NMSI_	78	0	5	96	48	7
NMTAP	78	48	5
BRSTR	78	96	4
NMSI_	78	96	4	96	48	0
NMTAP	78	144	4
BRSTR	78	192	5
BRSCR	78	192	5	96	48	0
NMTAP	78	240	5
BRTAP	78	288	4
NMTAP	78	336	3
BRSTR	79	0	2
NMSI_	79	0	2	96	48	0
NMTAP	79	48	2
BRSTR	79	96	3
NMSI_	79	96	3	96	48	7
NMTAP	79	144	3
BRSTR	79	192	2
BRSCL	79	192	2	96	48	7
NMTAP	79	240	2
BRTAP	79	288	3
NMTAP	79	336	4
NMHLD	80	0	5	48
NMHLD	80	72	1	48
NMHLD	80	72	3	48
NMHLD	80	144	5	48
NMHLD	80	144	7	48
NMTAP	80	240	0
NMTAP	80	240	6
NMTAP	80	288	2
NMTAP	80	288	7
BRSTR	80	336	0
NMSCL	80	336	0	96	48	5
BRTAP	80	336	3
EXTAP	81	48	4
EXTAP	81	64	3
EXTAP	81	80	2
EXTAP	81	96	1
BXTAP	81	144	0
BXTAP	81	144	7
NMTAP	81	240	2
NMTAP	81	240	6
NMTAP	81	288	3
NMTAP	81	288	7
BRSTR	81	336	0
BRSCL	81	336	0	96	558	4
BRSTR	81	336	4
NMSCL	81	336	4	96	558	0
CNSSL	83	222	4	0	546	0

T_REC_TAP	257
T_REC_BRK	27
T_REC_XTP	20
T_REC_BXX	7
T_REC_HLD	40
T_REC_XHO	5
T_REC_BHO	3
T_REC_BXH	0
T_REC_STR	55
T_REC_BST	10
T_REC_XST	3
T_REC_XBS	0
T_REC_TTP	121
T_REC_THO	5
T_REC_SLD	62
T_REC_BSL	8
T_REC_ALL	623
T_NUM_TAP	456
T_NUM_BRK	55
T_NUM_HLD	50
T_NUM_SLD	62
T_NUM_ALL	623
T_JUDGE_TAP	500
T_JUDGE_HLD	146
T_JUDGE_SLD	70
T_JUDGE_ALL	716
TTM_EACHPAIRS	110
TTM_SCR_TAP	228000
TTM_SCR_BRK	143000
TTM_SCR_HLD	50000
TTM_SCR_SLD	93000
TTM_SCR_ALL	514000
TTM_SCR_S	493250
TTM_SCR_SS	508500
TTM_RAT_ACV	10108

