VERSION	0.00.00	1.05.00
FES_MODE	0
BPM_DEF	156.000	156.000	156.000	156.000
MET_DEF	4	4
RESOLUTION	384
CLK_DEF	384
COMPATIBLE_CODE	MA2

BPM	0	0	156.000
MET	0	0	4	4

NMSTR	2	0	0
BRSCR	2	0	0	96	288	3
NMHLD	3	0	5	192
NMTAP	3	192	4
NMTAP	4	0	3
NMSTR	4	0	4
NMSCR	4	0	4	96	288	7
NMHLD	5	0	1	192
NMTAP	5	192	0
NMTAP	6	0	0
NMTAP	6	96	0
NMTAP	6	192	1
NMTAP	6	288	2
NMTAP	7	0	3
NMTAP	7	96	4
NMTAP	7	192	3
NMTAP	7	192	5
NMTAP	7	288	3
NMSTR	7	288	5
NMSUL	7	288	5	96	240	2
EXHLD	8	336	1	240
NMTAP	9	192	3
NMTAP	9	288	3
NMTAP	9	288	4
BRTAP	10	0	2
BRTAP	10	0	5
EXTAP	10	96	7
EXTAP	10	144	7
NMTAP	10	240	4
NMTAP	10	240	6
NMTAP	10	288	4
NMTAP	10	288	6
NMTAP	11	0	3
NMTAP	11	0	4
NMTAP	11	96	0
NMTAP	11	144	0
NMTAP	11	240	1
NMTAP	11	240	3
NMTAP	11	288	1
NMTAP	11	288	3
NMTAP	12	0	3
NMTAP	12	0	4
NMTAP	12	96	7
NMTAP	12	144	7
NMTAP	12	240	4
NMTAP	12	240	6
NMTAP	12	288	4
NMTAP	12	288	6
NMHLD	13	0	5	96
NMTAP	13	96	3
NMTAP	13	144	3
NMTAP	13	240	2
NMTAP	13	240	4
NMTAP	13	288	2
NMTAP	13	288	4
NMHLD	14	0	1	96
NMTAP	14	96	0
NMTAP	14	144	0
NMTAP	14	240	1
NMTAP	14	240	7
NMTAP	14	288	1
NMTAP	14	288	7
NMHLD	15	0	6	96
NMTAP	15	96	7
NMTAP	15	144	7
NMTAP	15	240	0
NMTAP	15	240	6
NMTAP	15	288	0
NMTAP	15	288	6
NMHLD	16	0	2	96
NMTAP	16	96	3
NMHLD	16	144	3	96
NMTAP	16	240	4
NMHLD	16	288	4	96
NMTAP	17	0	5
NMTAP	17	48	5
NMTAP	17	144	3
NMTAP	17	144	7
BRTAP	17	192	3
BRTAP	17	192	7
NMSTR	18	0	2
NMSCR	18	0	2	96	288	5
NMTAP	19	192	6
NMTAP	19	288	6
NMSTR	20	0	4
NMSXL	20	0	4	96	288	4
NMSXR	20	0	4	96	288	4
NMTAP	20	0	5
NMHLD	21	192	6	192
NMHLD	22	0	5	192
NMHLD	22	192	4	192
NMHLD	23	0	3	192
NMHLD	23	192	2	192
NMTHO	24	0	0	384	C	0	M1
NMTAP	25	192	0
NMTAP	25	192	7
NMTAP	26	0	1
NMTAP	26	96	1
NMTAP	26	192	2
NMTAP	26	192	3
NMTAP	26	288	4
NMTAP	26	288	5
NMTAP	27	0	6
NMTAP	27	96	6
NMTAP	27	192	4
NMTAP	27	192	5
NMTAP	27	288	2
NMTAP	27	288	3
NMHLD	28	0	1	96
NMTAP	28	96	0
NMHLD	28	192	6	96
NMTAP	28	288	7
NMTAP	29	0	0
NMTAP	29	96	1
NMTAP	29	192	2
NMTAP	29	192	3
NMTAP	29	288	2
NMTAP	29	288	3
NMTAP	30	0	4
NMTAP	30	96	5
NMTAP	30	192	6
NMTAP	30	192	7
NMTAP	30	288	5
NMTAP	31	0	3
NMTAP	31	96	2
NMTAP	31	192	0
NMTAP	31	192	1
NMTAP	31	288	2
NMHLD	32	0	2	96
NMHLD	32	0	3	96
NMHLD	32	192	4	96
NMHLD	32	192	5	96
NMTHO	33	0	0	192	C	1	M1
EXTAP	34	0	0
NMTAP	34	96	0
NMTAP	34	96	7
NMTAP	34	192	1
NMTAP	34	240	1
NMTAP	34	288	0
NMTAP	35	0	7
NMTAP	35	96	0
NMTAP	35	96	7
NMTAP	35	192	6
NMTAP	35	240	6
NMTAP	35	288	7
NMTAP	36	0	5
NMTAP	36	96	4
NMTAP	36	96	5
NMTAP	36	192	2
NMTAP	36	240	2
NMTAP	36	288	3
NMTAP	37	0	2
NMTAP	37	0	4
NMSTR	37	96	3
NMSCL	37	96	3	96	96	0
NMTAP	37	96	5
NMTAP	38	0	6
NMTAP	38	96	6
NMTAP	38	96	7
NMTAP	38	192	5
NMTAP	38	240	5
NMTAP	38	288	4
NMTAP	39	0	2
NMTAP	39	96	2
NMTAP	39	96	3
NMTAP	39	192	1
NMTAP	39	240	1
NMTAP	39	288	0
NMTAP	40	0	1
NMSTR	40	0	7
NMSCL	40	0	7	96	96	4
NMTAP	40	192	3
NMTAP	40	288	3
NMTAP	41	0	2
NMTAP	41	0	4
BRTAP	41	192	0
BRTAP	41	192	6
NMSTR	42	0	0
NMSCR	42	0	0	96	96	3
NMSTR	42	192	7
NMSCL	42	192	7	96	96	4
NMHLD	43	0	2	192
NMTAP	43	192	3
NMTAP	43	240	3
NMTAP	43	288	2
NMSTR	44	0	4
NMSCR	44	0	4	96	96	7
NMSTR	44	192	0
NMSCR	44	192	0	96	96	3
EXHLD	45	0	6	192
NMTAP	45	192	7
NMTAP	45	288	0
NMTAP	45	288	7
NMTTP	46	0	1	E	0	M1
NMTTP	46	96	2	E	0	M1
NMTTP	46	192	3	E	0	M1
NMTTP	46	288	4	E	0	M1
NMTTP	47	0	5	E	0	M1
NMTTP	47	96	6	E	0	M1
NMTTP	47	192	7	E	0	M1
NMTTP	47	288	0	C	0	M1
NMTAP	48	0	0
NMTAP	48	96	1
NMTAP	48	96	7
NMTAP	48	144	1
NMTAP	48	144	7
NMTAP	48	240	0
NMTAP	48	240	6
NMHLD	48	336	1	240
NMHLD	48	336	5	240
NMTAP	50	0	2
NMTAP	50	48	2
NMTAP	50	96	3
NMTAP	50	192	4
NMTAP	50	192	5
NMTAP	50	288	6
NMTAP	50	336	6
NMTAP	51	0	7
NMTAP	51	96	0
NMTAP	51	96	1
NMTAP	51	192	0
NMTAP	51	192	7
NMTAP	51	288	6
NMTAP	51	288	7
NMTAP	52	0	5
NMTAP	52	48	5
NMTAP	52	96	4
NMTAP	52	192	2
NMTAP	52	192	3
NMTAP	52	288	1
NMTAP	52	336	1
NMTAP	53	0	0
NMTAP	53	96	6
NMTAP	53	96	7
NMTAP	53	192	0
NMTAP	53	192	7
NMTAP	53	288	1
NMTAP	53	288	6
NMTAP	54	0	2
NMTAP	54	0	5
NMTAP	54	96	3
NMTAP	54	96	6
NMTAP	54	192	2
NMTAP	54	192	5
NMTAP	54	288	1
NMTAP	54	288	4
NMTAP	55	0	2
NMTAP	55	0	3
NMTAP	55	96	3
NMTAP	55	96	4
NMTAP	55	144	3
NMTAP	55	144	4
NMTAP	55	240	5
NMTAP	55	288	5
BXTAP	55	336	4
NMTAP	56	48	3
NMTAP	56	48	6
NMTAP	56	96	3
NMTAP	56	96	6
NMTAP	56	192	2
NMTAP	56	192	7
NMTAP	56	240	2
NMTAP	56	240	7
BXTAP	56	336	2
BXTAP	56	336	3
NMTAP	57	48	1
NMTAP	57	48	4
NMTAP	57	96	1
NMTAP	57	96	4
NMTAP	57	192	0
NMTAP	57	192	5
NMTAP	57	240	0
NMHLD	57	240	5	96
EXTAP	57	336	7
NMTAP	58	48	0
NMTAP	58	48	6
NMTAP	58	96	0
NMTAP	58	96	6
NMTAP	58	192	1
NMTAP	58	192	7
NMSTR	58	240	1
NMSI_	58	240	1	96	96	4
NMSTR	58	240	7
NMSI_	58	240	7	96	96	3
BXHLD	59	144	1	144
BXHLD	59	144	5	144
BRTAP	60	0	2
BRTAP	60	0	4
NMTAP	60	96	0
NMTAP	60	96	1
NMTAP	60	144	0
NMTAP	60	144	1
NMTAP	60	240	6
NMTAP	60	240	7
NMTAP	60	336	4
NMTAP	60	336	5
NMTAP	61	48	2
NMTAP	61	48	3
NMTAP	61	144	0
NMTAP	61	144	1
NMTAP	61	240	2
NMTAP	61	240	7
NMTAP	61	288	2
NMTAP	61	288	7
BRTAP	62	0	3
BRTAP	62	0	4
NMTAP	62	96	0
NMTAP	62	96	2
NMTAP	62	144	0
NMTAP	62	144	2
NMTAP	62	240	5
NMTAP	62	240	7
NMTAP	62	288	5
NMTAP	62	288	7
NMTAP	63	0	3
NMTAP	63	0	4
NMTAP	63	96	1
NMTAP	63	96	7
BRTAP	63	144	1
BRTAP	63	144	7
NMTAP	63	240	2
NMTAP	63	240	6
NMHLD	63	336	5	96
NMHLD	64	48	7	96
NMHLD	64	144	1	96
NMHLD	64	240	3	96
NMHLD	64	336	5	96
NMHLD	65	48	7	96
NMHLD	65	144	1	96
NMTAP	65	240	0
NMTAP	65	288	0
NMTAP	66	0	2
NMTAP	66	0	7
NMTAP	66	48	2
NMTAP	66	48	7
NMTAP	66	144	3
NMTAP	66	144	6
NMSTR	66	240	2
NMSCL	66	240	2	96	144	5
NMTAP	66	240	5
NMTAP	67	192	3
NMTAP	67	192	4
NMTAP	67	288	0
NMTAP	67	288	7
NMTAP	68	0	1
NMTAP	68	48	1
NMTAP	68	96	0
NMTAP	68	96	2
NMTAP	68	192	6
NMTAP	68	240	6
NMTAP	68	288	5
NMTAP	68	288	7
NMTAP	69	0	2
NMTAP	69	48	2
NMTAP	69	96	3
NMTAP	69	144	3
NMHLD	69	192	1	96
NMTAP	69	288	0
NMTAP	70	0	6
NMTAP	70	48	6
NMTAP	70	96	5
NMTAP	70	96	7
NMTAP	70	192	1
NMTAP	70	240	1
NMTAP	70	288	0
NMTAP	70	288	2
NMTAP	71	0	3
NMTAP	71	0	4
NMTAP	71	96	5
NMTAP	71	96	6
NMTAP	71	192	0
NMTAP	71	192	7
BXSTR	71	288	1
NMSCR	71	288	1	96	96	4
BXSTR	71	288	5
NMSCR	71	288	5	96	96	0
NMTAP	72	192	3
NMTAP	72	192	7
EXTAP	72	288	2
EXTAP	72	288	6
EXTAP	72	336	2
EXTAP	72	336	6
NMTAP	73	48	3
NMTAP	73	48	4
BRTAP	73	144	0
BRTAP	73	144	7
BRTAP	73	240	2
BRHLD	73	240	5	144
NMSTR	74	0	4
NMSCL	74	0	4	96	96	1
NMSTR	74	192	7
NMSCL	74	192	7	96	96	4
NMTAP	75	0	0
NMHLD	75	96	1	96
NMTAP	75	192	3
NMTAP	75	240	3
NMTAP	75	288	2
NMTAP	76	0	2
NMSTR	76	0	3
NMSCR	76	0	3	96	96	6
NMSTR	76	192	0
NMSCR	76	192	0	96	96	3
NMTAP	77	0	7
NMHLD	77	96	7	96
NMTAP	77	192	4
NMTAP	77	240	4
NMTAP	77	288	5
NMSTR	78	0	6
NMSI_	78	0	6	96	48	3
NMSTR	78	0	7
NMSI_	78	0	7	96	48	3
NMSTR	78	192	0
NMSI_	78	192	0	96	48	4
NMSTR	78	192	1
NMSI_	78	192	1	96	48	4
NMSTR	79	0	6
NMSI_	79	0	6	96	48	3
NMSTR	79	0	7
NMSI_	79	0	7	96	48	3
NMTAP	79	192	0
NMTAP	79	192	1
NMTAP	79	288	2
NMTAP	79	288	7
NMHLD	80	0	6	72
NMHLD	80	72	4	72
NMTAP	80	144	5
NMTAP	80	240	2
NMTAP	80	240	3
BRSTR	80	336	0
BRSCR	80	336	0	96	192	6
BRTAP	80	336	5
EXSTR	81	240	7
NMSI_	81	240	7	96	48	3

T_REC_TAP	299
T_REC_BRK	16
T_REC_XTP	8
T_REC_BXX	3
T_REC_HLD	35
T_REC_XHO	2
T_REC_BHO	1
T_REC_BXH	2
T_REC_STR	24
T_REC_BST	1
T_REC_XST	1
T_REC_XBS	2
T_REC_TTP	8
T_REC_THO	2
T_REC_SLD	27
T_REC_BSL	2
T_REC_ALL	433
T_NUM_TAP	340
T_NUM_BRK	27
T_NUM_HLD	39
T_NUM_SLD	27
T_NUM_ALL	433
T_JUDGE_TAP	362
T_JUDGE_HLD	122
T_JUDGE_SLD	29
T_JUDGE_ALL	513
TTM_EACHPAIRS	123
TTM_SCR_TAP	170000
TTM_SCR_BRK	70200
TTM_SCR_HLD	39000
TTM_SCR_SLD	40500
TTM_SCR_ALL	319700
TTM_SCR_S	307500
TTM_SCR_SS	317000
TTM_RAT_ACV	10085

