VERSION	0.00.00	1.05.00
FES_MODE	0
BPM_DEF	156.000	156.000	156.000	156.000
MET_DEF	4	4
RESOLUTION	384
CLK_DEF	384
COMPATIBLE_CODE	MA2

BPM	0	0	156.000
MET	0	0	4	4

NMHLD	2	0	5	192
NMHLD	2	192	4	192
NMHLD	3	0	3	192
NMTAP	3	192	2
NMHLD	4	0	2	192
NMHLD	4	192	3	192
NMHLD	5	0	4	192
NMTAP	5	192	5
NMHLD	6	0	6	192
NMHLD	6	192	5	192
NMHLD	7	0	4	192
NMTAP	7	192	3
NMHLD	8	0	1	192
NMHLD	8	192	2	192
NMHLD	9	0	3	192
NMTAP	9	192	4
NMTAP	10	0	2
NMTAP	10	96	2
NMTAP	10	192	2
NMTAP	11	0	1
NMTAP	11	96	1
NMTAP	11	192	1
NMTAP	12	0	0
NMTAP	12	96	0
NMTAP	12	192	0
NMTAP	13	0	6
NMTAP	13	0	7
NMTAP	13	192	6
NMTAP	13	192	7
NMTAP	14	0	5
NMTAP	14	96	5
NMTAP	14	192	5
NMTAP	15	0	6
NMTAP	15	96	6
NMTAP	15	192	6
NMTAP	16	0	7
NMTAP	16	96	7
NMTAP	16	192	7
NMTAP	17	0	0
NMTAP	17	0	1
NMTAP	18	0	0
NMTAP	18	96	0
NMTAP	18	192	1
NMTAP	19	0	2
NMTAP	19	96	2
NMTAP	19	192	3
NMTAP	20	0	4
NMTAP	20	96	4
NMTAP	20	192	5
NMTAP	21	0	6
NMTAP	21	96	6
NMTAP	21	192	6
NMTAP	21	192	7
NMTAP	22	0	7
NMTAP	22	96	7
NMTAP	22	192	6
NMTAP	23	0	5
NMTAP	23	96	5
NMTAP	23	192	4
NMTAP	24	0	3
NMTAP	24	96	3
NMTAP	24	192	2
NMTAP	25	0	1
NMTAP	25	96	1
NMTAP	25	192	0
NMTAP	25	192	1
NMSTR	26	0	2
NMSI_	26	0	2	96	192	5
NMSTR	27	0	6
NMSI_	27	0	6	96	192	3
NMSTR	28	0	1
NMSI_	28	0	1	96	192	5
NMTAP	29	0	6
NMTAP	29	192	6
NMTAP	29	192	7
NMSTR	30	0	5
NMSI_	30	0	5	96	192	2
NMSTR	31	0	1
NMSI_	31	0	1	96	192	4
NMSTR	32	0	5
NMSI_	32	0	5	96	192	0
NMTAP	33	0	1
NMTAP	33	192	0
NMTAP	33	192	1
NMTTP	34	0	1	B	0	L1
NMTTP	34	96	2	B	0	L1
NMTTP	34	192	3	B	0	L1
NMTTP	35	0	6	B	0	L1
NMTTP	35	96	5	B	0	L1
NMTTP	35	192	4	B	0	L1
NMTTP	36	0	1	B	0	L1
NMTTP	36	96	2	B	0	L1
NMTTP	36	192	3	B	0	L1
NMTTP	36	288	4	B	0	L1
NMTTP	37	0	5	B	0	L1
NMTTP	37	96	6	B	0	L1
NMTTP	37	192	0	C	0	L1
NMTTP	38	0	7	B	0	L1
NMTTP	38	96	6	B	0	L1
NMTTP	38	192	4	B	0	L1
NMTTP	38	192	5	B	0	L1
NMTTP	39	0	0	B	0	L1
NMTTP	39	96	1	B	0	L1
NMTTP	39	192	2	B	0	L1
NMTTP	39	192	3	B	0	L1
NMTTP	40	0	6	B	0	L1
NMTTP	40	96	5	B	0	L1
NMTTP	40	192	4	B	0	L1
NMTTP	40	288	3	B	0	L1
NMTTP	41	0	0	C	1	L1
NMTAP	42	0	6
NMTAP	42	96	6
NMTAP	42	192	6
NMTAP	42	192	7
NMTAP	43	0	5
NMTAP	43	96	5
NMTAP	43	192	4
NMTAP	43	192	5
NMTAP	44	0	3
NMTAP	44	96	3
NMTAP	44	192	2
NMTAP	44	192	3
NMTAP	45	0	0
NMTAP	45	0	1
NMTAP	45	96	0
NMTAP	45	96	1
BXTAP	45	192	0
BXTAP	45	192	1
NMTAP	46	0	1
NMTAP	46	96	1
NMTAP	46	192	0
NMTAP	46	192	1
NMTAP	47	0	2
NMTAP	47	96	2
NMTAP	47	192	2
NMTAP	47	192	3
NMTAP	48	0	4
NMTAP	48	96	4
NMTAP	48	192	4
NMTAP	48	192	5
NMTAP	49	0	6
NMTAP	49	0	7
NMTAP	49	96	6
NMTAP	49	96	7
NMTAP	49	192	6
NMTAP	49	192	7
NMHLD	50	0	6	192
NMTAP	50	192	7
NMTAP	51	0	6
NMTAP	51	96	6
NMTAP	51	192	6
NMTAP	51	192	7
NMHLD	52	0	5	192
NMTAP	52	192	4
NMTAP	53	0	5
NMTAP	53	96	5
NMTAP	53	192	4
NMTAP	53	192	5
NMHLD	54	0	2	192
NMTAP	54	192	3
NMTAP	55	0	2
NMTAP	55	96	2
NMTAP	55	192	2
NMTAP	55	192	3
NMHLD	56	0	1	192
NMTAP	56	192	0
NMTAP	57	0	1
NMTAP	57	96	1
NMTAP	57	192	0
NMTAP	57	192	1
NMHLD	58	0	6	192
NMTAP	58	192	7
NMHLD	59	0	1	192
NMTAP	59	192	0
NMTAP	60	0	2
NMTAP	60	96	2
NMTAP	60	192	1
NMTAP	60	288	1
NMTAP	61	0	0
NMTAP	61	96	0
NMTAP	61	192	6
NMTAP	61	192	7
NMTAP	62	0	5
NMTAP	62	96	5
NMTAP	62	192	6
NMTAP	62	288	6
NMTAP	63	0	7
NMTAP	63	96	7
NMTAP	63	192	0
NMTAP	63	192	1
NMTAP	64	0	1
NMTAP	64	96	1
NMTAP	64	192	2
NMTAP	64	288	2
NMTAP	65	0	3
NMTAP	65	96	3
NMTAP	65	192	4
NMTAP	65	192	5
NMTAP	66	0	6
NMTAP	66	96	6
NMTAP	66	192	5
NMTAP	66	288	5
NMTAP	67	0	4
NMTAP	67	96	4
NMTAP	67	192	2
NMTAP	67	192	3
NMTAP	68	0	2
NMTAP	68	96	2
NMTAP	68	192	0
NMTAP	68	192	1
NMTAP	68	288	0
NMTAP	68	288	1
NMTAP	69	0	7
NMTAP	69	96	7
BRTAP	69	192	6
BRTAP	69	192	7
NMTAP	70	0	5
NMTAP	70	96	5
NMTAP	70	192	6
NMTAP	70	192	7
NMTAP	70	288	6
NMTAP	70	288	7
NMTAP	71	0	0
NMTAP	71	96	0
NMTAP	71	192	0
NMTAP	71	192	1
NMTAP	72	0	1
NMTAP	72	96	1
NMTAP	72	192	2
NMTAP	72	192	3
NMTAP	72	288	2
NMTAP	72	288	3
NMTAP	73	0	4
NMTAP	73	96	4
NMTAP	73	192	3
NMTAP	73	192	4
NMTAP	74	0	2
NMTAP	74	96	2
NMTAP	74	192	2
NMTAP	74	288	2
NMTAP	74	288	3
NMTAP	75	0	1
NMTAP	75	96	1
NMTAP	75	192	1
NMTAP	75	288	0
NMTAP	75	288	1
NMTAP	76	0	7
NMTAP	76	96	7
NMTAP	76	192	7
NMTAP	76	288	6
NMTAP	76	288	7
NMTAP	77	0	4
NMTAP	77	0	5
NMTAP	77	96	4
NMTAP	77	96	5
NMTAP	77	192	4
NMTAP	77	192	5
NMTAP	78	0	5
NMTAP	78	96	5
NMTAP	78	192	5
NMTAP	78	288	4
NMTAP	78	288	5
NMTAP	79	0	6
NMTAP	79	96	6
NMTAP	79	192	6
NMTAP	79	288	6
NMTAP	79	288	7
NMTAP	80	0	0
NMTAP	80	96	0
NMTAP	80	192	0
NMTAP	80	288	0
NMTAP	80	288	1
NMTAP	81	0	2
NMTAP	81	0	3
NMTAP	81	96	2
NMTAP	81	96	3
NMSTR	81	192	2
NMSI_	81	192	2	96	480	7
NMSTR	81	192	3
NMSI_	81	192	3	96	480	6

T_REC_TAP	216
T_REC_BRK	2
T_REC_XTP	0
T_REC_BXX	2
T_REC_HLD	18
T_REC_XHO	0
T_REC_BHO	0
T_REC_BXH	0
T_REC_STR	8
T_REC_BST	0
T_REC_XST	0
T_REC_XBS	0
T_REC_TTP	26
T_REC_THO	0
T_REC_SLD	8
T_REC_BSL	0
T_REC_ALL	280
T_NUM_TAP	250
T_NUM_BRK	4
T_NUM_HLD	18
T_NUM_SLD	8
T_NUM_ALL	280
T_JUDGE_TAP	254
T_JUDGE_HLD	72
T_JUDGE_SLD	8
T_JUDGE_ALL	334
TTM_EACHPAIRS	48
TTM_SCR_TAP	125000
TTM_SCR_BRK	10400
TTM_SCR_HLD	18000
TTM_SCR_SLD	12000
TTM_SCR_ALL	165400
TTM_SCR_S	160050
TTM_SCR_SS	165000
TTM_RAT_ACV	10024

