VERSION	0.00.00	1.05.00
FES_MODE	0
BPM_DEF	156.000	156.000	156.000	156.000
MET_DEF	4	4
RESOLUTION	384
CLK_DEF	384
COMPATIBLE_CODE	MA2

BPM	0	0	156.000
MET	0	0	4	4

NMTAP	2	0	0
NMTAP	3	0	0
NMTAP	4	0	0
NMTAP	5	0	0
NMTAP	6	0	7
NMTAP	7	0	7
NMTAP	8	0	7
EXTAP	9	0	0
EXTAP	9	0	7
NMTAP	10	0	1
NMTAP	11	0	2
NMTAP	12	0	3
NMTAP	13	0	4
NMTAP	14	0	5
NMTAP	15	0	6
EXHLD	16	0	0	384
EXHLD	16	0	7	384
NMHLD	18	0	6	384
NMHLD	18	0	7	384
NMHLD	20	0	4	384
NMHLD	20	0	5	384
NMHLD	22	0	2	384
NMHLD	22	0	3	384
NMHLD	24	0	0	384
NMHLD	24	0	1	384
NMTAP	26	0	1
NMTAP	26	192	1
NMTAP	27	0	0
NMTAP	27	0	1
NMTAP	28	0	2
NMTAP	28	192	2
NMTAP	29	0	2
NMTAP	29	0	3
NMTAP	30	0	5
NMTAP	30	192	5
NMTAP	31	0	4
NMTAP	31	0	5
NMTAP	32	0	6
NMTAP	32	192	6
NMTAP	33	0	6
NMTAP	33	0	7
NMTAP	34	0	7
NMTAP	34	192	7
NMTAP	35	0	6
NMTAP	35	192	6
NMTAP	36	0	5
NMTAP	36	192	5
NMTAP	37	0	3
NMTAP	37	0	4
NMTAP	38	0	3
NMTAP	38	192	3
NMTAP	39	0	2
NMTAP	39	192	2
NMTAP	40	0	1
NMTAP	40	192	1
BXTAP	41	0	0
BXTAP	41	0	7
NMSTR	42	0	0
NMSI_	42	0	0	96	288	4
NMSTR	44	0	7
NMSI_	44	0	7	96	288	3
NMSTR	46	0	1
NMSI_	46	0	1	96	288	5
NMSTR	48	0	6
NMSI_	48	0	6	96	288	2
NMTTP	50	0	0	B	0	L1
NMTTP	51	0	1	B	0	L1
NMTTP	52	0	2	B	0	L1
NMTTP	53	0	3	B	0	L1
NMTTP	54	0	4	B	0	L1
NMTTP	55	0	5	B	0	L1
NMTTP	56	0	6	B	0	L1
NMTHO	57	0	0	336	C	1	L1
EXTAP	59	0	0
EXTAP	59	0	7
BRTAP	60	0	0
NMTAP	60	96	0
NMTAP	60	192	0
NMTAP	61	0	1
NMTAP	61	192	1
NMTAP	62	0	2
NMTAP	62	96	2
NMTAP	62	192	2
NMTAP	63	0	3
NMTAP	63	0	4
NMTAP	64	0	4
NMTAP	64	96	4
NMTAP	64	192	4
NMTAP	65	0	5
NMTAP	65	192	5
NMTAP	66	0	6
NMTAP	66	96	6
NMTAP	66	192	6
EXTAP	67	0	0
EXTAP	67	0	7
NMTAP	68	0	7
NMTAP	68	96	7
NMTAP	68	192	7
NMTAP	69	0	6
NMTAP	69	96	6
NMTAP	69	192	6
NMTAP	70	0	5
NMTAP	70	96	5
NMTAP	70	192	5
NMTAP	71	0	3
NMTAP	71	0	4
NMTAP	71	192	3
NMTAP	71	192	4
NMTAP	72	0	2
NMTAP	72	96	2
NMTAP	72	192	2
NMTAP	73	0	1
NMTAP	73	96	1
EXTAP	73	192	0
EXTAP	73	192	1
NMHLD	74	0	0	192
NMHLD	74	0	1	192
NMTAP	75	0	2
NMTAP	75	96	2
NMTAP	75	192	2
NMHLD	76	0	3	192
NMHLD	76	0	4	192
NMTAP	77	0	5
NMTAP	77	96	5
NMTAP	77	192	5
NMHLD	78	0	6	192
NMHLD	78	0	7	192
NMTAP	79	0	0
NMTAP	79	96	0
NMTAP	79	192	0
NMTAP	80	0	7
NMTAP	80	96	7
NMSTR	80	192	7
NMSI_	80	192	7	96	432	3

T_REC_TAP	89
T_REC_BRK	1
T_REC_XTP	8
T_REC_BXX	2
T_REC_HLD	14
T_REC_XHO	2
T_REC_BHO	0
T_REC_BXH	0
T_REC_STR	5
T_REC_BST	0
T_REC_XST	0
T_REC_XBS	0
T_REC_TTP	7
T_REC_THO	1
T_REC_SLD	5
T_REC_BSL	0
T_REC_ALL	134
T_NUM_TAP	109
T_NUM_BRK	3
T_NUM_HLD	17
T_NUM_SLD	5
T_NUM_ALL	134
T_JUDGE_TAP	112
T_JUDGE_HLD	111
T_JUDGE_SLD	5
T_JUDGE_ALL	228
TTM_EACHPAIRS	21
TTM_SCR_TAP	54500
TTM_SCR_BRK	7800
TTM_SCR_HLD	17000
TTM_SCR_SLD	7500
TTM_SCR_ALL	86800
TTM_SCR_S	83950
TTM_SCR_SS	86500
TTM_RAT_ACV	10034

