VERSION	0.00.00	1.05.00
FES_MODE	0
BPM_DEF	156.000	156.000	234.000	156.000
MET_DEF	4	4
RESOLUTION	384
CLK_DEF	384
COMPATIBLE_CODE	MA2

BPM	0	0	156.000
BPM	44	0	234.000
BPM	56	0	156.000
MET	0	0	4	4
MET	10	0	4	5
MET	11	96	4	4
MET	27	96	4	2
MET	27	288	4	4
MET	42	288	4	5
MET	44	0	4	6
MET	56	0	4	2
MET	56	192	4	4
MET	79	192	4	3

EXTAP	1	288	0
EXTAP	1	288	7
NMTAP	2	0	1
NMTTP	2	0	5	E	1	M1
NMTTP	2	64	3	B	1	M1
NMTAP	2	64	6
NMTAP	2	128	2
NMTTP	2	128	7	E	1	M1
NMTTP	2	192	4	E	1	M1
NMTAP	2	192	5
NMTTP	2	256	0	C	1	M1
NMTAP	2	256	1
EXSTR	2	336	7
NMSI_	2	336	7	96	48	5
NMSTR	3	0	1
NMSI_	3	0	1	96	48	3
NMTAP	3	48	7
NMTAP	3	96	1
NMTAP	3	144	4
NMTAP	3	192	2
NMTAP	3	192	3
NMHLD	3	240	1	96
NMTAP	3	288	0
NMTAP	3	312	7
NMTAP	3	336	6
NMTAP	3	360	5
NMTAP	4	0	2
NMTAP	4	0	4
NMTAP	4	48	6
NMTAP	4	96	3
NMTAP	4	96	5
NMTAP	4	144	2
NMSTR	4	192	1
NMSI_	4	192	1	96	48	4
NMTAP	4	216	0
NMTAP	4	240	1
NMTAP	4	264	0
NMTAP	4	288	1
NMTAP	4	336	7
NMTAP	5	0	3
NMTAP	5	0	6
NMTAP	5	48	5
NMTAP	5	72	4
NMTAP	5	96	6
NMTAP	5	144	1
NMTAP	5	144	7
NMTAP	5	192	0
NMTAP	5	192	6
NMTAP	5	240	2
NMTAP	5	264	3
NMTAP	5	288	1
NMTAP	5	336	0
NMHLD	5	336	6	48
NMTAP	6	0	7
NMTAP	6	24	0
NMTAP	6	48	1
NMTAP	6	72	2
NMTAP	6	96	7
NMTAP	6	108	0
NMTAP	6	120	1
NMTAP	6	132	2
NMTAP	6	144	3
NMTAP	6	156	4
NMTAP	6	168	1
NMSTR	6	168	5
BRSV_	6	168	5	96	72	7
NMSTR	6	216	1
NMSI_	6	216	1	96	48	4
NMTAP	6	216	5
NMTAP	7	0	6
NMTAP	7	24	6
NMTAP	7	48	4
NMTAP	7	72	5
NMTAP	7	96	2
NMTAP	7	120	2
NMTAP	7	144	3
NMTAP	7	168	1
BRTAP	7	192	7
NMSTR	7	240	2
BRSCR	7	240	2	96	48	5
NMTAP	7	264	0
NMTAP	7	288	1
NMTAP	7	312	0
NMTAP	7	336	2
NMTAP	8	0	6
NMTAP	8	24	6
NMTAP	8	48	7
NMTAP	8	96	4
NMTAP	8	96	5
NMTAP	8	144	2
NMTAP	8	144	3
NMTAP	8	192	1
NMTAP	8	216	0
NMSTR	8	240	2
NMSI_	8	240	2	96	48	6
NMTAP	8	264	7
NMTAP	8	288	3
NMTAP	8	336	2
NMTAP	9	0	4
NMTAP	9	48	5
NMTAP	9	48	7
NMTAP	9	96	0
NMTAP	9	96	7
NMTAP	9	144	2
NMTAP	9	168	0
NMTAP	9	192	1
NMTAP	9	240	5
NMTAP	9	264	7
NMTAP	9	288	6
NMTAP	9	336	0
NMTAP	9	336	7
NMTAP	10	0	2
NMTAP	10	24	3
NMTAP	10	72	1
NMTAP	10	72	4
NMTAP	10	144	5
NMTAP	10	168	4
NMTAP	10	216	3
NMTAP	10	216	6
NMSTR	10	264	0
NMSI_	10	264	0	96	48	4
NMSTR	10	264	7
NMSI_	10	264	7	96	48	3
NMTAP	11	96	6
NMTAP	11	120	4
NMTAP	11	144	6
NMTAP	11	192	6
NMTAP	11	216	4
NMTAP	11	240	6
NMTAP	11	264	4
NMTAP	11	288	6
NMTAP	11	336	6
NMTAP	11	360	4
NMTAP	12	0	6
NMTAP	12	48	6
NMTAP	12	96	6
NMTAP	12	120	5
NMTAP	12	144	6
NMTAP	12	192	6
NMTAP	12	216	5
NMTAP	12	240	6
NMTAP	12	264	5
NMTAP	12	288	6
NMTAP	12	336	6
NMTAP	12	360	5
NMTAP	13	0	6
NMTAP	13	48	6
NMTAP	13	96	6
NMTAP	13	120	7
NMTAP	13	144	6
NMTAP	13	192	6
NMTAP	13	216	7
NMTAP	13	240	6
NMTAP	13	264	7
NMTAP	13	288	6
NMTAP	13	336	6
NMTAP	13	360	7
NMTAP	14	0	6
NMTAP	14	48	6
NMTAP	14	96	6
NMTAP	14	120	5
NMTAP	14	144	6
NMTAP	14	192	6
NMTAP	14	216	5
NMTAP	14	240	6
NMTAP	14	264	5
NMTAP	14	288	6
NMTAP	14	336	6
NMTAP	14	360	5
NMTAP	15	0	6
NMTAP	15	48	3
NMTAP	15	48	4
EXTAP	15	96	2
NMTAP	15	120	3
EXTAP	15	144	2
NMTAP	15	192	2
NMTAP	15	216	3
EXTAP	15	240	2
NMTAP	15	264	3
EXTAP	15	288	2
NMTAP	15	336	2
NMTAP	15	360	3
EXTAP	16	0	2
EXTAP	16	48	2
EXTAP	16	96	2
NMTAP	16	120	1
EXTAP	16	144	2
NMTAP	16	192	2
NMTAP	16	216	1
EXTAP	16	240	2
NMTAP	16	264	1
EXTAP	16	288	2
NMTAP	16	336	2
NMTAP	16	360	1
EXTAP	17	0	2
EXTAP	17	48	2
EXTAP	17	96	2
NMTAP	17	120	0
EXTAP	17	144	2
NMTAP	17	192	2
NMTAP	17	216	0
EXTAP	17	240	2
NMTAP	17	264	0
EXTAP	17	288	2
NMTAP	17	336	2
NMTAP	17	360	0
EXTAP	18	0	2
EXTAP	18	48	0
EXTAP	18	48	2
NMTAP	18	96	1
NMTAP	18	120	1
NMTAP	18	144	1
NMTAP	18	192	0
NMTAP	18	192	2
NMHLD	18	216	0	48
NMHLD	18	216	2	48
EXTAP	18	288	3
EXTAP	18	288	7
NMTAP	18	312	4
NMTAP	18	312	6
NMTAP	18	336	5
EXTAP	19	0	6
NMTAP	19	24	5
NMTAP	19	24	7
NMTAP	19	48	0
NMTAP	19	48	4
NMTAP	19	96	2
NMHLD	19	144	2	96
NMTAP	19	192	0
NMHLD	19	240	0	96
NMTAP	19	288	7
NMHLD	19	336	7	96
NMTAP	20	0	5
NMHLD	20	48	5	192
NMTAP	20	96	7
NMTAP	20	144	6
NMTAP	20	192	4
NMHLD	20	240	3	192
NMTAP	20	288	0
NMTAP	20	336	7
NMTAP	21	0	6
NMTAP	21	48	5
NMHLD	21	96	4	48
NMHLD	21	144	5	48
NMHLD	21	192	6	48
NMHLD	21	240	7	48
NMHLD	21	288	0	48
NMHLD	21	336	1	48
NMHLD	22	0	2	48
NMHLD	22	48	3	96
NMTAP	22	96	0
NMHLD	22	144	2	96
NMTAP	22	192	0
NMHLD	22	240	4	96
NMTAP	22	288	7
NMHLD	22	336	5	48
NMTAP	23	0	7
NMTAP	23	48	0
NMTAP	23	48	6
NMTAP	23	96	1
NMTAP	23	120	7
NMTAP	23	144	1
NMTAP	23	168	7
NMTAP	23	192	2
NMTAP	23	216	6
NMTAP	23	240	2
NMTAP	23	264	6
NMTAP	23	288	3
NMTAP	23	312	5
NMTAP	23	336	3
NMSTR	24	0	2
NMSCL	24	0	2	96	48	7
NMSTR	24	0	6
NMSCL	24	0	6	96	48	3
NMTAP	24	48	3
NMTAP	24	48	7
NMSTR	24	96	2
NMSI_	24	96	2	96	48	6
NMTAP	24	96	6
NMSTR	24	192	0
NMSI_	24	192	0	96	48	4
NMTAP	24	192	2
NMTAP	24	288	0
NMTAP	24	288	5
NMSTR	25	0	3
NMSCL	25	0	3	96	144	5
BXTAP	25	0	7
NMTAP	25	24	3
NMTAP	25	24	7
NMTTP	25	96	1	B	0	M1
NMTTP	25	96	2	B	0	M1
NMTTP	25	96	2	E	1	M1
NMTAP	25	96	3
NMHLD	25	288	3	144
NMTAP	26	0	2
NMTAP	26	48	2
NMHLD	26	96	2	24
NMHLD	26	96	3	24
NMHLD	26	144	2	24
NMHLD	26	144	3	24
NMHLD	26	192	2	24
NMHLD	26	192	3	24
NMHLD	26	240	1	24
NMHLD	26	240	4	24
NMSTR	26	288	0
NMSI_	26	288	0	96	48	6
NMHLD	26	288	5	24
NMHLD	26	336	6	24
NMSTR	27	0	0
NMSI_	27	0	0	96	48	4
NMHLD	27	0	7	192
CNSV_	27	144	4	0	48	3
CNSCL	27	192	3	0	48	2
EXTAP	27	240	7
EXTAP	27	288	7
NMTAP	27	336	5
NMTAP	28	0	2
NMTAP	28	48	1
NMTAP	28	48	3
NMSTR	28	96	6
NMSXR	28	96	6	96	72	5
NMTAP	28	144	5
NMTAP	28	144	7
NMTAP	28	192	7
NMTAP	28	216	0
NMTAP	28	240	1
NMTAP	28	264	2
BXTAP	28	288	3
NMTAP	28	336	4
NMTAP	28	336	5
NMTAP	29	0	6
NMTAP	29	0	7
NMTAP	29	48	0
NMTAP	29	48	1
NMTAP	29	96	2
NMTAP	29	120	3
NMTAP	29	144	1
NMTAP	29	168	4
NMSTR	29	192	0
NMSI_	29	192	0	96	48	4
NMTAP	29	240	1
NMTAP	29	240	7
NMSTR	29	288	0
NMSCL	29	288	0	96	48	5
NMTAP	29	336	6
NMTAP	29	360	6
NMSTR	30	0	0
NMSCR	30	0	0	96	48	3
NMTAP	30	48	3
NMTAP	30	72	3
NMTAP	30	96	0
NMTAP	30	144	7
NMTAP	30	168	7
NMTAP	30	192	2
NMHLD	30	240	1	48
NMTAP	30	288	0
NMTAP	30	312	7
NMTAP	30	336	6
NMTAP	30	360	5
NMTAP	31	0	0
NMTAP	31	12	7
NMTAP	31	24	6
NMTAP	31	36	5
NMTAP	31	48	4
NMTAP	31	60	3
NMTAP	31	72	2
NMSTR	31	72	6
BRSV_	31	72	6	96	72	7
NMSTR	31	120	2
NMSI_	31	120	2	96	48	4
NMTAP	31	120	6
NMTAP	31	288	6
NMTAP	31	312	6
NMTAP	31	336	4
NMTAP	31	360	5
NMTAP	32	0	2
NMTAP	32	24	2
NMTAP	32	48	3
NMTAP	32	72	1
BRTAP	32	96	7
NMSTR	32	144	2
BRSCR	32	144	2	96	48	5
NMTAP	32	168	0
NMTAP	32	192	1
NMTAP	32	216	0
NMTAP	32	240	2
NMTAP	32	288	6
NMTAP	32	312	6
NMTAP	32	336	4
NMTAP	33	0	5
NMSTR	33	48	4
NMSXR	33	48	4	96	144	0
NMTAP	33	48	6
NMHLD	33	96	5	24
NMHLD	33	144	5	24
NMHLD	33	192	6	24
NMHLD	33	240	6	24
NMSTR	33	288	6
NMSCR	33	288	6	96	48	1
NMTAP	33	336	5
NMSTR	34	0	2
NMSI_	34	0	2	96	48	7
NMTAP	34	48	3
NMTAP	34	96	4
NMTAP	34	144	5
NMTAP	34	192	0
NMTAP	34	192	6
NMTAP	34	240	0
NMHLD	34	240	6	96
NMTAP	34	288	7
NMTAP	34	312	0
NMTAP	34	336	1
NMTAP	34	360	2
NMTAP	35	0	7
NMTAP	35	12	0
NMTAP	35	24	1
NMTAP	35	36	2
NMTAP	35	48	3
NMTAP	35	60	4
NMSTR	35	72	1
BRSV_	35	72	1	96	72	2
NMTAP	35	72	5
NMTAP	35	120	1
NMSTR	35	120	5
NMSXL	35	120	5	96	72	7
NMHLD	35	288	1	48
BRTAP	35	336	7
NMTAP	36	0	4
NMHLD	36	0	6	48
BRTAP	36	48	0
NMSTR	36	96	1
NMSV_	36	96	1	96	48	4
NMSTR	36	96	7
NMSV_	36	96	7	96	48	4
NMTAP	36	144	2
NMTAP	36	144	6
BRTAP	36	192	1
BRTAP	36	192	7
NMSTR	36	288	3
NMSXR	36	288	3	96	96	3
NMTAP	36	312	5
NMTAP	36	336	4
NMTAP	36	360	5
NMSTR	37	0	3
NMSXL	37	0	3	96	96	3
NMTAP	37	48	6
NMTAP	37	96	6
NMTAP	37	144	7
NMSTR	37	192	7
NMSI_	37	192	7	96	48	3
NMHLD	37	288	1	24
NMSTR	37	288	7
NMSI_	37	288	7	96	48	5
NMHLD	37	336	1	24
NMHLD	38	0	0	24
NMSTR	38	0	7
NMSI_	38	0	7	96	48	3
NMHLD	38	48	0	24
NMHLD	38	96	1	24
NMSTR	38	96	7
NMSI_	38	96	7	96	48	2
NMHLD	38	144	1	24
NMTAP	38	192	0
NMTAP	38	192	7
NMTAP	38	240	0
NMTAP	38	288	0
NMTAP	38	288	3
NMTAP	38	336	1
NMTAP	38	360	3
NMTAP	39	0	2
NMTAP	39	24	5
NMTAP	39	48	4
NMTAP	39	72	6
NMSTR	39	96	2
NMSI_	39	96	2	96	48	5
NMTAP	39	144	1
NMTAP	39	168	0
NMTAP	39	192	2
NMTAP	39	240	7
NMTAP	39	264	7
NMSTR	39	288	0
NMSI_	39	288	0	96	48	2
NMSTR	39	336	6
NMSI_	39	336	6	96	48	4
NMTAP	39	336	7
NMTAP	40	0	0
NMTAP	40	48	6
NMSTR	40	96	1
NMSXL	40	96	1	96	72	2
NMTAP	40	144	0
NMTAP	40	144	2
NMTAP	40	192	0
NMTAP	40	216	7
NMTAP	40	240	6
NMTAP	40	264	5
BXTAP	40	288	4
NMTAP	40	336	2
NMTAP	40	336	3
NMTAP	41	0	0
NMTAP	41	0	1
NMTAP	41	48	6
NMTAP	41	48	7
EXTAP	41	96	4
NMTAP	41	120	5
NMTAP	41	144	3
NMTAP	41	168	4
NMTAP	41	192	2
NMTAP	41	240	1
NMTAP	41	240	5
NMSTR	41	288	2
NMSI_	41	288	2	96	48	4
NMTAP	41	288	7
NMTAP	41	336	1
NMTAP	41	360	0
NMTAP	42	0	2
NMTAP	42	48	7
NMSTR	42	96	6
NMSI_	42	96	6	96	48	0
NMTAP	42	144	5
NMTAP	42	168	4
NMTAP	42	192	6
NMHLD	42	240	1	48
NMTAP	42	288	0
NMTAP	42	312	7
NMTAP	42	336	6
NMTAP	42	360	5
NMTAP	43	0	0
NMTAP	43	12	7
NMTAP	43	24	6
NMTAP	43	36	5
NMTAP	43	48	4
NMTAP	43	60	3
NMTAP	43	72	2
NMTAP	43	72	6
NMHLD	43	120	2	168
NMHLD	43	120	6	120
NMHLD	44	0	4	48
NMSTR	44	0	6
NMSLR	44	0	6	96	384	5
NMHLD	44	96	4	48
NMHLD	44	192	4	48
NMHLD	44	288	4	48
NMHLD	45	0	4	48
NMHLD	45	96	4	48
CNSI_	45	96	5	0	216	1
NMHLD	45	192	4	48
NMHLD	45	288	4	48
CNSI_	45	312	1	0	144	3
NMHLD	46	0	4	48
CNSI_	46	72	3	0	216	7
NMHLD	46	96	4	48
NMHLD	46	192	4	48
NMTAP	46	288	4
NMSTR	47	0	4
NMSI_	47	0	4	96	192	0
NMHLD	47	0	6	48
NMHLD	47	96	6	48
NMHLD	47	192	6	48
CNSI_	47	288	0	0	192	3
NMHLD	47	288	6	48
NMHLD	48	0	6	48
CNSI_	48	96	3	0	144	5
NMHLD	48	96	6	48
NMHLD	48	192	6	48
CNSI_	48	240	5	0	192	2
NMHLD	48	288	6	48
NMHLD	49	0	6	48
CNSI_	49	48	2	0	240	7
NMHLD	49	96	6	48
NMHLD	49	192	6	48
NMTAP	49	288	6
NMHLD	50	0	0	48
NMSTR	50	0	5
NMSLL	50	0	5	96	360	6
NMHLD	50	96	0	48
NMHLD	50	192	0	48
NMHLD	50	288	0	48
NMHLD	51	0	0	48
CNSI_	51	72	6	0	192	2
NMHLD	51	96	0	48
NMHLD	51	192	1	48
CNSI_	51	264	2	0	216	4
NMHLD	51	288	1	48
NMHLD	52	0	1	48
NMHLD	52	96	1	48
CNSI_	52	96	4	0	192	7
NMHLD	52	192	1	48
NMTAP	52	288	1
NMSTR	53	0	0
NMSLR	53	0	0	96	360	7
NMHLD	53	0	3	48
NMHLD	53	96	3	48
NMHLD	53	192	3	48
NMHLD	53	288	3	48
NMHLD	54	0	3	48
CNSI_	54	72	7	0	192	4
NMHLD	54	96	3	48
NMHLD	54	192	2	48
CNSV_	54	264	4	0	168	6
NMHLD	54	288	2	48
NMHLD	55	0	2	48
CNSI_	55	48	6	0	240	1
NMHLD	55	96	2	48
NMHLD	55	192	2	48
NMTAP	55	288	2
NMHLD	56	0	0	96
NMHLD	56	0	3	96
NMTAP	56	144	2
NMTAP	56	144	7
NMTAP	56	192	0
NMTAP	56	192	5
NMTAP	56	240	6
NMTAP	56	240	7
NMTAP	56	288	4
NMTAP	56	288	5
NMTAP	56	312	4
NMHLD	56	312	5	120
NMTTP	56	360	4	D	0	M1
NMTTP	57	0	3	D	0	M1
NMTTP	57	24	2	D	0	M1
NMTTP	57	48	1	D	0	M1
NMTTP	57	72	0	D	0	M1
NMTTP	57	96	7	D	0	M1
NMTAP	57	144	5
NMTAP	57	168	5
NMTAP	57	192	4
NMTAP	57	240	6
NMTAP	57	264	6
NMSTR	57	288	7
NMSCR	57	288	7	96	24	2
NMTAP	57	336	0
NMHLD	57	336	5	144
CNSCL	58	24	2	0	72	7
NMTAP	58	144	6
NMTAP	58	168	6
NMTAP	58	192	7
NMTAP	58	240	5
NMTAP	58	264	5
NMTAP	58	288	4
NMTAP	58	336	3
NMHLD	58	336	5	144
NMTTP	59	0	2	A	0	M1
NMTTP	59	24	2	E	0	M1
NMTTP	59	48	1	E	0	M1
NMTTP	59	72	0	A	0	M1
NMTTP	59	96	0	E	0	M1
NMTTP	59	120	7	E	0	M1
NMTAP	59	144	5
NMTAP	59	168	5
NMTAP	59	192	4
NMTAP	59	240	7
NMTAP	59	264	7
NMSTR	59	288	4
NMSLL	59	288	4	96	72	0
NMTAP	59	336	3
NMHLD	59	336	6	144
CNSLR	60	72	0	0	72	4
NMTAP	60	192	7
NMTAP	60	216	6
NMTAP	60	240	5
NMTAP	60	264	4
NMTAP	60	288	3
NMTAP	60	312	2
NMTAP	60	336	1
NMTAP	60	360	0
EXTAP	61	0	5
EXTAP	61	0	7
NMTAP	61	24	4
NMTAP	61	48	3
NMTAP	61	72	2
NMTAP	61	96	1
NMTAP	61	120	0
NMTAP	61	144	7
NMTAP	61	168	6
NMTAP	61	192	3
NMTAP	61	192	5
NMTAP	61	216	2
NMTAP	61	240	1
NMTAP	61	264	0
NMTAP	61	288	7
NMTAP	61	312	6
NMTAP	61	336	5
NMTAP	61	360	4
EXTAP	62	0	1
EXTAP	62	0	3
NMTAP	62	24	0
NMTAP	62	48	7
NMTAP	62	72	6
NMTAP	62	96	5
NMTAP	62	120	4
NMTAP	62	144	3
NMTAP	62	168	2
EXTAP	62	192	1
EXSTR	62	192	5
NMSCR	62	192	5	96	96	1
NMTAP	62	288	1
NMTAP	62	288	5
NMTAP	62	312	2
NMTAP	62	336	3
NMHLD	62	360	4	120
NMTAP	63	48	0
NMTAP	63	96	0
NMTAP	63	144	2
NMTAP	63	144	6
NMTAP	63	192	0
NMTAP	63	216	0
NMTAP	63	240	7
NMTAP	63	264	1
NMTAP	63	288	1
NMTAP	63	312	6
NMTAP	63	336	0
NMTAP	63	360	7
NMTAP	64	0	7
NMTAP	64	24	0
NMTAP	64	48	6
NMTAP	64	72	6
BRTAP	64	96	0
NMHLD	64	192	1	192
NMHLD	65	0	3	192
NMHLD	65	192	4	288
NMHLD	66	0	6	96
NMHLD	66	192	5	192
NMHLD	67	0	7	192
NMHLD	67	192	0	192
NMTAP	68	0	1
BRTAP	68	48	1
BRTAP	68	72	4
BRTAP	68	96	3
BRTAP	68	120	6
BRTAP	68	144	0
NMTAP	68	192	2
NMTAP	68	216	3
NMTAP	68	240	1
NMTAP	68	264	5
NMTAP	68	288	4
NMTAP	68	312	6
NMTAP	68	336	1
NMTAP	68	360	0
NMSTR	69	0	2
BRSI_	69	0	2	96	48	4
NMSTR	69	48	1
NMSI_	69	48	1	96	48	5
NMTAP	69	96	2
NMTAP	69	144	1
NMTAP	69	192	4
NMTAP	69	216	4
NMHLD	69	240	6	48
NMTAP	69	288	7
NMTAP	69	336	4
NMTAP	69	336	5
NMTAP	70	0	2
NMTAP	70	24	3
NMTAP	70	48	1
NMTAP	70	72	3
NMTAP	70	96	0
NMTAP	70	144	6
NMTAP	70	144	7
NMSTR	70	192	5
NMSCR	70	192	5	96	96	2
NMTAP	70	240	4
NMSTR	70	288	3
NMSI_	70	288	3	96	48	0
NMTAP	70	336	4
NMTAP	71	0	3
NMTAP	71	48	5
NMTAP	71	96	1
NMTAP	71	96	7
NMHLD	71	144	1	48
NMTAP	71	144	7
NMTAP	71	192	0
NMTAP	71	216	7
NMTAP	71	240	6
NMTAP	71	264	5
NMTAP	71	288	0
NMTAP	71	300	7
NMTAP	71	312	6
NMTAP	71	324	5
NMTAP	71	336	4
NMTAP	71	348	3
NMSTR	71	360	2
BRSXR	71	360	2	96	72	0
NMTAP	71	360	6
NMTAP	72	24	2
NMSTR	72	24	6
NMSV_	72	24	6	96	72	5
NMSTR	72	192	1
NMSI_	72	192	1	96	48	3
BRTAP	72	240	0
NMTAP	72	288	1
NMSTR	72	288	7
NMSI_	72	288	7	96	48	5
BRSTR	72	336	0
NMSI_	72	336	0	96	48	4
NMSTR	73	0	7
NMSI_	73	0	7	96	48	3
BRTAP	73	48	0
BRTAP	73	96	7
NMTAP	73	144	0
NMTAP	73	192	1
NMTAP	73	216	4
NMTAP	73	240	2
NMTAP	73	264	5
NMTAP	73	288	3
NMTAP	73	312	6
NMTAP	73	336	2
NMTAP	73	360	5
NMTAP	74	0	1
NMTAP	74	24	4
NMTAP	74	48	0
NMTAP	74	72	3
NMSTR	74	96	1
NMSCR	74	96	1	96	48	4
NMSTR	74	192	1
NMSI_	74	192	1	96	48	6
NMSTR	74	192	5
NMSI_	74	192	5	96	48	2
NMTAP	74	240	6
NMTAP	74	288	1
NMSTR	74	288	5
NMSCR	74	288	5	96	48	0
NMTAP	75	0	1
NMTAP	75	0	5
NMTAP	75	48	2
NMTAP	75	72	2
NMTAP	75	96	7
NMTAP	75	144	3
NMTAP	75	144	6
NMTAP	75	192	2
NMTAP	75	216	4
NMTAP	75	240	1
NMTAP	75	264	4
NMTAP	75	288	0
NMTAP	75	312	4
NMTAP	75	336	7
NMTAP	75	360	4
NMSTR	76	0	5
NMSI_	76	0	5	96	48	1
NMSTR	76	0	6
NMSI_	76	0	6	96	48	2
NMTAP	76	48	4
NMTAP	76	48	7
BRTAP	76	96	5
BRTAP	76	96	6
NMTTP	76	192	0	A	0	M1
NMTTP	76	208	1	E	0	M1
NMTTP	76	224	2	E	0	M1
NMTTP	76	240	6	E	0	M1
NMTTP	76	256	5	E	0	M1
NMTTP	76	272	4	A	0	M1
NMTTP	76	288	0	C	0	M1
NMTTP	76	304	3	B	0	M1
NMTTP	76	320	3	A	0	M1
NMTAP	76	336	6
NMSTR	77	0	6
NMSXR	77	0	6	96	96	6
NMTAP	77	48	5
NMTAP	77	48	7
NMTAP	77	96	7
NMTAP	77	120	0
NMTAP	77	144	1
NMTAP	77	168	2
BXTAP	77	192	3
NMTAP	77	240	4
NMTAP	77	240	7
NMTAP	77	288	2
NMTAP	77	288	5
NMTAP	77	336	0
NMTAP	77	336	3
NMTAP	78	0	1
NMTAP	78	16	2
NMTAP	78	32	1
NMTAP	78	48	2
NMTAP	78	64	1
NMTAP	78	80	2
NMTAP	78	96	1
NMTAP	78	144	0
NMTAP	78	144	3
NMTAP	78	192	1
NMTAP	78	216	1
NMTAP	78	240	3
NMTAP	78	264	3
NMTAP	78	288	5
NMTAP	78	312	5
NMTAP	78	336	7
NMTAP	78	360	7
NMTAP	79	0	0
NMTAP	79	12	1
NMTAP	79	24	2
NMTAP	79	36	3
NMTAP	79	48	4
NMTAP	79	60	5
NMTAP	79	72	6
NMTAP	79	84	7
NMTAP	79	96	0
NMTAP	79	108	1
NMTAP	79	120	2
NMTAP	79	132	3
NMTAP	79	144	4
NMTAP	79	156	5
NMTAP	79	168	6
NMTAP	79	180	7
EXHLD	79	192	0	72
EXHLD	79	192	3	72
NMTAP	79	336	4
NMTAP	79	336	7
NMTAP	79	360	4
NMTAP	79	360	7
NMTTP	80	24	5	A	0	M1
NMTTP	80	24	5	D	0	M1
NMTTP	80	24	6	A	0	M1
NMTTP	80	24	6	D	0	M1
NMTTP	80	24	7	D	0	M1
NMTAP	80	96	0
NMTAP	80	96	3
NMTAP	80	120	0
NMTAP	80	120	3
NMTTP	80	168	1	A	0	M1
NMTTP	80	168	1	D	0	M1
NMTTP	80	168	2	A	0	M1
NMTTP	80	168	2	D	0	M1
NMTTP	80	168	3	D	0	M1
NMTAP	80	240	3
NMTAP	80	240	4
NMTAP	80	264	3
NMTAP	80	264	4
NMTAP	80	312	0
NMHLD	80	312	6	72
NMTAP	81	0	0
NMTAP	81	24	1
NMTTP	81	48	0	E	1	M1
NMTAP	81	48	2
NMTAP	81	72	3
NMTAP	81	96	4
NMTTP	81	120	2	E	1	M1
NMTAP	81	120	5
NMTAP	81	144	6
NMTAP	81	168	7
NMTAP	81	192	0
NMTTP	81	192	4	E	1	M1
NMTAP	81	216	1
NMTAP	81	240	2
NMTAP	81	264	3
NMTTP	81	264	7	E	1	M1
NMTAP	81	288	4
NMTAP	81	312	5
NMTTP	81	336	2	E	1	M1
NMTAP	81	336	6
NMTAP	81	360	7
NMTAP	82	0	0
NMTAP	82	24	1
NMTTP	82	24	6	E	1	M1
NMTAP	82	48	2
NMTAP	82	72	3
NMTAP	82	96	4
NMTAP	82	120	5
NMTAP	82	120	6
NMSTR	82	168	0
NMSCL	82	168	0	120	48	7
NMTAP	82	168	1
CNSI_	82	336	7	0	72	4
BRTAP	83	96	2
NMTAP	83	108	1
NMTAP	83	108	3
NMHLD	83	120	0	72
NMTAP	83	120	4
NMTHO	83	192	0	12	C	1	M1

T_REC_TAP	601
T_REC_BRK	18
T_REC_XTP	32
T_REC_BXX	4
T_REC_HLD	111
T_REC_XHO	2
T_REC_BHO	0
T_REC_BXH	0
T_REC_STR	64
T_REC_BST	1
T_REC_XST	2
T_REC_XBS	0
T_REC_TTP	45
T_REC_THO	1
T_REC_SLD	60
T_REC_BSL	7
T_REC_ALL	948
T_NUM_TAP	744
T_NUM_BRK	30
T_NUM_HLD	114
T_NUM_SLD	60
T_NUM_ALL	948
T_JUDGE_TAP	767
T_JUDGE_HLD	175
T_JUDGE_SLD	67
T_JUDGE_ALL	1009
TTM_EACHPAIRS	121
TTM_SCR_TAP	372000
TTM_SCR_BRK	78000
TTM_SCR_HLD	114000
TTM_SCR_SLD	90000
TTM_SCR_ALL	654000
TTM_SCR_S	631500
TTM_SCR_SS	651000
TTM_RAT_ACV	10046

