VERSION	0.00.00	1.05.00
FES_MODE	0
BPM_DEF	156.000	156.000	234.000	156.000
MET_DEF	4	4
RESOLUTION	384
CLK_DEF	384
COMPATIBLE_CODE	MA2

BPM	0	0	156.000
BPM	44	0	234.000
BPM	56	0	156.000
MET	0	0	4	4
MET	10	0	4	5
MET	12	96	4	4
MET	27	96	4	2
MET	27	288	4	4
MET	42	288	4	5
MET	44	0	4	6
MET	56	0	4	2
MET	56	192	4	4
MET	79	192	4	3
MET	80	96	4	3

BXSTR	1	288	0
BRSI_	1	288	0	96	72	5
CNSI_	2	72	5	0	72	1
CNSI_	2	144	1	0	96	4
NMTAP	2	336	6
NMTAP	3	0	6
NMTAP	3	48	4
NMTAP	3	96	5
NMTAP	3	144	2
NMTAP	3	192	2
NMTAP	3	240	3
NMTAP	3	288	1
NMTAP	3	336	6
NMTAP	4	0	6
NMTAP	4	48	7
NMTAP	4	96	5
NMTAP	4	144	3
NMTAP	4	192	3
NMTAP	4	240	4
NMTAP	4	288	2
NMTAP	4	336	3
NMTAP	5	0	1
NMTAP	5	48	1
NMTAP	5	96	3
NMTAP	5	144	2
NMTAP	5	192	5
NMTAP	5	240	5
NMSTR	5	288	3
NMSCL	5	288	3	96	48	0
NMSTR	6	0	7
NMSCL	6	0	7	96	48	4
NMTAP	6	240	2
NMTAP	6	240	3
NMTAP	6	288	2
NMTAP	6	288	3
NMTAP	6	336	1
NMTAP	7	0	1
NMTAP	7	48	3
NMTAP	7	96	2
NMTAP	7	144	5
NMTAP	7	192	5
NMTAP	7	240	4
NMTAP	7	288	6
NMTAP	7	336	1
NMTAP	8	0	1
NMTAP	8	48	0
NMTAP	8	96	2
NMTAP	8	144	4
NMTAP	8	192	4
NMTAP	8	240	3
NMTAP	8	288	5
NMTAP	8	336	4
NMTAP	9	0	6
NMTAP	9	48	6
NMTAP	9	96	4
NMTAP	9	144	5
NMTAP	9	192	1
NMTAP	9	240	1
NMTAP	9	288	3
NMTAP	9	336	3
NMTAP	10	0	0
NMSTR	10	48	0
NMSCR	10	48	0	96	48	3
NMTAP	10	144	7
NMSTR	10	192	7
NMSCL	10	192	7	96	48	4
NMTAP	11	96	2
NMTAP	11	144	1
NMTAP	11	144	3
NMTAP	11	216	1
NMTAP	11	216	3
NMSTR	11	264	2
NMSI_	11	264	2	96	48	4
NMTAP	12	96	5
NMTAP	12	144	4
NMTAP	12	144	6
NMTAP	12	216	4
NMTAP	12	216	6
NMSTR	12	264	5
NMSCR	12	264	5	96	48	0
NMTAP	13	96	2
NMTAP	13	96	3
NMTAP	13	144	1
NMTAP	13	144	3
NMTAP	13	216	1
NMTAP	13	216	3
NMTAP	13	264	2
NMSTR	13	264	3
NMSI_	13	264	3	96	48	7
NMTAP	14	96	4
NMTAP	14	96	5
NMTAP	14	144	4
NMTAP	14	144	6
NMTAP	14	216	4
NMTAP	14	216	6
NMSTR	14	264	4
NMSCL	14	264	4	96	48	1
NMSTR	14	264	5
NMSCR	14	264	5	96	48	0
NMTAP	15	96	2
NMTAP	15	96	3
NMTAP	15	144	1
NMTAP	15	216	1
NMTAP	15	264	2
NMSTR	15	264	3
NMSI_	15	264	3	96	48	6
NMTAP	16	96	4
NMTAP	16	96	5
NMTAP	16	144	6
NMTAP	16	216	6
NMSTR	16	264	4
NMSI_	16	264	4	96	48	1
NMTAP	16	264	5
NMTAP	17	96	2
NMTAP	17	96	3
NMTAP	17	144	0
NMTAP	17	216	0
NMTAP	17	264	2
NMSTR	17	264	3
NMSI_	17	264	3	96	48	7
NMTAP	18	96	0
NMTAP	18	144	1
NMTAP	18	192	2
NMTAP	18	240	3
BRHLD	18	288	4	48
BRHLD	18	288	5	48
BRHLD	19	0	2	48
BRHLD	19	0	3	48
NMTAP	19	96	4
NMTAP	19	144	5
NMTAP	19	192	6
NMTAP	19	240	7
NMTAP	19	288	7
NMTAP	19	336	6
NMTAP	20	0	5
NMTAP	20	48	5
NMHLD	20	96	4	48
NMHLD	20	96	6	48
NMTAP	20	192	5
NMTAP	20	240	5
NMHLD	20	288	4	48
NMHLD	20	288	6	48
NMTAP	21	0	5
NMTAP	21	48	3
NMTAP	21	96	3
NMTAP	21	144	2
NMTAP	21	192	1
NMTAP	21	240	1
NMHLD	21	288	0	48
NMHLD	21	288	1	48
NMHLD	22	0	2	48
NMHLD	22	0	3	48
NMTAP	22	96	3
NMTAP	22	144	2
NMTAP	22	192	1
NMTAP	22	240	0
NMTAP	22	288	4
NMTAP	22	336	3
NMTAP	23	0	2
NMTAP	23	48	1
NMTTP	23	96	2	E	0	M1
NMTTP	23	144	3	E	0	M1
NMTTP	23	192	4	E	0	M1
NMTTP	23	240	5	E	0	M1
NMTTP	23	288	6	E	0	M1
NMTTP	23	336	7	E	0	M1
NMTTP	24	0	0	E	0	M1
NMTTP	24	48	1	E	0	M1
NMHLD	24	96	2	96
NMHLD	24	192	0	96
NMHLD	24	288	7	96
NMHLD	25	0	5	96
NMSTR	25	96	3
NMSCL	25	96	3	96	96	0
NMSTR	25	288	7
NMSCL	25	288	7	96	96	4
NMTAP	26	96	2
NMTAP	26	144	2
NMTAP	26	192	7
NMTAP	26	240	7
NMTAP	26	288	4
NMTAP	26	336	4
NMTAP	27	0	6
NMSTR	27	48	6
NMSCL	27	48	6	96	48	3
NMTAP	27	240	1
NMTAP	27	288	1
NMTAP	27	336	3
NMTAP	28	0	2
NMTAP	28	48	5
NMTAP	28	96	5
NMTAP	28	144	4
NMTAP	28	192	6
NMTAP	28	240	1
NMTAP	28	288	1
NMTAP	28	336	0
NMTAP	29	0	2
NMTAP	29	48	4
NMTAP	29	96	4
NMTAP	29	144	3
NMTAP	29	192	5
NMTAP	29	240	4
NMTAP	29	288	6
NMTAP	29	336	6
NMTAP	30	0	4
NMTAP	30	48	5
NMTAP	30	96	2
NMTAP	30	144	2
NMSTR	30	192	4
NMSCR	30	192	4	96	48	7
NMSTR	30	288	0
NMSCR	30	288	0	96	48	3
NMTAP	31	144	4
NMTAP	31	192	5
NMTAP	31	240	6
NMTAP	31	288	6
NMTAP	31	336	4
NMTAP	32	0	5
NMTAP	32	48	2
NMTAP	32	96	2
NMTAP	32	144	3
NMTAP	32	192	1
NMTAP	32	240	6
NMTAP	32	288	6
NMTAP	32	336	7
NMTAP	33	0	5
NMTAP	33	48	3
NMTAP	33	96	3
NMTAP	33	144	4
NMTAP	33	192	2
NMTAP	33	240	3
NMTAP	33	288	1
NMTAP	33	336	1
NMTAP	34	0	3
NMTAP	34	48	2
NMTAP	34	96	6
NMTAP	34	144	6
NMTAP	34	192	4
NMTAP	34	240	4
NMSTR	34	288	7
NMSCL	34	288	7	96	48	4
NMSTR	35	0	0
NMSCR	35	0	0	96	48	3
NMTAP	35	144	5
NMHLD	35	192	5	96
NMTAP	35	288	4
NMTAP	36	0	6
NMTAP	36	0	7
NMTAP	36	96	0
NMTAP	36	144	1
NMTAP	36	192	2
NMTAP	36	192	3
NMTAP	36	288	2
NMTAP	36	288	3
NMTAP	37	0	0
NMTAP	37	0	1
NMTAP	37	96	7
NMTAP	37	144	6
NMTAP	37	192	4
NMTAP	37	192	5
NMTAP	37	288	6
NMTAP	37	336	6
NMTAP	38	0	4
NMTAP	38	48	4
NMTAP	38	96	7
NMTAP	38	144	7
NMTAP	38	192	0
NMTAP	38	240	0
NMTAP	38	288	3
NMTAP	38	336	4
NMTAP	39	0	3
NMTAP	39	48	2
NMTAP	39	96	4
NMTAP	39	144	5
NMTAP	39	192	5
NMTAP	39	240	1
NMTAP	39	288	1
NMTAP	39	336	3
NMTAP	40	0	2
NMTAP	40	48	5
NMTAP	40	96	5
NMTAP	40	144	4
NMTAP	40	192	6
NMTAP	40	240	1
NMTAP	40	288	1
NMTAP	40	336	0
NMTAP	41	0	2
NMTAP	41	48	4
NMTAP	41	96	4
NMTAP	41	144	3
NMTAP	41	192	5
NMTAP	41	240	4
NMTAP	41	288	6
NMTAP	41	336	6
NMTAP	42	0	4
NMTAP	42	48	5
NMTAP	42	96	2
NMTAP	42	144	2
NMSTR	42	192	4
NMSI_	42	192	4	96	48	7
NMSTR	42	288	0
NMSI_	42	288	0	96	48	3
EXTAP	43	240	7
EXHLD	43	288	7	96
BRTAP	44	0	0
NMTAP	44	96	1
NMTAP	44	192	2
NMTAP	44	192	3
NMTAP	44	288	4
NMTAP	45	0	4
NMTAP	45	0	5
NMTAP	45	96	6
NMTAP	45	192	0
BRTAP	45	192	7
NMTAP	45	288	6
NMTAP	46	0	4
NMTAP	46	0	5
NMTAP	46	96	3
NMTAP	46	192	2
NMTAP	46	192	3
NMTAP	46	288	1
BRTAP	47	0	0
NMTAP	47	0	7
NMTAP	47	96	1
NMTAP	47	192	2
NMTAP	47	192	3
NMTAP	47	288	4
NMTAP	48	0	4
NMTAP	48	0	5
NMTAP	48	96	6
NMTAP	48	192	0
BRTAP	48	192	7
NMTAP	48	288	6
NMTAP	49	0	4
NMTAP	49	0	5
NMTAP	49	96	3
NMTAP	49	192	2
NMTAP	49	192	4
NMTAP	49	288	2
NMTAP	49	288	4
BRHLD	50	0	1	96
NMTAP	50	96	3
NMTAP	50	144	3
NMTAP	50	240	0
NMTAP	50	240	1
NMTAP	50	288	0
NMTAP	50	288	1
NMTAP	51	0	6
NMTAP	51	0	7
NMTAP	51	96	4
NMTAP	51	96	5
BRHLD	51	192	6	96
NMTAP	51	288	4
NMTAP	51	336	4
NMTAP	52	48	6
NMTAP	52	48	7
NMTAP	52	96	6
NMTAP	52	96	7
NMTAP	52	192	0
NMTAP	52	192	1
NMTAP	52	288	2
NMTAP	52	288	3
BRHLD	53	0	1	96
NMTAP	53	96	3
NMTAP	53	144	3
NMTAP	53	240	0
NMTAP	53	240	1
NMTAP	53	288	0
NMTAP	53	288	1
NMTAP	54	0	6
NMTAP	54	0	7
NMTAP	54	96	4
NMTAP	54	96	5
BRHLD	54	192	6	96
NMTAP	54	288	4
NMTAP	54	336	4
NMTAP	55	48	6
NMTAP	55	48	7
NMTAP	55	96	6
NMTAP	55	96	7
NMTAP	55	192	0
NMTAP	55	192	1
NMTAP	55	288	2
NMTAP	55	288	3
NMHLD	56	0	4	96
NMHLD	56	0	5	96
NMTAP	56	144	3
NMTAP	56	144	6
NMHLD	56	192	3	48
NMHLD	56	192	6	48
NMHLD	56	288	1	48
NMHLD	56	288	4	48
NMTAP	57	0	0
NMTAP	57	48	0
NMTAP	57	96	7
NMTAP	57	144	7
NMHLD	57	192	0	48
NMHLD	57	192	1	48
NMHLD	57	288	6	48
NMHLD	57	288	7	48
NMTAP	58	0	5
NMTAP	58	48	4
NMTAP	58	96	3
NMTAP	58	144	2
NMHLD	58	192	1	48
NMHLD	58	192	3	48
NMHLD	58	288	4	48
NMHLD	58	288	6	48
NMTAP	59	0	2
NMTAP	59	0	3
NMTAP	59	48	1
NMTAP	59	96	0
NMTAP	59	96	7
NMTAP	59	144	6
NMHLD	59	192	5	48
NMHLD	59	192	7	48
NMHLD	59	288	0	48
NMHLD	59	288	2	48
NMTAP	60	0	3
NMTAP	60	48	3
NMTAP	60	96	4
NMTAP	60	144	4
NMHLD	60	192	2	96
NMTAP	60	288	0
NMTAP	60	336	0
NMHLD	61	0	0	96
NMTAP	61	96	7
NMTAP	61	144	7
NMHLD	61	192	7	96
NMTAP	61	288	5
NMTAP	61	336	5
NMHLD	62	0	5	96
NMTAP	62	96	3
NMTAP	62	144	2
NMHLD	62	192	2	192
NMTAP	62	288	3
NMTAP	62	336	4
NMHLD	63	0	5	192
NMTAP	63	96	4
NMTAP	63	144	3
NMTAP	63	192	3
NMTAP	63	240	3
NMTAP	63	240	4
NMTAP	63	288	3
NMTAP	63	288	4
NMTAP	63	336	2
NMTAP	63	360	3
NMTAP	64	0	2
NMTAP	64	48	5
NMTAP	64	72	4
NMTAP	64	96	5
NMHLD	64	192	6	192
NMTAP	65	0	0
NMTAP	65	96	0
NMHLD	65	192	1	192
NMSTR	66	0	7
NMSCL	66	0	7	96	96	4
NMTAP	66	96	2
NMSTR	66	192	0
NMSCR	66	192	0	96	96	3
NMTAP	66	288	5
NMSTR	67	0	7
NMSCL	67	0	7	96	96	4
NMTAP	67	96	2
NMSTR	67	192	0
NMSCR	67	192	0	96	96	3
NMTAP	67	288	5
EXTAP	68	0	6
EXTAP	68	48	6
EXTAP	68	96	4
EXTAP	68	144	4
NMTAP	68	192	5
NMTAP	68	240	6
NMTAP	68	288	7
NMTAP	68	336	0
NMTAP	69	0	1
NMTAP	69	48	2
NMTAP	69	96	3
NMTAP	69	144	3
NMTTP	69	192	3	E	0	M1
NMTTP	69	240	2	E	0	M1
NMTTP	69	288	1	E	0	M1
NMTTP	69	336	0	E	0	M1
NMTTP	70	0	7	E	0	M1
NMTTP	70	48	6	E	0	M1
NMTTP	70	96	5	E	0	M1
NMTTP	70	144	4	E	0	M1
NMSTR	70	192	2
NMSCR	70	192	2	96	96	5
NMTAP	70	240	2
NMTAP	70	288	5
NMSTR	71	0	6
NMSI_	71	0	6	96	96	3
NMTAP	71	48	6
NMTAP	71	96	2
NMTAP	71	192	2
NMTAP	71	240	1
NMTAP	71	288	0
NMTAP	71	288	7
NMTAP	71	336	6
NMTAP	72	0	3
NMTAP	72	0	5
NMTAP	72	48	3
NMTAP	72	48	5
NMTAP	72	96	2
NMTAP	72	96	6
NMSTR	72	192	1
NMSI_	72	192	1	96	48	4
NMSTR	72	192	7
NMSI_	72	192	7	96	48	4
NMTAP	72	240	1
NMTAP	72	240	7
NMSTR	73	0	0
NMSI_	73	0	0	96	48	3
NMSTR	73	0	6
NMSI_	73	0	6	96	48	3
NMTAP	73	48	0
NMTAP	73	48	6
NMTAP	73	192	5
NMTAP	73	240	6
NMTAP	73	288	7
NMTAP	73	336	0
NMTAP	74	0	1
NMTAP	74	48	2
NMTAP	74	96	3
NMTAP	74	96	4
NMTAP	74	192	4
NMSTR	74	192	5
NMSI_	74	192	5	96	48	0
NMTAP	74	240	4
NMTAP	74	240	5
NMSTR	75	0	2
NMSI_	75	0	2	96	48	7
NMTAP	75	0	3
NMTAP	75	48	2
NMTAP	75	48	3
NMTAP	75	192	4
NMSTR	75	192	5
NMSI_	75	192	5	96	48	0
NMTAP	75	240	4
NMTAP	75	240	5
NMTAP	76	0	2
NMTAP	76	0	3
NMTAP	76	48	2
NMTAP	76	48	3
BRTAP	76	96	2
BRTAP	76	96	3
NMTAP	76	144	1
NMTAP	76	192	1
NMTAP	76	240	3
NMTAP	76	288	2
NMTAP	76	336	6
NMTAP	77	0	6
NMTAP	77	48	4
NMTAP	77	96	5
NMTAP	77	144	0
NMTAP	77	192	0
NMTAP	77	240	7
NMTAP	77	288	4
NMTAP	77	336	5
NMTAP	78	0	5
NMTAP	78	48	3
NMTAP	78	96	3
NMTAP	78	144	7
NMTAP	78	192	7
NMTAP	78	240	0
NMTAP	78	288	3
NMTAP	78	336	2
NMTAP	79	0	2
NMTAP	79	48	4
NMTAP	79	72	3
NMTAP	79	96	4
NMHLD	79	192	2	72
NMHLD	79	192	3	72
NMHLD	79	336	0	72
NMHLD	79	336	1	72
NMHLD	80	96	6	72
NMHLD	80	96	7	72
NMHLD	80	240	4	72
NMHLD	80	240	5	72
NMTAP	81	0	5
NMTAP	81	48	5
NMTAP	81	72	4
NMTAP	81	144	2
NMTAP	81	192	2
NMTAP	81	216	3
NMTAP	81	288	5
NMTAP	81	336	5
NMTAP	81	360	7
NMTAP	82	48	2
NMTAP	82	96	2
NMTAP	82	120	0
NMHLD	82	168	0	312
BRSTR	83	96	6
NMSI_	83	96	6	96	96	2

T_REC_TAP	437
T_REC_BRK	6
T_REC_XTP	5
T_REC_BXX	0
T_REC_HLD	48
T_REC_XHO	1
T_REC_BHO	8
T_REC_BXH	0
T_REC_STR	34
T_REC_BST	1
T_REC_XST	0
T_REC_XBS	1
T_REC_TTP	16
T_REC_THO	0
T_REC_SLD	35
T_REC_BSL	1
T_REC_ALL	593
T_NUM_TAP	492
T_NUM_BRK	17
T_NUM_HLD	49
T_NUM_SLD	35
T_NUM_ALL	593
T_JUDGE_TAP	500
T_JUDGE_HLD	99
T_JUDGE_SLD	36
T_JUDGE_ALL	635
TTM_EACHPAIRS	95
TTM_SCR_TAP	246000
TTM_SCR_BRK	44200
TTM_SCR_HLD	49000
TTM_SCR_SLD	52500
TTM_SCR_ALL	391700
TTM_SCR_S	378300
TTM_SCR_SS	390000
TTM_RAT_ACV	10043

