VERSION	0.00.00	1.05.00
FES_MODE	0
BPM_DEF	165.000	165.000	165.000	165.000
MET_DEF	4	4
RESOLUTION	384
CLK_DEF	384
COMPATIBLE_CODE	MA2

BPM	0	0	165.000
MET	0	0	4	4

BXTAP	1	0	1
BXTAP	1	0	7
BXTAP	1	12	2
BXTAP	1	12	6
BXTAP	1	24	3
BXTAP	1	24	5
NMTAP	1	96	2
NMTAP	1	120	3
NMHLD	1	144	1	48
BRTAP	1	192	3
BRTAP	1	264	0
BRTAP	1	264	7
BRTAP	1	336	4
BRTAP	1	336	6
NMTAP	2	48	4
NMTAP	2	48	5
NMTAP	2	96	4
NMTAP	2	96	5
BRTAP	2	192	4
BRTAP	2	192	6
BRTAP	2	264	0
BRTAP	2	264	7
BRTAP	2	336	1
BRTAP	2	336	3
NMTAP	3	0	2
NMTAP	3	24	3
NMTAP	3	48	2
NMTAP	3	72	3
NMTAP	3	96	1
NMTAP	3	120	4
NMTAP	3	144	1
NMTAP	3	168	4
NMTAP	3	192	0
NMTAP	3	216	5
NMTAP	3	240	0
NMTAP	3	264	5
NMSTR	3	288	7
NMSF_	3	288	7	96	48	3
NMTAP	3	312	6
NMTAP	3	336	7
NMTAP	3	360	6
EXTAP	4	0	7
NMSTR	4	192	0
NMSI_	4	192	0	96	48	4
NMTAP	4	216	4
NMTAP	4	240	2
NMTAP	4	264	6
BRTAP	4	288	0
NMHLD	5	0	2	48
NMHLD	5	0	7	48
NMHLD	5	96	0	48
NMHLD	5	96	5	48
NMHLD	5	192	2	48
NMHLD	5	192	7	48
NMHLD	5	288	0	48
NMHLD	5	288	5	48
NMHLD	6	0	1	48
NMHLD	6	0	7	48
NMHLD	6	96	0	48
NMHLD	6	96	6	48
NMHLD	6	192	0	48
NMHLD	6	192	1	48
NMHLD	6	288	6	48
NMHLD	6	288	7	48
NMHLD	7	0	2	48
NMHLD	7	0	7	48
NMHLD	7	96	0	48
NMHLD	7	96	5	48
NMHLD	7	192	2	48
NMHLD	7	192	7	48
NMHLD	7	288	0	48
NMHLD	7	288	5	48
NMHLD	8	0	1	48
NMHLD	8	0	7	48
NMHLD	8	96	0	48
NMSTR	8	96	6
NMSF_	8	96	6	96	48	2
BRTAP	8	192	6
EXTAP	8	288	0
EXTAP	8	288	4
NMHLD	9	0	4	48
NMHLD	9	0	6	48
NMHLD	9	96	2	48
NMHLD	9	96	4	48
NMHLD	9	192	4	48
NMHLD	9	192	6	48
NMHLD	9	288	2	48
NMHLD	9	288	4	48
NMHLD	10	0	4	48
NMHLD	10	0	7	48
NMHLD	10	96	1	48
NMHLD	10	96	4	48
NMHLD	10	192	4	48
NMHLD	10	192	5	48
NMHLD	10	288	3	48
NMHLD	10	288	4	48
NMHLD	11	0	4	48
NMHLD	11	0	6	48
NMHLD	11	96	2	48
NMHLD	11	96	4	48
NMTAP	11	192	1
NMTAP	11	192	3
NMSTR	11	264	4
NMSCL	11	264	4	96	120	5
NMTAP	11	264	6
EXTAP	11	336	4
NMHLD	11	336	7	240
NMSTR	12	192	4
NMSI_	12	192	4	96	48	0
BRTAP	12	288	4
NMHLD	13	0	1	48
NMTAP	13	48	3
NMTAP	13	72	3
NMSTR	13	96	2
NMSCL	13	96	2	96	72	6
NMHLD	13	120	4	144
NMTAP	13	144	3
EXTAP	13	192	2
CNSLR	13	264	6	0	72	2
NMTAP	13	336	5
NMHLD	14	0	6	48
NMTAP	14	48	4
NMTAP	14	72	4
NMTAP	14	96	5
NMTAP	14	120	3
NMTAP	14	144	4
NMTAP	14	168	2
NMHLD	14	192	3	144
NMHLD	14	288	0	48
NMHLD	15	0	6	48
NMTAP	15	48	4
NMTAP	15	72	4
NMSTR	15	96	5
NMSCR	15	96	5	96	72	1
NMHLD	15	120	3	144
NMTAP	15	144	4
EXTAP	15	192	5
CNSLL	15	264	1	0	72	5
NMTAP	15	336	2
NMHLD	16	0	1	48
NMTAP	16	48	3
NMHLD	16	96	5	48
NMTAP	16	144	3
NMHLD	16	192	2	48
NMTAP	16	240	4
NMTAP	16	288	3
NMTAP	16	288	5
NMTAP	16	336	3
NMTAP	16	336	5
NMHLD	17	0	6	48
NMTAP	17	48	4
NMTAP	17	72	4
NMSTR	17	96	5
NMSCR	17	96	5	96	72	1
NMHLD	17	120	3	144
NMTAP	17	144	4
EXTAP	17	192	5
CNSLL	17	264	1	0	72	5
NMTAP	17	336	2
NMHLD	18	0	1	48
NMTAP	18	48	3
NMTAP	18	72	3
NMSTR	18	96	2
NMSI_	18	96	2	96	48	6
NMTAP	18	120	4
NMTAP	18	144	3
NMTAP	18	192	2
NMSTR	18	192	4
NMSI_	18	192	4	96	48	0
NMTAP	18	288	0
NMTAP	18	288	4
NMHLD	19	0	1	48
NMTAP	19	48	3
NMTAP	19	72	3
NMTAP	19	96	2
NMHLD	19	120	4	120
NMTAP	19	144	3
NMTAP	19	192	3
NMTAP	19	240	7
NMTAP	19	288	7
NMTAP	19	336	5
NMTAP	20	0	3
NMHLD	20	0	6	48
NMTAP	20	48	4
NMHLD	20	96	2	48
NMTAP	20	144	4
BRTAP	20	192	1
BRTAP	20	192	5
NMSTR	20	288	0
NMSCR	20	288	0	96	48	3
NMSTR	21	0	4
NMSCR	21	0	4	96	48	7
NMTAP	21	48	5
NMSTR	21	96	3
NMSI_	21	96	3	96	48	0
NMTAP	21	144	2
NMTAP	21	192	4
CNSLR	21	240	0	0	96	4
NMTAP	21	240	6
NMSTR	21	288	7
NMSCL	21	288	7	96	48	4
NMTAP	21	336	0
NMSTR	22	0	3
NMSCL	22	0	3	96	48	0
NMTAP	22	48	2
NMSTR	22	96	4
NMSI_	22	96	4	96	48	7
NMTAP	22	144	5
NMTAP	22	192	3
NMTAP	22	240	1
CNSLL	22	240	7	0	96	3
NMSTR	22	288	0
NMSCR	22	288	0	96	48	3
NMTAP	22	336	7
NMSTR	23	0	4
NMSCR	23	0	4	96	48	7
NMTAP	23	48	5
NMSTR	23	96	3
NMSI_	23	96	3	96	48	0
NMTAP	23	144	2
NMTAP	23	192	4
CNSLR	23	240	0	0	96	4
NMTAP	23	240	6
NMTAP	23	288	7
NMTAP	23	336	7
NMSTR	24	0	3
NMSI_	24	0	3	96	48	0
NMSTR	24	48	3
NMSI_	24	48	3	96	48	6
NMSTR	24	96	3
NMSXR	24	96	3	96	96	4
EXSTR	24	288	7
NMSCL	24	288	7	96	48	4
NMSTR	25	0	3
NMSCL	25	0	3	96	48	0
NMTAP	25	48	2
NMSTR	25	96	4
NMSI_	25	96	4	96	48	7
NMTAP	25	144	5
NMTAP	25	192	3
NMTAP	25	240	1
CNSLL	25	240	7	0	96	3
NMSTR	25	288	0
NMSCR	25	288	0	96	48	3
NMTAP	25	336	7
NMSTR	26	0	4
NMSCR	26	0	4	96	48	7
NMTAP	26	48	5
NMSTR	26	96	3
NMSI_	26	96	3	96	48	0
NMTAP	26	144	2
NMTAP	26	192	4
CNSLR	26	240	0	0	96	4
NMTAP	26	240	6
NMSTR	26	288	7
NMSCL	26	288	7	96	48	4
NMTAP	26	336	0
NMSTR	27	0	3
NMSCL	27	0	3	96	48	0
NMTAP	27	48	2
NMSTR	27	96	4
NMSI_	27	96	4	96	48	7
NMTAP	27	144	5
NMTAP	27	192	3
NMTAP	27	240	1
CNSLL	27	240	7	0	96	3
NMTAP	27	288	0
NMTAP	27	336	0
NMSTR	28	0	4
NMSI_	28	0	4	96	48	6
NMSTR	28	48	4
NMSI_	28	48	4	96	48	2
EXSTR	28	96	4
NMSI_	28	96	4	96	48	7
EXSTR	28	144	4
NMSI_	28	144	4	96	48	1
EXSTR	28	192	4
NMSI_	28	192	4	96	48	0
EXTAP	28	240	4
EXTAP	28	288	4
NMTAP	29	0	1
NMTAP	29	0	5
NMTAP	29	48	2
NMTAP	29	48	4
NMSTR	29	96	2
NMSI_	29	96	2	96	48	7
NMTAP	29	96	4
NMTAP	29	192	3
NMSTR	29	240	4
NMSI_	29	240	4	96	48	7
CNSI_	29	240	7	0	48	1
NMTAP	29	336	3
NMSTR	30	0	2
NMSI_	30	0	2	96	48	7
CNSI_	30	0	7	0	48	5
NMTAP	30	96	3
NMSTR	30	144	4
NMSI_	30	144	4	96	48	7
CNSI_	30	144	7	0	48	1
NMTAP	30	240	3
NMTAP	30	288	2
CNSI_	30	288	7	0	48	5
NMTAP	30	336	2
BRTAP	31	0	4
NMTAP	31	48	3
NMTAP	31	48	5
NMTAP	31	96	3
NMSTR	31	96	5
NMSI_	31	96	5	96	48	0
NMTAP	31	192	4
CNSI_	31	240	0	0	48	6
NMSTR	31	240	3
NMSI_	31	240	3	96	48	0
NMTAP	31	336	4
CNSI_	32	0	0	0	48	2
NMSTR	32	0	5
NMSI_	32	0	5	96	48	0
NMTAP	32	96	4
CNSI_	32	144	0	0	48	6
NMSTR	32	144	3
NMSI_	32	144	3	96	48	0
NMTAP	32	240	4
CNSI_	32	288	0	0	48	2
NMTAP	32	288	5
NMTAP	32	336	5
BRTAP	33	0	4
NMTAP	33	48	2
NMTAP	33	48	6
NMTAP	33	96	2
NMSTR	33	96	6
NMSI_	33	96	6	96	48	0
NMTAP	33	192	4
CNSI_	33	240	0	0	48	5
NMSTR	33	240	2
NMSI_	33	240	2	96	48	0
NMTAP	33	336	4
CNSI_	34	0	0	0	48	3
NMSTR	34	0	6
NMSI_	34	0	6	96	48	0
NMTAP	34	96	4
CNSI_	34	144	0	0	48	5
NMSTR	34	144	2
NMSI_	34	144	2	96	48	0
NMTAP	34	240	4
CNSI_	34	288	0	0	48	3
NMSTR	34	288	6
NMSCR	34	288	6	96	96	2
EXTAP	34	336	6
EXTAP	35	0	4
CNSV_	35	96	2	0	96	4
NMSTR	35	288	2
NMSI_	35	288	2	96	48	6
NMTAP	35	288	4
BRTAP	36	0	2
NMSTR	36	0	5
NMSI_	36	0	5	96	48	1
NMSTR	36	96	3
NMSI_	36	96	3	96	48	7
BRTAP	36	96	5
BRTAP	36	192	3
BRTAP	36	288	1
BRTAP	36	288	5
NMTAP	37	0	4
NMTAP	37	0	6
NMTAP	37	48	7
NMTAP	37	96	0
NMTAP	37	144	1
NMTAP	37	168	1
BRHLD	37	192	0	48
BRHLD	37	192	2	48
BRHLD	37	288	5	48
BRHLD	37	288	7	48
NMTAP	38	0	1
NMTAP	38	0	3
NMTAP	38	48	2
NMTAP	38	72	4
NMSTR	38	96	3
NMSI_	38	96	3	96	48	1
NMTAP	38	120	5
NMSTR	38	144	3
NMSI_	38	144	3	96	48	6
NMTAP	38	168	4
NMSTR	38	192	3
NMSI_	38	192	3	96	48	0
EXTAP	39	0	0
EXTAP	39	0	7
NMTAP	39	48	1
NMTAP	39	48	6
NMSTR	39	96	0
NMSI_	39	96	0	96	48	4
NMSTR	39	96	7
NMSI_	39	96	7	96	48	5
NMTAP	39	144	1
NMTAP	39	144	6
NMSTR	39	192	0
NMSI_	39	192	0	96	48	2
NMSTR	39	192	7
NMSI_	39	192	7	96	48	3
NMTAP	39	288	0
NMTAP	39	288	7
NMTAP	40	0	1
NMTAP	40	0	5
NMTAP	40	48	0
NMTAP	40	48	6
NMTAP	40	72	0
NMTAP	40	72	6
NMTAP	40	120	4
NMTAP	40	144	3
NMTAP	40	168	2
NMSTR	40	192	1
NMSI_	40	192	1	96	48	5
NMTAP	40	216	0
NMSTR	40	240	7
NMSI_	40	240	7	96	48	3
NMTAP	40	264	6
BRTAP	40	288	1
BRTAP	40	336	7
BRTAP	41	0	0
BRTAP	41	48	5
NMHLD	41	96	3	96
BRTAP	41	144	6
NMTAP	41	192	5
BRTAP	41	240	6
NMSTR	41	288	0
NMSI_	41	288	0	96	48	4
NMSTR	41	336	7
NMSI_	41	336	7	96	48	5
NMSTR	42	0	0
NMSI_	42	0	0	96	48	2
NMSTR	42	48	7
NMSI_	42	48	7	96	48	3
BRTAP	42	192	0
BRTAP	42	240	1
BRTAP	42	240	7
BRTAP	42	288	3
BRSTR	42	288	5
NMSI_	42	288	5	96	48	2
NMSTR	43	0	1
NMSI_	43	0	1	96	48	6
NMTAP	43	48	0
NMSTR	43	96	5
NMSI_	43	96	5	96	48	2
NMTAP	43	144	4
NMSTR	43	192	1
NMSI_	43	192	1	96	48	6
NMTAP	43	240	0
NMSTR	43	288	5
NMSXL	43	288	5	96	96	3
NMTAP	43	336	4
NMTTP	44	0	0	C	1	M1
CNSCL	44	96	3	0	144	4
NMHLD	44	288	0	24
NMHLD	44	336	0	24
NMTAP	45	0	1
NMTAP	45	0	3
NMTAP	45	48	0
NMTAP	45	96	7
NMTAP	45	144	6
NMTAP	45	168	6
BRHLD	45	192	5	48
BRHLD	45	192	7	48
BRHLD	45	288	0	48
BRHLD	45	288	2	48
NMTAP	46	0	4
NMTAP	46	0	6
NMTAP	46	48	5
NMTAP	46	72	3
NMSTR	46	96	4
NMSI_	46	96	4	96	48	6
NMTAP	46	120	2
NMSTR	46	144	4
NMSI_	46	144	4	96	48	1
NMTAP	46	168	3
NMSTR	46	192	4
NMSI_	46	192	4	96	48	7
EXTAP	47	0	0
EXTAP	47	0	7
NMTAP	47	48	2
NMTAP	47	48	6
NMSTR	47	96	0
NMSI_	47	96	0	96	48	2
NMSTR	47	96	7
NMSI_	47	96	7	96	48	3
NMTAP	47	144	1
NMTAP	47	144	5
NMSTR	47	192	0
NMSI_	47	192	0	96	48	4
NMSTR	47	192	7
NMSI_	47	192	7	96	48	5
NMTAP	47	288	0
NMTAP	47	288	7
NMTAP	48	0	2
NMTAP	48	0	6
NMTAP	48	48	4
NMTAP	48	72	3
NMTAP	48	96	2
NMTAP	48	120	3
NMTAP	48	144	4
NMTAP	48	168	5
NMSTR	48	192	6
NMSI_	48	192	6	96	48	2
NMTAP	48	216	7
NMSTR	48	240	0
NMSI_	48	240	0	96	48	4
NMTAP	48	264	1
BRTAP	48	288	6
BRTAP	48	336	0
BRTAP	49	0	7
NMTAP	49	48	7
NMTAP	49	96	4
NMTAP	49	96	6
NMTAP	49	144	0
NMTAP	49	192	1
NMTAP	49	192	3
NMTAP	49	240	4
NMTAP	49	240	6
NMSTR	49	288	7
NMSI_	49	288	7	96	48	3
NMSTR	49	336	0
NMSI_	49	336	0	96	48	4
BRTAP	50	0	7
BRTAP	50	48	0
CNSI_	50	96	4	0	48	0
BRTAP	50	96	5
BRTAP	50	144	6
BRTAP	50	192	7
BRTAP	50	240	0
BRTAP	50	240	6
BRSTR	50	288	2
NMSI_	50	288	2	96	48	5
BRTAP	50	288	4
NMSTR	51	0	6
NMSI_	51	0	6	96	48	1
NMTAP	51	48	7
NMSTR	51	96	2
NMSI_	51	96	2	96	48	5
NMTAP	51	144	3
NMTAP	51	192	6
NMTAP	51	240	7
NMSTR	51	288	0
NMSCR	51	288	0	96	96	4
NMSTR	52	0	4
NMSCR	52	0	4	96	96	0
NMSTR	52	96	0
NMSCR	52	96	0	96	96	4
NMSTR	52	192	4
NMSCR	52	192	4	96	96	0
NMTAP	52	288	0
NMTHO	53	0	0	1728	C	0	M1
NMTTP	55	0	0	A	0	M1
NMTTP	55	0	1	E	0	M1
NMTTP	55	72	0	B	0	M1
NMTTP	55	96	1	B	0	M1
NMTTP	55	192	7	E	0	M1
NMTTP	55	192	7	A	0	M1
NMTTP	55	264	7	B	0	M1
NMTTP	55	288	6	B	0	M1
NMTTP	56	0	0	A	0	M1
NMTTP	56	0	1	E	0	M1
NMTTP	56	72	0	B	0	M1
NMTTP	56	96	1	B	0	M1
NMTTP	56	192	7	E	0	M1
NMTTP	56	192	7	A	0	M1
NMTTP	56	264	7	B	0	M1
NMTTP	56	288	6	B	0	M1
NMTTP	57	0	0	A	0	M1
NMTTP	57	0	1	E	0	M1
NMTTP	57	72	0	B	0	M1
NMTTP	57	96	1	B	0	M1
NMTTP	57	192	7	E	0	M1
NMTTP	57	192	7	A	0	M1
NMTTP	57	264	7	B	0	M1
NMTTP	57	288	6	B	0	M1
NMTAP	58	0	0
NMTAP	58	48	0
NMTAP	58	96	0
NMTAP	58	144	0
NMTAP	58	192	7
NMTAP	58	240	7
NMTAP	58	288	7
NMTAP	58	336	7
NMTAP	59	0	0
NMTAP	59	24	7
NMTAP	59	48	0
NMTAP	59	72	7
NMTAP	59	96	0
NMTAP	59	120	7
NMTAP	59	144	0
NMTAP	59	168	7
NMTAP	59	192	0
NMTAP	59	216	7
NMTAP	59	240	0
NMTAP	59	264	7
NMTAP	59	288	0
NMTTP	59	336	1	E	0	M1
NMTTP	60	0	2	E	0	M1
NMTTP	60	48	3	E	0	M1
NMTTP	60	96	4	E	0	M1
NMTTP	60	144	5	E	0	M1
NMTTP	60	192	6	E	0	M1
NMTTP	60	240	7	E	0	M1
NMTTP	60	288	0	E	1	M1
BXTAP	61	0	0
NMTAP	61	12	1
NMTAP	61	24	2
NMTAP	61	36	3
BXTAP	61	48	7
NMTAP	61	60	6
NMTAP	61	72	5
NMTAP	61	84	4
BXTAP	61	96	0
NMTAP	61	108	1
NMTAP	61	120	2
NMTAP	61	132	3
BXTAP	61	144	7
NMTAP	61	156	6
NMTAP	61	168	5
NMTAP	61	180	4
BXTAP	61	192	0
NMTAP	61	204	1
NMTAP	61	216	2
NMTAP	61	228	3
BXTAP	61	240	7
NMTAP	61	252	6
NMTAP	61	264	5
NMTAP	61	276	4
BXTAP	61	288	0
NMTAP	61	300	1
NMTAP	61	312	2
NMTAP	61	324	3
BXTAP	61	336	7
NMTAP	61	348	6
NMTAP	61	360	5
NMTAP	61	372	4
BXTAP	62	0	0
NMTAP	62	12	1
NMTAP	62	24	2
NMTAP	62	36	3
BXTAP	62	48	7
NMTAP	62	60	6
NMTAP	62	72	5
NMTAP	62	84	4
BXTAP	62	96	0
NMTAP	62	108	1
NMTAP	62	120	2
NMTAP	62	132	3
BXTAP	62	144	7
NMTAP	62	156	6
NMTAP	62	168	5
NMTAP	62	180	4
BXTAP	62	192	0
NMTAP	62	204	1
NMTAP	62	216	2
NMTAP	62	228	3
BXTAP	62	240	7
NMTAP	62	252	6
NMTAP	62	264	5
NMTAP	62	276	4
BXTAP	62	288	0
NMTAP	62	300	1
NMTAP	62	312	2
NMTAP	62	324	3
BXTAP	62	336	6
NMTAP	62	348	5
NMTAP	62	360	4
NMTAP	62	372	3
NMTAP	63	0	4
NMTAP	63	24	5
NMTAP	63	48	6
NMTAP	63	72	7
NMTAP	63	96	0
NMTAP	63	120	1
NMTAP	63	144	2
NMTAP	63	168	3
NMTAP	63	192	4
NMTAP	63	216	3
NMTAP	63	240	2
NMTAP	63	264	1
NMTAP	63	288	0
NMTAP	63	312	7
NMTAP	63	336	6
NMTAP	63	360	5
NMTAP	64	0	4
NMTAP	64	24	5
NMTAP	64	48	6
NMTAP	64	72	7
NMTAP	64	96	3
NMTAP	64	120	2
NMTAP	64	144	1
NMTAP	64	168	0
NMTAP	64	192	4
NMTAP	64	216	5
NMTAP	64	240	6
NMTAP	64	264	7
NMTTP	64	288	0	E	0	M1
NMHLD	65	0	1	48
NMSTR	65	0	3
NMSI_	65	0	3	96	48	7
NMHLD	65	96	2	48
NMTAP	65	192	1
NMTAP	65	240	1
NMTAP	65	264	0
NMTAP	65	312	5
NMTAP	65	336	4
NMSTR	66	0	6
NMSI_	66	0	6	96	48	3
NMHLD	66	48	6	96
CNSI_	66	144	3	0	48	0
NMTAP	66	192	6
NMTAP	66	240	6
NMTAP	66	264	7
NMTAP	66	312	2
NMTAP	66	336	3
NMTTP	67	0	1	E	0	M1
NMTTP	67	24	7	E	0	M1
NMTTP	67	48	2	B	0	M1
NMTTP	67	72	5	B	0	M1
NMTTP	67	96	1	B	0	M1
NMTTP	67	120	6	B	0	M1
NMTTP	67	144	3	E	0	M1
NMTTP	67	168	5	E	0	M1
NMTTP	67	192	0	B	0	M1
NMTTP	67	216	7	B	0	M1
NMTTP	67	240	3	B	0	M1
NMTTP	67	264	4	B	0	M1
EXTAP	67	288	2
EXTAP	67	336	2
NMTAP	68	0	2
NMTAP	68	24	5
NMTAP	68	48	2
NMTAP	68	72	5
NMTAP	68	96	2
NMTAP	68	120	4
NMTAP	68	144	2
NMTAP	68	168	3
NMSTR	68	192	2
NMSI_	68	192	2	96	48	5
NMTAP	68	216	1
NMTAP	68	240	2
NMHLD	68	264	0	72
BRTAP	68	288	2
NMSTR	69	0	4
NMSI_	69	0	4	96	48	0
NMHLD	69	0	6	48
NMHLD	69	96	5	48
NMTAP	69	192	6
NMTAP	69	240	6
NMTAP	69	264	7
NMTAP	69	312	2
NMTAP	69	336	3
NMSTR	70	0	1
NMSI_	70	0	1	96	48	4
NMHLD	70	48	1	96
CNSI_	70	144	4	0	48	7
NMTAP	70	192	1
NMTAP	70	240	1
NMTAP	70	264	0
NMTAP	70	312	5
NMTAP	70	336	4
NMSTR	71	0	3
NMSI_	71	0	3	96	48	7
NMHLD	71	48	3	96
NMTAP	71	192	6
NMTAP	71	240	6
NMTAP	71	264	2
NMTAP	71	312	2
NMTAP	71	336	4
NMTAP	72	0	5
NMTAP	72	24	3
NMTAP	72	48	5
NMTAP	72	72	3
NMTAP	72	96	5
NMTAP	72	120	4
NMTAP	72	144	5
NMTAP	72	168	4
NMSTR	72	192	5
NMSI_	72	192	5	96	48	2
NMTAP	72	216	5
NMTAP	72	240	5
NMTAP	72	264	5
BXTAP	72	288	5
NMHLD	73	0	1	48
NMHLD	73	0	3	48
NMHLD	73	96	4	48
NMHLD	73	96	6	48
NMTAP	73	192	6
NMTAP	73	240	6
NMTAP	73	264	7
NMTAP	73	312	2
NMTAP	73	336	3
NMSTR	74	0	1
NMSI_	74	0	1	96	48	4
NMHLD	74	48	1	96
CNSI_	74	144	4	0	48	7
NMTAP	74	192	1
NMTAP	74	240	1
NMTAP	74	264	0
NMTAP	74	312	5
NMTAP	74	336	4
NMTTP	75	0	7	B	0	M1
NMTTP	75	24	1	B	0	M1
NMTTP	75	48	6	E	0	M1
NMTTP	75	72	3	E	0	M1
NMTTP	75	96	7	E	0	M1
NMTTP	75	120	2	E	0	M1
NMTTP	75	144	5	B	0	M1
NMTTP	75	168	3	B	0	M1
NMTTP	75	192	0	E	0	M1
NMTTP	75	216	1	E	0	M1
NMTTP	75	240	5	E	0	M1
NMTTP	75	264	4	E	0	M1
EXTAP	75	288	6
EXTAP	75	336	6
NMTAP	76	0	5
NMTAP	76	24	3
NMTAP	76	48	5
NMTAP	76	72	3
NMTAP	76	96	5
NMTAP	76	120	4
NMTAP	76	144	5
NMTAP	76	168	6
NMTAP	76	192	5
NMTAP	76	216	7
NMTAP	76	240	5
NMTAP	76	264	0
BXHLD	76	288	4	96
NMTAP	77	0	3
NMTTP	77	192	2	E	0	M1
NMTTP	77	240	3	E	0	M1
NMTTP	77	288	6	E	0	M1
NMTTP	77	336	5	E	0	M1
NMSTR	78	0	3
NMSCL	78	0	3	96	96	7
CNSCR	78	192	7	0	96	3
NMTAP	79	0	4
NMTTP	79	192	6	E	0	M1
NMTTP	79	240	5	E	0	M1
NMTTP	79	288	2	E	0	M1
NMTTP	79	336	3	E	0	M1
NMHLD	80	0	4	48
NMHLD	80	96	5	48
NMHLD	80	192	3	48
NMSTR	80	288	4
NMSCR	80	288	4	96	192	2
NMTAP	80	336	5
NMTAP	81	0	3
NMTAP	81	96	3
NMTAP	81	192	3
NMTAP	81	288	3
NMSTR	81	288	4
NMSCR	81	288	4	96	192	2
NMTAP	81	336	5
NMTAP	82	0	3
NMTAP	82	96	3
NMTAP	82	192	3
NMTAP	82	288	3
NMSTR	82	288	4
NMSCR	82	288	4	96	96	0
NMTAP	82	336	5
NMTAP	83	0	3
NMTAP	83	96	3
NMTAP	83	192	3
NMTAP	83	192	7
NMTAP	83	240	6
NMTAP	83	288	3
NMTAP	83	288	5
NMTAP	83	336	2
NMTAP	84	0	2
NMTAP	84	24	4
NMTAP	84	48	2
NMTAP	84	72	4
NMTAP	84	96	1
NMTAP	84	120	5
NMTAP	84	144	1
NMTAP	84	168	5
NMSTR	84	192	0
NMSV_	84	192	0	96	48	3
NMSV_	84	192	0	96	48	5
NMTAP	84	216	6
NMTAP	84	240	0
NMTAP	84	264	6
NMTAP	85	0	2
NMTAP	85	0	6
NMTAP	85	48	0
NMTAP	85	96	4
NMTAP	85	144	6
NMTAP	85	168	6
BRTAP	85	192	5
BRHLD	85	192	7	48
NMTAP	85	240	5
BRHLD	85	288	1	48
BRTAP	85	288	3
NMTAP	85	336	3
NMTAP	86	0	4
NMTAP	86	0	6
NMTAP	86	48	5
NMTAP	86	72	3
NMSTR	86	96	4
NMSI_	86	96	4	96	48	6
NMTAP	86	120	2
NMSTR	86	144	4
NMSUL	86	144	4	96	48	0
NMTAP	86	168	3
NMSTR	86	192	4
NMSCR	86	192	4	96	48	7
EXTAP	87	0	0
EXTAP	87	0	7
NMTAP	87	48	2
NMTAP	87	48	6
NMSTR	87	96	1
NMSI_	87	96	1	96	48	3
NMSTR	87	96	7
NMSV_	87	96	7	96	48	4
NMTAP	87	144	0
NMTAP	87	144	5
NMTAP	87	192	1
NMTAP	87	192	7
NMSTR	87	288	3
NMSI_	87	288	3	96	48	1
NMSTR	87	288	4
NMSI_	87	288	4	96	48	6
NMTAP	87	336	2
NMTAP	87	336	5
NMSTR	88	0	3
NMSV_	88	0	3	96	48	4
NMSTR	88	0	4
NMSV_	88	0	4	96	48	3
NMTAP	88	192	7
NMTAP	88	216	0
NMTAP	88	240	7
NMTAP	88	264	0
EXTAP	88	288	1
EXTAP	88	312	2
EXTAP	88	336	3
NMHLD	89	0	7	72
NMHLD	89	48	3	120
NMTAP	89	96	6
NMHLD	89	144	5	96
NMTAP	89	192	2
NMHLD	89	240	1	48
NMSTR	89	288	7
NMSLL	89	288	7	96	96	3
NMTAP	89	336	2
NMSTR	90	0	3
NMSI_	90	0	3	96	48	1
NMTAP	90	48	0
NMTAP	90	96	7
NMTAP	90	144	7
BRTAP	90	192	7
BRTAP	90	240	0
BRTAP	90	240	6
BRSTR	90	288	2
NMSI_	90	288	2	96	48	5
BRTAP	90	288	4
NMSTR	91	0	6
NMSI_	91	0	6	96	48	0
NMTAP	91	48	7
NMSTR	91	96	2
NMSV_	91	96	2	96	48	5
NMTAP	91	144	3
NMSTR	91	192	6
NMSCR	91	192	6	96	48	1
NMTAP	91	240	7
NMSTR	91	288	3
NMSI_	91	288	3	96	48	5
NMSI_	91	288	3	96	48	6
NMSTR	92	0	3
NMSI_	92	0	3	96	48	0
NMSI_	92	0	3	96	48	1
NMSTR	92	96	3
NMSI_	92	96	3	96	48	7
NMSTR	92	192	3
BRSCL	92	192	3	96	48	0
BRSCR	92	192	3	96	48	6
NMSTR	92	288	3
NMSCL	92	288	3	96	96	2
NMSCR	92	288	3	96	384	2
CNSI_	93	96	2	0	96	5
CNSI_	93	192	5	0	96	1
CNSI_	93	288	1	0	96	6
CNSCL	94	0	2	0	960	4
CNSI_	94	0	6	0	96	0
CNSCL	94	96	0	0	96	7
CNSI_	94	192	7	0	96	1
CNSI_	94	288	1	0	96	6
CNSI_	95	0	6	0	96	2
CNSI_	95	96	2	0	96	5
CNSI_	95	192	5	0	96	7
CNSLR	95	288	7	0	288	3
EXTAP	96	288	1
EXTAP	96	288	6
NMSTR	97	0	2
NMSCR	97	0	2	96	48	5
NMTAP	97	48	0
NMTAP	97	48	3
NMTAP	97	96	2
NMTAP	97	144	7
NMHLD	97	192	7	72
NMHLD	97	264	5	72
NMTAP	97	336	4
NMTAP	98	0	3
NMTAP	98	0	4
NMTAP	98	48	2
NMTAP	98	72	3
NMTAP	98	96	1
NMTAP	98	120	2
NMTAP	98	144	0
NMTAP	98	168	1
NMHLD	98	192	7	48
NMHLD	98	264	2	48
NMHLD	98	264	4	48
NMTAP	98	336	1
NMTAP	98	336	5
NMTAP	99	0	2
NMTAP	99	24	3
NMTAP	99	48	1
NMTAP	99	72	5
NMTAP	99	96	4
NMTAP	99	120	6
NMTAP	99	144	1
NMTAP	99	168	3
NMTAP	99	192	2
NMTAP	99	264	4
NMTAP	99	264	6
NMTAP	99	336	1
NMTAP	99	360	7
NMTAP	100	0	1
NMTAP	100	24	7
NMTAP	100	48	1
NMTAP	100	72	7
NMTAP	100	96	1
NMTAP	100	120	0
NMTAP	100	144	1
NMTAP	100	168	2
NMSTR	100	192	1
NMSI_	100	192	1	96	48	7
NMTAP	100	216	3
NMTAP	100	240	1
NMTAP	100	264	4
BRTAP	100	288	1
NMSTR	101	0	5
NMSXL	101	0	5	96	384	1
NMTAP	101	24	3
NMTAP	101	48	6
NMTAP	101	72	4
NMHLD	101	96	7	480

T_REC_TAP	479
T_REC_BRK	52
T_REC_XTP	26
T_REC_BXX	23
T_REC_HLD	95
T_REC_XHO	0
T_REC_BHO	10
T_REC_BXH	1
T_REC_STR	117
T_REC_BST	3
T_REC_XST	4
T_REC_XBS	0
T_REC_TTP	66
T_REC_THO	1
T_REC_SLD	127
T_REC_BSL	2
T_REC_ALL	1006
T_NUM_TAP	692
T_NUM_BRK	91
T_NUM_HLD	96
T_NUM_SLD	127
T_NUM_ALL	1006
T_JUDGE_TAP	770
T_JUDGE_HLD	178
T_JUDGE_SLD	129
T_JUDGE_ALL	1077
TTM_EACHPAIRS	114
TTM_SCR_TAP	346000
TTM_SCR_BRK	236600
TTM_SCR_HLD	96000
TTM_SCR_SLD	190500
TTM_SCR_ALL	869100
TTM_SCR_S	834200
TTM_SCR_SS	860000
TTM_RAT_ACV	10105

