VERSION	0.00.00	1.05.00
FES_MODE	0
BPM_DEF	165.000	165.000	165.000	165.000
MET_DEF	4	4
RESOLUTION	384
CLK_DEF	384
COMPATIBLE_CODE	MA2

BPM	0	0	165.000
MET	0	0	4	4

BRTAP	1	0	0
BRTAP	1	0	7
NMHLD	1	192	1	72
NMHLD	1	264	3	72
NMTAP	1	336	2
NMTAP	2	48	3
NMTAP	2	48	4
NMTAP	2	96	3
NMTAP	2	96	4
NMHLD	2	192	5	72
NMHLD	2	264	4	72
NMSTR	2	336	6
NMSCR	2	336	6	96	240	4
EXTAP	4	0	4
BXHLD	4	0	6	192
NMSTR	4	192	7
BRSI_	4	192	7	96	48	3
EXTAP	5	0	2
EXTAP	5	0	4
NMTAP	5	96	2
NMTAP	5	96	4
NMTAP	5	192	3
NMTAP	5	192	5
NMTAP	5	288	3
NMTAP	5	288	5
NMTAP	6	0	1
NMTAP	6	0	4
NMTAP	6	96	1
NMTAP	6	96	4
NMTAP	6	192	3
NMTAP	6	192	6
NMTAP	6	288	3
NMTAP	6	288	6
NMTAP	7	0	2
NMTAP	7	0	4
NMTAP	7	96	3
NMTAP	7	96	5
NMTAP	7	192	1
NMTAP	7	192	4
NMTAP	7	288	3
NMTAP	7	288	6
NMTAP	8	0	0
NMTAP	8	0	5
NMTAP	8	96	2
NMSTR	8	96	7
NMSUL	8	96	7	96	96	3
NMSUR	8	96	7	96	96	3
NMTAP	9	0	2
NMTAP	9	0	4
NMTAP	9	96	2
NMTAP	9	96	4
NMTAP	9	192	3
NMTAP	9	192	6
NMTAP	9	288	3
NMTAP	9	288	6
NMTAP	10	0	1
NMTAP	10	0	4
NMTAP	10	96	3
NMTAP	10	96	6
NMTAP	10	192	0
NMTAP	10	192	5
NMTAP	10	288	2
NMTAP	10	288	7
NMTAP	11	0	1
NMTAP	11	0	3
NMTAP	11	96	4
NMHLD	11	96	6	96
BXTAP	11	192	7
EXTAP	11	264	0
EXTAP	11	264	5
EXTAP	11	336	1
EXTAP	11	336	4
NMTAP	12	48	2
NMTAP	12	96	2
NMTAP	12	144	3
NMTAP	12	192	1
BRTAP	12	288	0
BRTAP	12	288	7
NMHLD	13	0	6	192
NMTAP	13	192	4
NMTAP	13	240	4
NMTAP	13	288	5
NMHLD	14	0	1	192
NMTAP	14	0	4
NMTAP	14	192	3
NMTAP	14	240	3
NMTAP	14	288	2
NMTAP	15	0	3
NMHLD	15	0	5	192
NMTAP	15	192	4
NMTAP	15	240	4
BXHLD	15	288	6	192
BXHLD	16	0	5	96
NMTAP	16	192	4
NMTAP	16	192	5
NMTAP	16	288	4
NMTAP	16	288	5
NMHLD	17	0	2	96
NMHLD	17	0	3	96
NMTAP	17	192	1
NMTAP	17	240	2
NMTAP	17	288	3
NMHLD	18	0	4	96
NMHLD	18	0	5	96
NMTAP	18	192	6
NMTAP	18	240	5
NMTAP	18	288	4
NMHLD	19	0	1	96
NMHLD	19	0	2	96
NMTAP	19	192	0
NMTAP	19	240	1
NMTAP	19	288	2
BXTAP	20	0	1
BXTAP	20	0	3
BXTAP	20	48	1
BXTAP	20	48	3
BXSTR	20	96	1
NMSI_	20	96	1	96	96	6
BXSTR	20	96	3
NMSI_	20	96	3	96	96	6
NMTAP	21	0	7
NMTAP	21	48	0
NMSTR	21	96	1
NMSI_	21	96	1	96	96	3
NMSV_	21	96	1	96	96	4
NMTAP	22	0	0
NMTAP	22	48	7
NMSTR	22	96	6
NMSCL	22	96	6	96	96	4
NMSV_	22	96	6	96	96	3
NMTAP	23	0	0
NMTAP	23	48	1
NMHLD	23	96	2	96
NMTAP	23	192	3
NMTAP	23	240	4
NMHLD	23	288	5	96
NMTTP	24	0	5	E	0	M1
NMTTP	24	48	4	E	0	M1
NMTTP	24	96	3	E	0	M1
NMTHO	24	192	0	96	C	0	M1
EXTAP	25	0	0
NMTAP	25	48	7
NMTAP	25	96	0
NMSTR	25	96	6
NMSI_	25	96	6	96	48	4
CNSCL	25	240	4	0	72	2
NMTAP	26	0	1
NMTAP	26	48	2
NMSTR	26	96	1
NMSI_	26	96	1	96	48	7
NMTAP	26	96	3
CNSCL	26	240	7	0	72	5
NMTAP	27	0	4
NMTAP	27	48	5
NMTAP	27	96	4
NMTAP	27	96	6
NMTAP	27	192	1
NMTAP	27	192	3
NMTAP	27	288	2
NMTAP	27	288	5
NMTAP	28	0	3
NMTAP	28	24	4
NMTAP	28	48	3
NMTAP	28	72	4
NMTAP	28	96	3
NMTAP	28	120	4
NMTAP	28	144	3
NMTAP	28	168	4
NMTAP	28	192	3
BRTAP	28	288	1
BRTAP	28	288	6
EXTAP	29	0	0
EXTAP	29	0	7
EXTAP	29	48	0
EXTAP	29	48	7
EXTAP	29	96	0
EXTAP	29	96	7
NMHLD	29	192	0	96
NMHLD	29	192	1	96
NMHLD	29	336	0	96
NMHLD	29	336	2	96
NMHLD	30	96	1	96
NMHLD	30	96	2	96
NMHLD	30	240	0	96
NMHLD	30	240	3	96
EXTAP	31	0	4
EXTAP	31	0	7
NMTAP	31	96	4
NMTAP	31	96	7
NMHLD	31	192	6	96
NMHLD	31	192	7	96
NMHLD	31	336	5	96
NMHLD	31	336	7	96
NMHLD	32	96	5	96
NMHLD	32	96	6	96
NMHLD	32	240	4	96
NMHLD	32	240	7	96
EXTAP	33	0	0
EXTAP	33	0	3
NMTAP	33	96	0
NMTAP	33	96	3
NMHLD	33	192	1	96
NMHLD	33	192	2	96
NMHLD	33	336	2	96
NMHLD	33	336	3	96
NMHLD	34	96	1	96
NMHLD	34	96	2	96
NMHLD	34	240	0	96
NMHLD	34	240	1	96
BRTAP	35	0	2
BRHLD	35	0	7	384
BRTAP	36	0	5
BRTAP	36	96	1
BRTAP	36	96	3
BRTAP	36	192	4
BRTAP	36	192	6
BRSTR	36	288	1
NMSI_	36	288	1	96	48	4
BRTAP	36	288	7
NMSTR	37	0	0
NMSI_	37	0	0	96	48	5
NMSTR	37	96	2
NMSI_	37	96	2	96	48	7
NMSTR	37	192	3
NMSI_	37	192	3	96	48	6
EXTAP	37	288	0
NMTAP	38	0	5
NMTAP	38	0	7
NMTAP	38	96	3
NMTAP	38	96	4
NMTAP	38	192	0
NMTAP	38	192	2
NMTAP	38	240	0
NMTAP	38	240	2
NMTAP	38	288	0
NMTAP	38	288	2
NMHLD	39	0	5	48
NMHLD	39	0	7	48
NMHLD	39	96	0	48
NMHLD	39	96	1	48
NMHLD	39	192	4	48
NMHLD	39	192	6	48
NMHLD	39	288	2	48
NMHLD	39	288	3	48
BXHLD	40	0	0	48
BXHLD	40	0	5	48
NMTAP	40	96	6
NMTAP	40	120	7
NMTAP	40	144	6
NMTAP	40	168	7
NMTAP	40	192	6
BRTAP	40	288	0
BRTAP	40	288	5
BRTAP	40	336	0
BRTAP	40	336	5
NMSTR	41	0	1
NMSI_	41	0	1	96	48	5
NMSTR	41	96	6
NMSI_	41	96	6	96	48	0
NMSTR	41	192	2
NMSI_	41	192	2	96	48	4
EXTAP	41	288	7
NMTAP	42	0	5
NMTAP	42	0	6
NMTAP	42	96	0
NMTAP	42	96	7
NMTAP	42	192	1
NMTAP	42	192	2
NMTAP	42	240	1
NMTAP	42	240	2
NMTAP	42	288	1
NMTAP	42	288	2
NMHLD	43	0	6	96
NMHLD	43	96	4	96
NMHLD	43	192	2	96
NMHLD	43	288	0	96
NMTAP	44	0	2
NMTAP	44	48	2
NMTAP	44	96	1
NMTAP	44	96	3
NMTAP	44	192	3
NMTAP	44	192	4
BRTAP	44	288	4
BRSTR	44	288	6
NMSI_	44	288	6	96	48	3
NMSTR	45	0	7
NMSI_	45	0	7	96	48	2
NMSTR	45	96	5
NMSI_	45	96	5	96	48	0
NMSTR	45	192	4
NMSI_	45	192	4	96	48	1
EXTAP	45	288	7
NMTAP	46	0	0
NMTAP	46	0	2
NMTAP	46	48	0
NMTAP	46	48	2
NMTAP	46	96	0
NMTAP	46	96	2
NMTAP	46	192	3
NMTAP	46	192	4
NMTAP	46	288	5
NMTAP	46	288	7
NMHLD	47	0	0	48
NMHLD	47	0	2	48
NMHLD	47	96	6	48
NMHLD	47	96	7	48
NMHLD	47	192	1	48
NMHLD	47	192	3	48
NMHLD	47	288	4	48
NMHLD	47	288	5	48
BXHLD	48	0	2	48
BXHLD	48	0	7	48
NMTAP	48	96	1
NMTAP	48	120	0
NMTAP	48	144	1
NMTAP	48	168	0
NMTAP	48	192	1
BRTAP	48	288	2
BRTAP	48	288	7
BRTAP	48	336	2
BRTAP	48	336	7
NMSTR	49	0	6
NMSI_	49	0	6	96	48	2
NMSTR	49	96	1
NMSI_	49	96	1	96	48	7
NMSTR	49	192	5
NMSI_	49	192	5	96	48	3
EXTAP	49	288	0
NMTAP	50	0	1
NMTAP	50	0	2
NMTAP	50	48	1
NMTAP	50	48	2
NMTAP	50	96	1
NMTAP	50	96	2
NMTAP	50	192	3
NMTAP	50	192	4
NMTAP	50	288	5
NMTAP	50	288	6
NMTAP	51	0	1
NMTAP	51	48	1
NMTAP	51	96	3
NMTAP	51	144	2
NMTAP	51	192	7
NMTAP	51	240	7
NMTAP	51	288	0
NMTAP	51	288	6
NMTAP	52	0	0
NMTAP	52	0	1
NMTAP	52	48	0
NMTAP	52	48	1
NMTAP	52	96	0
NMTAP	52	96	1
NMTAP	52	144	0
NMTAP	52	144	1
NMTAP	52	192	0
NMSTR	52	192	1
NMSI_	52	192	1	96	48	5
BRSTR	52	288	7
NMSCL	52	288	7	96	384	4
CNSSL	54	0	4	0	384	0
CNSCR	55	0	0	0	384	3
NMHLD	57	0	2	192
NMHLD	57	192	3	192
NMHLD	58	0	4	192
NMHLD	58	192	5	192
NMTAP	59	0	4
NMTAP	59	96	5
NMTAP	59	96	6
NMTAP	59	192	6
NMTAP	59	192	7
NMTAP	59	288	0
NMTAP	59	288	7
NMHLD	60	0	1	192
NMHLD	60	0	6	192
NMTTP	60	288	0	C	1	M1
NMTTP	60	288	3	B	0	M1
NMTTP	60	288	4	B	0	M1
BRTAP	61	0	0
NMTAP	61	48	0
NMTAP	61	96	6
NMTAP	61	144	6
NMTAP	61	192	7
NMTAP	61	240	7
NMTAP	61	288	5
NMTAP	61	336	5
NMTAP	62	0	3
NMTAP	62	48	3
NMTAP	62	96	1
NMTAP	62	144	1
NMTAP	62	192	3
NMTAP	62	240	3
NMTAP	62	288	5
NMTAP	62	336	5
NMTAP	63	0	6
NMTAP	63	24	7
NMTAP	63	48	6
NMTAP	63	72	7
NMTAP	63	96	6
NMTAP	63	192	1
NMTAP	63	216	0
NMTAP	63	240	1
NMTAP	63	264	0
NMTAP	63	288	1
NMTAP	64	0	3
NMTAP	64	24	4
NMTAP	64	48	3
NMTAP	64	72	4
NMTAP	64	96	3
EXTAP	64	192	2
EXTAP	64	192	4
NMTTP	64	288	0	C	0	M1
NMTTP	64	288	2	B	0	M1
NMTTP	64	288	2	E	0	M1
NMTTP	64	288	4	B	0	M1
NMTTP	64	288	5	E	0	M1
BRTAP	65	0	7
NMTAP	65	48	7
NMTAP	65	96	1
NMTAP	65	144	1
NMTAP	65	192	0
NMTAP	65	240	0
NMTAP	65	288	2
NMTAP	65	336	2
NMTAP	66	0	4
NMTAP	66	48	4
NMTAP	66	96	6
NMTAP	66	144	6
NMTAP	66	192	4
NMTAP	66	240	4
NMTAP	66	288	2
NMTAP	66	336	2
NMTAP	67	0	1
NMTAP	67	24	0
NMTAP	67	48	1
NMTAP	67	72	0
NMTAP	67	96	1
NMTAP	67	192	6
NMTAP	67	216	7
NMTAP	67	240	6
NMTAP	67	264	7
NMTAP	67	288	6
NMTAP	68	0	4
NMTAP	68	24	3
NMTAP	68	48	4
NMTAP	68	72	3
NMTAP	68	96	4
NMSTR	68	192	2
BRSI_	68	192	2	96	48	0
NMSTR	68	192	5
BRSI_	68	192	5	96	48	7
BXTAP	69	0	1
BXTAP	69	0	6
NMTAP	69	96	0
NMTAP	69	144	7
NMSTR	69	192	6
NMSI_	69	192	6	96	48	3
NMSTR	69	288	7
NMSI_	69	288	7	96	48	2
EXTAP	70	0	4
NMTAP	70	96	4
NMTAP	70	144	3
NMSTR	70	192	2
NMSI_	70	192	2	96	48	7
NMSTR	70	288	3
NMSI_	70	288	3	96	48	6
EXTAP	71	0	0
NMTAP	71	96	0
NMTAP	71	144	7
NMSTR	71	192	6
NMSI_	71	192	6	96	48	3
NMSTR	71	288	7
NMSCR	71	288	7	96	120	4
NMHLD	72	0	5	192
NMTTP	72	192	5	E	0	M1
NMTTP	72	216	4	E	0	M1
NMTTP	72	240	3	E	0	M1
NMTTP	72	264	2	E	0	M1
NMTTP	72	288	1	E	0	M1
BXHLD	73	0	6	96
NMTAP	73	96	4
NMTAP	73	144	4
NMTAP	73	192	5
NMTAP	73	240	5
NMTAP	73	288	3
NMTAP	73	336	2
NMHLD	74	0	1	96
NMTAP	74	96	3
NMTAP	74	144	3
NMTAP	74	192	2
NMTAP	74	240	2
NMTAP	74	288	4
NMTAP	74	336	5
NMTAP	75	0	6
NMTAP	75	0	7
NMTAP	75	48	6
NMTAP	75	48	7
NMSTR	75	96	6
NMSI_	75	96	6	96	48	2
NMSTR	75	96	7
NMSI_	75	96	7	96	48	3
EXTAP	75	288	1
EXTAP	75	288	4
NMTAP	76	0	2
NMTAP	76	24	3
NMTAP	76	48	2
NMTAP	76	96	5
NMTAP	76	120	4
NMTAP	76	144	5
NMTAP	76	192	3
NMTAP	76	216	4
NMTAP	76	240	3
BRSTR	76	288	2
NMSLL	76	288	2	96	384	6
BRTAP	76	288	6
CNSI_	78	0	6	0	96	1
CNSI_	78	96	1	0	96	4
NMSTR	78	288	5
NMSLR	78	288	5	96	384	1
CNSI_	80	0	1	0	96	6
CNSI_	80	96	6	0	96	3
NMHLD	81	0	2	96
NMHLD	81	0	3	96
NMHLD	81	192	1	96
NMHLD	81	192	2	96
NMHLD	82	0	0	96
NMHLD	82	0	1	96
NMHLD	82	192	0	96
NMHLD	82	192	1	96
NMHLD	83	0	6	96
NMHLD	83	0	7	96
NMHLD	83	192	0	96
NMHLD	83	192	7	96
NMTAP	84	0	0
NMTAP	84	24	7
NMTAP	84	48	0
NMTAP	84	72	7
NMTAP	84	96	0
NMTAP	84	120	7
NMTAP	84	144	0
NMTAP	84	168	7
NMSTR	84	192	0
BRSI_	84	192	0	96	48	4
BRSTR	84	288	7
NMSI_	84	288	7	96	48	2
NMSTR	85	0	3
NMSI_	85	0	3	96	48	6
NMSTR	85	96	4
NMSI_	85	96	4	96	48	1
NMSTR	85	192	0
NMSI_	85	192	0	96	48	5
EXTAP	85	288	7
NMTAP	86	0	4
NMTAP	86	0	6
NMSTR	86	96	3
NMSI_	86	96	3	96	48	1
NMSTR	86	96	7
NMSI_	86	96	7	96	48	1
CNSV_	86	240	1	0	72	4
CNSV_	86	240	1	0	72	6
NMHLD	87	0	5	48
NMHLD	87	0	7	48
NMHLD	87	96	0	48
NMHLD	87	96	2	48
NMHLD	87	192	4	48
NMHLD	87	192	6	48
NMHLD	87	288	1	48
NMHLD	87	288	3	48
BXHLD	88	0	2	48
BXHLD	88	0	7	48
NMTAP	88	96	1
NMTAP	88	120	0
NMTAP	88	144	1
NMTAP	88	168	0
NMTAP	88	192	1
BRSTR	88	288	3
NMSI_	88	288	3	96	48	6
BRTAP	88	288	6
NMSTR	89	0	7
NMSI_	89	0	7	96	48	2
NMSTR	89	96	0
NMSI_	89	96	0	96	48	5
NMSTR	89	192	4
NMSI_	89	192	4	96	48	1
EXTAP	89	288	3
NMTAP	90	0	0
NMTAP	90	0	2
NMSTR	90	96	3
NMSI_	90	96	3	96	48	5
NMSTR	90	96	7
NMSI_	90	96	7	96	48	5
CNSV_	90	240	5	0	72	0
CNSV_	90	240	5	0	72	2
NMTAP	91	0	1
NMTAP	91	48	1
NMTAP	91	96	3
NMTAP	91	144	3
NMTAP	91	192	5
NMTAP	91	240	5
NMSTR	91	288	7
NMSI_	91	288	7	96	48	2
NMSTR	92	0	1
NMSI_	92	0	1	96	48	4
NMSTR	92	96	3
NMSI_	92	96	3	96	48	6
NMSTR	92	192	5
NMSI_	92	192	5	96	48	1
BRSTR	92	288	7
NMSCL	92	288	7	96	288	0
CNSSL	93	288	0	0	288	4
NMHLD	95	0	4	48
NMHLD	95	0	6	48
NMHLD	95	96	1	48
NMHLD	95	96	3	48
NMHLD	95	192	4	48
NMHLD	95	192	5	48
NMHLD	95	288	2	48
NMHLD	95	288	3	48
NMHLD	96	0	6	48
NMHLD	96	0	7	48
NMTAP	96	96	0
NMSTR	96	96	1
NMSUR	96	96	1	96	96	6
NMTAP	97	0	7
NMTAP	97	48	7
NMTAP	97	96	0
NMTAP	97	144	0
NMHLD	97	192	6	72
NMHLD	97	264	4	72
NMTAP	97	336	5
NMTAP	98	0	3
NMTAP	98	48	3
NMTAP	98	96	4
NMTAP	98	144	4
NMHLD	98	192	2	72
NMHLD	98	264	0	72
NMTAP	98	336	1
NMTAP	99	0	2
NMTAP	99	0	7
NMTAP	99	48	2
NMTAP	99	48	7
NMTAP	99	96	2
NMTAP	99	96	7
BRTAP	99	192	4
BRTAP	99	192	6
BRTAP	99	264	2
BRTAP	99	264	3
BRTAP	99	336	0
BRTAP	99	336	5
NMTAP	100	48	1
NMTAP	100	48	7
NMTAP	100	96	1
NMTAP	100	96	7
NMTAP	100	144	1
NMTAP	100	144	7
NMTAP	100	192	2
NMTAP	100	192	6
NMTAP	100	240	2
NMTAP	100	240	6
BRSTR	100	288	3
NMSI_	100	288	3	96	48	6
NMTAP	100	288	5
NMSTR	101	0	7
BRSI_	101	0	7	96	96	5
NMTTP	101	96	0	B	0	M1
NMTTP	101	96	0	C	1	M1
NMTTP	101	96	1	B	0	M1
CNSCL	101	192	5	0	96	3
CNSI_	101	288	3	0	288	1

T_REC_TAP	332
T_REC_BRK	32
T_REC_XTP	30
T_REC_BXX	7
T_REC_HLD	102
T_REC_XHO	0
T_REC_BHO	1
T_REC_BXH	10
T_REC_STR	48
T_REC_BST	8
T_REC_XST	0
T_REC_XBS	2
T_REC_TTP	19
T_REC_THO	1
T_REC_SLD	56
T_REC_BSL	5
T_REC_ALL	653
T_NUM_TAP	429
T_NUM_BRK	65
T_NUM_HLD	103
T_NUM_SLD	56
T_NUM_ALL	653
T_JUDGE_TAP	478
T_JUDGE_HLD	218
T_JUDGE_SLD	61
T_JUDGE_ALL	757
TTM_EACHPAIRS	159
TTM_SCR_TAP	214500
TTM_SCR_BRK	169000
TTM_SCR_HLD	103000
TTM_SCR_SLD	84000
TTM_SCR_ALL	570500
TTM_SCR_S	547100
TTM_SCR_SS	564000
TTM_RAT_ACV	10115

