VERSION	0.00.00	1.05.00
FES_MODE	0
BPM_DEF	124.000	124.000	124.000	124.000
MET_DEF	4	4
RESOLUTION	384
CLK_DEF	384
COMPATIBLE_CODE	MA2

BPM	0	0	124.000
MET	0	0	4	4

NMTTP	1	192	2	B	0	M1
NMTTP	1	240	3	B	0	M1
NMTTP	1	288	4	B	0	M1
NMTTP	1	336	5	B	0	M1
NMTTP	2	0	0	B	0	M1
NMTTP	2	0	0	E	0	M1
NMTTP	2	96	5	B	0	M1
NMTTP	2	96	6	E	0	M1
NMTTP	2	192	1	B	0	M1
NMTTP	2	192	2	E	0	M1
NMTTP	2	288	4	B	0	M1
NMTTP	2	288	4	E	0	M1
EXTAP	3	0	2
EXTAP	3	48	3
EXTAP	3	96	4
EXTAP	3	96	5
EXTAP	3	144	6
EXTAP	3	168	6
BRHLD	3	192	0	48
BRHLD	3	240	7	48
NMSTR	3	288	0
NMSI_	3	288	0	96	48	3
NMHLD	4	0	5	96
NMTAP	4	96	4
NMTAP	4	144	3
NMHLD	4	192	4	96
NMTAP	4	288	3
NMTAP	4	336	2
NMHLD	5	0	3	96
NMTAP	5	96	2
NMTAP	5	144	1
NMSTR	5	192	1
NMSCR	5	192	1	96	64	5
NMTAP	5	240	7
NMTAP	5	288	7
NMTAP	6	0	6
NMTAP	6	48	6
NMTAP	6	96	0
NMTAP	6	144	0
NMSTR	6	192	1
NMSCR	6	192	1	96	64	5
NMHLD	6	192	7	80
NMTAP	6	336	6
NMTAP	7	0	6
NMTAP	7	0	7
NMTAP	7	48	1
NMTAP	7	96	0
NMSTR	7	96	1
NMSCR	7	96	1	96	64	5
NMTAP	7	144	7
NMTAP	7	192	7
CNSUL	7	256	5	0	80	7
NMTAP	7	288	6
NMHLD	8	0	5	96
NMTAP	8	96	4
NMTAP	8	144	4
NMSTR	8	192	6
NMSI_	8	192	6	96	48	2
NMTAP	8	240	3
EXTAP	8	288	1
NMTAP	9	0	0
NMTAP	9	0	1
NMTAP	9	48	2
NMTAP	9	96	3
NMTAP	9	96	4
NMTAP	9	144	5
NMTAP	9	192	2
NMSTR	9	192	6
NMSI_	9	192	6	96	48	2
NMTAP	9	240	3
EXTAP	9	288	1
NMTAP	10	0	2
NMSTR	10	0	6
NMSI_	10	0	6	96	48	2
NMTAP	10	48	4
EXTAP	10	96	0
NMTAP	10	192	2
NMSTR	10	192	6
NMSI_	10	192	6	96	48	2
NMTAP	10	240	5
EXTAP	10	288	7
NMTAP	11	0	0
NMHLD	11	0	6	96
NMTAP	11	96	4
NMTAP	11	144	3
NMTAP	11	144	5
NMTAP	11	192	1
NMTAP	11	224	1
NMTAP	11	272	2
NMTAP	11	272	3
NMTAP	11	320	4
NMTAP	11	320	5
EXTAP	11	368	0
EXTAP	11	368	7
BRTAP	12	0	0
BRTAP	12	0	7
NMTAP	12	48	6
NMTAP	12	80	4
NMTAP	12	96	5
NMTAP	12	144	2
NMTAP	12	176	4
NMTAP	12	192	3
NMSTR	12	240	6
NMSI_	12	240	6	96	32	0
NMTAP	12	272	4
NMTAP	12	288	5
NMTAP	12	336	3
EXTAP	13	0	3
NMTAP	13	48	1
NMTAP	13	80	3
NMTAP	13	96	2
NMTAP	13	144	5
NMTAP	13	176	3
EXTAP	13	192	4
NMSTR	13	240	1
NMSI_	13	240	1	96	32	7
NMTAP	13	272	3
EXTAP	13	288	2
NMTAP	13	336	4
NMTAP	14	0	4
NMTAP	14	48	5
NMTAP	14	80	4
NMTAP	14	144	3
NMTAP	14	144	4
NMTAP	14	192	2
NMHLD	14	224	2	64
NMTAP	14	288	3
NMTAP	14	336	0
NMTAP	14	336	4
NMSTR	15	0	1
NMSCR	15	0	1	96	48	4
NMTAP	15	80	7
NMTAP	15	144	5
NMTAP	15	192	3
NMHLD	15	224	3	64
NMTAP	15	288	4
NMTAP	15	336	2
NMTAP	15	336	6
BRTAP	16	0	1
BRTAP	16	0	5
NMTAP	16	48	0
NMTAP	16	80	3
NMTAP	16	96	2
NMTAP	16	144	5
NMTAP	16	176	3
EXTAP	16	192	4
NMTAP	16	240	1
NMTAP	16	272	3
NMTAP	16	288	2
NMTAP	16	336	6
NMTAP	16	368	4
EXTAP	17	0	5
NMTAP	17	48	2
NMTAP	17	80	4
NMTAP	17	96	3
NMTAP	17	144	7
NMTAP	17	176	4
EXSTR	17	192	5
NMSCR	17	192	5	96	48	0
NMTAP	17	240	2
EXTAP	17	288	2
NMTAP	17	336	1
NMTAP	18	0	0
NMHLD	18	0	1	80
NMHLD	18	80	3	64
NMTAP	18	144	4
NMHLD	18	192	6	80
NMTAP	18	192	7
NMHLD	18	272	4	64
NMTAP	18	336	3
NMSTR	19	0	1
NMSV_	19	0	1	96	48	2
NMSTR	19	96	0
NMSUL	19	96	0	96	48	3
NMSTR	19	192	7
NMSCL	19	192	7	96	48	4
BRTAP	20	0	2
BRHLD	20	0	6	96
NMTAP	20	80	7
NMSTR	20	96	7
NMSCR	20	96	7	96	64	5
NMTAP	20	144	5
EXTAP	20	192	7
NMTAP	20	272	0
NMSTR	20	288	0
NMSCL	20	288	0	96	64	2
NMTAP	20	336	2
EXTAP	21	0	0
NMTAP	21	80	7
NMSTR	21	96	7
NMSF_	21	96	7	96	48	3
NMTAP	21	144	0
NMTAP	21	144	6
EXTAP	21	192	7
NMTAP	21	288	2
NMTAP	21	288	4
NMTAP	21	336	6
NMTAP	21	336	7
EXHLD	22	0	1	96
EXTAP	22	0	5
NMTAP	22	80	0
NMSTR	22	96	0
NMSLL	22	96	0	96	32	4
NMTAP	22	144	2
EXTAP	22	192	0
CNSI_	22	224	4	0	32	2
NMTAP	22	272	7
NMSTR	22	288	7
NMSLR	22	288	7	96	32	3
NMTAP	22	336	5
EXTAP	23	0	7
CNSI_	23	32	3	0	32	5
NMTAP	23	80	0
NMSTR	23	96	0
NMSCL	23	96	0	96	48	5
NMSCR	23	96	0	96	48	3
NMTAP	23	144	1
NMTAP	23	144	7
EXTAP	23	192	0
NMTAP	23	288	3
NMTAP	23	288	5
NMTAP	23	336	0
NMTAP	23	336	1
NMSTR	24	0	2
NMSV_	24	0	2	96	48	7
NMSTR	24	0	6
NMSI_	24	0	6	96	48	3
NMTTP	24	96	0	C	1	M1
NMTAP	24	192	1
NMTAP	24	192	5
NMTAP	24	272	7
NMSTR	24	288	7
NMSI_	24	288	7	96	48	3
NMTAP	24	336	1
NMSTR	25	0	0
NMSI_	25	0	0	96	48	5
NMSTR	25	0	7
NMSI_	25	0	7	96	48	5
NMSTR	25	96	0
NMSI_	25	96	0	96	48	2
NMSTR	25	96	7
NMSI_	25	96	7	96	48	2
NMSTR	25	192	0
NMSF_	25	192	0	96	48	4
NMTAP	25	192	7
BRTAP	25	288	0
NMTAP	26	0	2
NMHLD	26	0	6	80
NMTAP	26	80	4
NMTAP	26	96	5
NMTAP	26	144	3
NMTAP	26	144	7
NMHLD	26	192	1	80
NMTAP	26	192	5
NMTAP	26	272	3
NMTAP	26	288	2
NMTAP	26	336	0
NMTAP	26	336	4
EXSTR	27	0	1
NMSI_	27	0	1	96	32	3
EXSTR	27	0	5
NMSI_	27	0	5	96	32	7
EXTAP	27	96	1
EXTAP	27	96	5
CNSI_	27	128	3	0	32	5
CNSI_	27	128	7	0	32	1
EXSTR	27	192	3
BRSI_	27	192	3	96	32	1
EXSTR	27	192	7
BRSI_	27	192	7	96	32	5
CNSI_	27	320	1	0	32	7
CNSI_	27	320	5	0	32	3
NMTAP	28	0	0
NMHLD	28	0	4	96
NMTAP	28	80	1
NMTAP	28	88	2
EXHLD	28	96	3	48
NMTAP	28	144	5
NMTAP	28	192	0
NMHLD	28	192	6	96
NMTAP	28	272	0
NMTAP	28	280	1
EXHLD	28	288	2	48
NMTAP	28	336	5
NMTAP	29	0	0
NMHLD	29	0	4	96
NMTAP	29	80	7
NMTAP	29	88	0
EXHLD	29	96	1	48
NMTAP	29	144	5
NMSTR	29	192	0
NMSI_	29	192	0	96	48	4
NMHLD	29	192	6	96
EXTAP	29	288	0
NMTAP	29	336	6
NMHLD	30	0	3	96
NMTAP	30	0	7
NMTAP	30	80	6
NMTAP	30	88	5
EXHLD	30	96	4	48
NMTAP	30	144	2
NMHLD	30	192	1	96
NMTAP	30	192	7
NMTAP	30	272	7
NMTAP	30	280	6
EXHLD	30	288	5	48
NMTAP	30	336	2
NMTAP	31	0	3
NMTAP	31	0	7
NMTAP	31	48	2
NMTAP	31	48	6
NMSTR	31	96	1
NMSXR	31	96	1	96	192	6
NMTAP	31	96	5
NMTAP	31	144	0
NMTAP	31	144	4
NMHLD	32	0	5	144
NMTAP	32	144	4
NMTAP	32	192	3
NMSTR	32	192	5
NMSI_	32	192	5	96	32	3
NMTAP	32	288	1
NMHLD	33	0	2	144
NMTAP	33	144	3
NMSTR	33	192	2
NMSI_	33	192	2	96	32	4
NMTAP	33	192	4
NMTAP	33	288	6
NMHLD	34	0	5	48
NMHLD	34	96	3	48
NMTAP	34	192	2
NMTAP	34	192	4
NMTAP	34	240	4
NMHLD	34	288	3	48
NMHLD	34	288	5	48
NMTAP	35	0	6
NMTAP	35	48	7
NMTAP	35	96	0
NMTAP	35	144	1
NMSTR	35	192	2
BRSXL	35	192	2	96	96	2
EXTAP	36	0	7
NMTAP	36	96	1
NMTAP	36	96	5
NMTAP	36	144	2
NMTAP	36	144	3
NMTAP	36	176	0
EXTAP	36	192	7
NMTAP	36	272	5
NMTAP	36	288	4
NMTAP	36	336	3
NMTAP	36	336	6
NMTAP	36	368	0
EXTAP	37	0	7
NMTAP	37	80	2
NMTAP	37	96	3
NMTAP	37	144	1
NMTAP	37	144	4
NMTAP	37	176	0
EXTAP	37	192	7
NMTAP	37	272	3
NMTAP	37	288	5
NMTAP	37	320	5
NMTAP	37	336	4
NMTAP	37	368	4
EXTAP	38	0	7
NMTAP	38	80	2
NMTAP	38	96	3
NMTAP	38	128	3
NMTAP	38	144	0
NMTAP	38	176	0
EXTAP	38	192	7
NMTAP	38	240	1
NMTAP	38	240	6
NMSTR	38	288	0
NMSI_	38	288	0	96	48	4
NMTAP	38	288	5
NMTAP	38	336	1
NMSTR	39	0	7
NMSI_	39	0	7	96	48	3
NMTAP	39	48	6
NMTAP	39	96	0
NMTAP	39	144	1
NMTAP	39	192	0
NMTAP	39	192	1
NMTAP	39	224	2
EXTAP	39	224	7
NMTAP	39	256	3
NMTAP	39	272	5
NMTAP	39	288	4
BXHLD	39	320	3	32
BXHLD	39	320	7	32
EXTAP	40	0	2
EXTAP	40	0	6
NMTAP	40	48	1
NMTAP	40	80	3
NMTAP	40	96	2
NMTAP	40	144	5
NMTAP	40	176	3
EXTAP	40	192	4
NMSTR	40	240	1
NMSCL	40	240	1	96	32	7
NMTAP	40	272	3
NMTAP	40	288	2
NMTAP	40	336	4
EXTAP	41	0	4
NMTAP	41	48	6
NMTAP	41	80	4
NMTAP	41	96	5
NMTAP	41	144	2
NMTAP	41	176	4
EXTAP	41	192	3
NMSTR	41	240	6
NMSCR	41	240	6	96	32	0
NMTAP	41	272	4
EXTAP	41	288	5
NMTAP	41	336	3
NMTAP	42	0	3
NMTAP	42	32	5
NMTAP	42	48	4
NMTAP	42	80	4
NMTAP	42	96	6
NMTAP	42	128	6
NMTAP	42	144	0
NMTAP	42	176	0
NMTAP	42	192	7
NMTAP	42	224	7
NMTAP	42	240	1
NMTAP	42	272	1
NMTAP	42	288	3
NMTAP	42	320	3
NMTAP	42	336	2
NMTAP	43	0	3
NMTAP	43	0	4
NMTAP	43	32	5
NMTAP	43	48	4
NMTAP	43	80	4
NMTAP	43	96	6
NMTAP	43	128	2
NMTAP	43	144	3
NMTAP	43	176	3
NMSTR	43	192	1
NMSI_	43	192	1	96	32	5
NMTAP	43	224	0
NMTAP	43	240	7
CNSI_	43	320	5	0	32	1
BXTAP	44	0	2
BRTAP	44	0	6
NMTAP	44	48	7
NMTAP	44	80	4
NMTAP	44	96	5
NMTAP	44	144	2
NMTAP	44	176	4
NMTAP	44	192	3
NMTAP	44	240	6
NMTAP	44	272	4
NMTAP	44	288	5
NMTAP	44	336	1
NMTAP	44	368	1
NMTAP	44	368	3
NMTAP	45	32	3
NMTAP	45	32	4
NMTAP	45	80	5
NMTAP	45	96	4
NMTAP	45	144	2
NMTAP	45	144	6
NMTAP	45	176	2
NMTAP	45	176	6
NMTAP	45	224	1
NMTAP	45	240	0
NMTAP	45	272	6
NMTAP	45	288	7
NMTAP	45	336	0
NMSTR	45	336	5
NMSCL	45	336	5	96	48	2
NMTAP	46	0	0
NMHLD	46	0	5	80
NMSTR	46	144	1
NMSCL	46	144	1	96	48	6
NMTAP	46	144	4
NMHLD	46	192	1	80
NMTAP	46	192	4
NMTAP	46	336	3
EXTAP	47	0	0
NMHLD	47	0	6	8
NMHLD	47	48	1	8
EXTAP	47	48	7
EXTAP	47	96	0
NMHLD	47	96	5	8
NMHLD	47	144	2	8
EXTAP	47	144	7
EXTAP	47	192	1
NMTTP	47	192	4	B	0	M1
NMTTP	47	192	4	A	0	M1
NMTTP	47	192	5	E	1	M1
NMTTP	47	240	3	B	0	M1
NMTTP	47	240	3	E	1	M1
NMTTP	47	240	3	A	0	M1
EXTAP	47	240	6
BRTAP	47	288	0
BRTAP	47	288	7
NMTAP	48	0	2
NMTAP	48	0	6
NMTAP	48	80	0
EXSTR	48	96	0
NMSUR	48	96	0	96	48	5
NMTAP	48	144	6
NMTAP	48	144	7
NMTAP	48	192	0
NMTAP	48	272	7
EXSTR	48	288	7
NMSUL	48	288	7	96	48	2
NMTAP	48	336	0
NMTAP	48	336	1
NMTAP	49	0	7
NMTAP	49	80	0
EXSTR	49	96	0
NMSI_	49	96	0	96	48	4
NMTAP	49	144	6
NMTAP	49	144	7
NMTAP	49	192	0
CNSI_	49	240	4	0	48	1
CNSI_	49	288	1	0	48	3
EXTAP	49	288	5
NMTAP	49	336	7
NMTAP	50	0	1
NMTAP	50	0	5
NMTAP	50	80	7
EXSTR	50	96	7
NMSUL	50	96	7	96	48	2
NMTAP	50	144	0
NMTAP	50	144	1
NMTAP	50	192	7
NMTAP	50	272	0
EXSTR	50	288	0
NMSUR	50	288	0	96	48	5
NMTAP	50	336	6
NMTAP	50	336	7
NMTAP	51	0	0
NMTAP	51	80	7
EXSTR	51	96	7
NMSI_	51	96	7	96	48	3
NMTAP	51	144	0
NMTAP	51	144	1
NMTAP	51	192	7
CNSI_	51	240	3	0	48	6
EXTAP	51	288	1
CNSI_	51	288	6	0	48	4
NMTAP	51	336	0
NMSTR	52	0	3
NMSUR	52	0	3	96	32	7
NMSTR	52	0	7
NMSUR	52	0	7	96	32	3
NMTTP	52	96	0	C	1	M1
EXTAP	52	192	0
EXTAP	52	192	4
NMTAP	52	272	2
NMSTR	52	288	2
NMSCR	52	288	2	96	48	5
NMTAP	52	336	0
NMTAP	52	336	7
NMSTR	53	0	6
NMSUL	53	0	6	96	48	1
NMSTR	53	96	2
NMSCR	53	96	2	96	48	5
NMSTR	53	192	6
NMSUL	53	192	6	96	48	1
NMTAP	53	288	0
NMTAP	54	0	2
NMHLD	54	0	6	80
NMTAP	54	80	4
NMTAP	54	96	5
NMTAP	54	144	0
NMTAP	54	144	6
NMHLD	54	192	1	80
NMTAP	54	192	5
NMTAP	54	272	3
NMSTR	54	288	2
NMSCR	54	288	2	96	96	6
NMTAP	54	336	1
NMTAP	54	336	7
NMSTR	55	0	6
NMSCR	55	0	6	96	96	2
NMSTR	55	96	2
NMSUR	55	96	2	96	144	4
NMTAP	55	192	4
NMHLD	56	0	6	1152
NMTTP	56	192	6	E	0	M1
NMTTP	57	0	5	E	0	M1
NMTTP	57	192	4	E	0	M1
NMTTP	58	0	3	E	0	M1
NMTTP	58	192	2	E	0	M1
BRTAP	59	0	7
BRTAP	59	48	2
BRTAP	59	48	4
NMTAP	59	96	3
NMTAP	59	132	3
NMTAP	59	144	5
NMTAP	59	180	5
NMSTR	59	192	4
BRSI_	59	192	4	96	48	0
BRSI_	59	192	4	96	48	1
NMTAP	59	240	2
NMTAP	59	240	6
BRTAP	60	0	6
BRTAP	60	0	7
NMTAP	60	80	5
NMTAP	60	96	4
NMTAP	60	96	5
NMTAP	60	144	3
NMTAP	60	144	7
NMTAP	60	192	0
NMTAP	60	192	1
NMTAP	60	272	2
NMSTR	60	288	2
NMSLR	60	288	2	96	64	1
NMTAP	60	288	3
NMTAP	60	336	1
NMTAP	60	336	4
EXSTR	61	0	5
NMSLL	61	0	5	96	64	6
EXSTR	61	96	0
NMSLR	61	96	0	96	64	7
EXSTR	61	192	7
NMSLL	61	192	7	96	64	0
BRTAP	61	288	3
NMTAP	62	0	2
NMHLD	62	0	6	96
NMTAP	62	80	7
NMSTR	62	96	7
NMSCR	62	96	7	96	64	5
NMTAP	62	144	5
EXTAP	62	192	7
NMTAP	62	272	0
NMSTR	62	288	0
NMSCL	62	288	0	96	64	2
NMTAP	62	336	2
EXTAP	63	0	0
NMTAP	63	80	7
NMSTR	63	96	7
NMSF_	63	96	7	96	48	3
NMTAP	63	144	1
NMTAP	63	144	5
EXTAP	63	192	7
NMTAP	63	288	0
NMTAP	63	288	6
NMTAP	63	336	2
NMTAP	63	336	3
EXHLD	64	0	1	96
EXTAP	64	0	5
NMTAP	64	80	0
NMSTR	64	96	0
NMSLL	64	96	0	96	32	4
NMTAP	64	144	2
EXTAP	64	192	0
CNSI_	64	224	4	0	32	2
NMTAP	64	272	7
NMSTR	64	288	7
NMSLR	64	288	7	96	32	3
NMTAP	64	336	5
EXTAP	65	0	7
CNSI_	65	32	3	0	32	5
NMTAP	65	80	0
NMSTR	65	96	0
NMSCL	65	96	0	96	48	5
NMSCR	65	96	0	96	48	3
NMTAP	65	144	2
NMTAP	65	144	6
EXTAP	65	192	0
NMSTR	65	288	1
NMSXR	65	288	1	96	160	2
NMTAP	65	288	7
NMTAP	65	336	4
NMTAP	65	336	5
BRTAP	66	0	1
NMSTR	66	96	5
NMSXR	66	96	5	96	160	6
BRTAP	66	192	5
NMTAP	66	288	0
NMTTP	67	0	0	E	0	M1
NMTTP	67	0	1	E	0	M1
NMTTP	67	0	1	A	0	M1
NMTTP	67	0	7	A	0	M1
NMTTP	67	96	2	B	0	M1
NMTTP	67	96	2	A	0	M1
NMTTP	67	96	6	B	0	M1
NMTTP	67	96	6	A	0	M1
NMTTP	67	192	3	A	0	M1
NMTTP	67	192	4	E	0	M1
NMTTP	67	192	5	E	0	M1
NMTTP	67	192	5	A	0	M1
NMTTP	67	288	0	C	1	M1
NMTAP	68	0	0
NMHLD	68	0	1	80
NMTAP	68	80	3
NMTAP	68	96	2
NMTAP	68	144	0
NMTAP	68	144	4
NMHLD	68	192	6	80
NMTAP	68	192	7
NMTAP	68	272	4
NMTAP	68	288	5
NMTAP	68	336	3
NMTAP	68	336	7
NMTAP	69	0	0
NMHLD	69	0	1	80
NMTAP	69	80	3
NMSTR	69	96	2
NMSXR	69	96	2	96	96	4
NMTAP	69	144	4
NMTAP	69	192	5
NMTAP	69	288	7
NMTAP	69	336	6
NMTAP	70	0	1
NMHLD	70	0	5	80
NMTAP	70	80	4
NMTAP	70	96	6
NMTAP	70	144	0
NMTAP	70	144	7
NMHLD	70	192	2	80
NMTAP	70	192	6
NMTAP	70	272	3
NMSTR	70	288	1
NMSI_	70	288	1	96	32	5
NMTAP	70	336	0
NMTAP	70	336	7
NMSTR	71	0	6
NMSI_	71	0	6	96	32	0
NMSTR	71	96	2
NMSI_	71	96	2	96	32	4
NMTAP	71	192	5

T_REC_TAP	393
T_REC_BRK	17
T_REC_XTP	58
T_REC_BXX	1
T_REC_HLD	41
T_REC_XHO	7
T_REC_BHO	3
T_REC_BXH	2
T_REC_STR	63
T_REC_BST	0
T_REC_XST	14
T_REC_XBS	0
T_REC_TTP	38
T_REC_THO	0
T_REC_SLD	75
T_REC_BSL	5
T_REC_ALL	717
T_NUM_TAP	566
T_NUM_BRK	28
T_NUM_HLD	48
T_NUM_SLD	75
T_NUM_ALL	717
T_JUDGE_TAP	584
T_JUDGE_HLD	113
T_JUDGE_SLD	80
T_JUDGE_ALL	777
TTM_EACHPAIRS	120
TTM_SCR_TAP	283000
TTM_SCR_BRK	72800
TTM_SCR_HLD	48000
TTM_SCR_SLD	112500
TTM_SCR_ALL	516300
TTM_SCR_S	498100
TTM_SCR_SS	513500
TTM_RAT_ACV	10054

