VERSION	0.00.00	1.05.00
FES_MODE	0
BPM_DEF	124.000	124.000	124.000	124.000
MET_DEF	4	4
RESOLUTION	384
CLK_DEF	384
COMPATIBLE_CODE	MA2

BPM	0	0	124.000
MET	0	0	4	4

EXTAP	2	0	2
EXTAP	2	0	4
EXTAP	2	96	3
EXTAP	2	96	5
EXTAP	2	192	1
EXTAP	2	192	3
EXTAP	2	288	4
EXTAP	2	288	6
NMTAP	3	0	2
NMTAP	3	48	2
NMTAP	3	96	4
NMTAP	3	144	4
BXTAP	3	192	3
BXTAP	3	240	5
NMTAP	4	0	4
NMHLD	4	0	5	96
NMTAP	4	96	4
NMTAP	4	192	4
NMHLD	4	192	5	96
NMTAP	4	288	3
NMHLD	5	0	2	96
NMTAP	5	0	3
NMTAP	5	96	3
NMHLD	5	192	2	96
NMTAP	5	192	3
NMTAP	5	288	4
NMTAP	6	0	4
NMHLD	6	0	5	96
NMTAP	6	96	4
NMTAP	6	192	4
NMHLD	6	192	5	96
NMTAP	6	288	3
NMHLD	7	0	2	96
NMTAP	7	0	3
NMTAP	7	96	3
NMHLD	7	192	2	96
NMHLD	7	192	3	96
NMTAP	8	0	1
NMTAP	8	96	2
NMTAP	8	96	3
NMTAP	8	192	5
EXTAP	8	288	7
NMTAP	9	0	6
NMTAP	9	96	4
NMTAP	9	96	5
NMTAP	9	192	2
NMTAP	9	288	1
NMTAP	9	288	3
NMSTR	10	0	0
NMSCR	10	0	0	96	96	3
NMSTR	10	192	7
NMSCL	10	192	7	96	96	4
NMSTR	11	0	0
NMSCR	11	0	0	96	96	3
NMHLD	11	192	5	192
NMTAP	12	0	4
NMTAP	12	96	6
NMTAP	12	96	7
NMTAP	12	192	0
NMTAP	12	192	1
NMTAP	12	288	2
NMTAP	12	288	3
NMTAP	13	0	2
NMTAP	13	0	3
NMTAP	13	96	0
NMTAP	13	96	1
NMTAP	13	192	6
NMTAP	13	192	7
NMTAP	13	288	4
NMTAP	13	288	5
NMHLD	14	0	6	96
NMTAP	14	96	4
NMHLD	14	192	1	96
NMTAP	14	288	3
NMHLD	15	0	6	96
NMTAP	15	96	4
NMHLD	15	192	2	96
BXTAP	15	288	3
BXTAP	15	336	3
NMTAP	16	0	2
NMTAP	16	0	3
NMTAP	16	96	0
NMTAP	16	96	1
NMTAP	16	192	6
NMTAP	16	192	7
NMTAP	16	288	4
NMTAP	16	288	5
NMTAP	17	0	2
NMTAP	17	0	3
NMTAP	17	96	0
NMTAP	17	96	1
NMTAP	17	192	6
NMTAP	17	192	7
NMTAP	17	288	4
NMTAP	17	288	5
NMHLD	18	0	1	96
NMHLD	18	0	3	96
NMHLD	18	192	4	96
NMHLD	18	192	6	96
NMTTP	19	0	5	E	0	M1
NMTTP	19	96	4	E	0	M1
NMTTP	19	192	3	E	0	M1
BRTAP	19	288	1
NMTAP	20	0	0
NMTAP	20	0	1
NMTAP	20	96	0
NMTAP	20	96	1
NMTAP	20	192	4
NMTAP	20	192	6
NMTAP	20	288	4
NMTAP	20	288	6
NMTAP	21	0	6
NMTAP	21	0	7
NMTAP	21	96	1
NMTAP	21	96	3
NMTAP	21	192	0
NMTAP	21	192	1
NMTAP	21	288	4
NMTAP	21	288	6
NMTAP	22	0	6
NMTAP	22	0	7
NMTAP	22	96	6
NMTAP	22	96	7
NMTAP	22	192	1
NMTAP	22	192	3
NMTAP	22	288	1
NMTAP	22	288	3
NMTAP	23	0	0
NMTAP	23	0	1
NMTAP	23	96	4
NMTAP	23	96	6
NMTAP	23	192	6
NMTAP	23	192	7
NMSTR	23	288	1
NMSUR	23	288	1	96	96	5
NMTAP	23	288	3
BXTAP	24	96	7
NMTAP	24	192	4
NMTAP	24	192	6
NMTAP	24	288	4
NMTAP	24	288	6
NMTAP	25	0	6
NMTAP	25	0	7
NMTAP	25	96	4
NMTAP	25	96	5
NMTAP	25	192	2
NMTAP	25	192	3
NMTAP	25	288	0
NMTAP	25	288	1
NMSTR	26	0	7
NMSCL	26	0	7	96	96	4
NMSTR	26	192	0
NMSCR	26	192	0	96	96	3
NMTTP	27	0	5	E	0	M1
NMTTP	27	96	4	E	0	M1
NMTTP	27	192	3	E	0	M1
NMHLD	28	0	1	96
NMTAP	28	96	3
NMHLD	28	192	6	96
NMTAP	28	288	4
NMHLD	29	0	1	96
NMTAP	29	96	3
NMTAP	29	192	4
NMTAP	29	288	3
NMTAP	29	288	5
NMHLD	30	0	6	96
NMTAP	30	96	4
NMHLD	30	192	1	96
NMTAP	30	288	3
NMTAP	31	0	5
NMTAP	31	48	5
NMTAP	31	96	3
NMHLD	31	144	3	96
NMTAP	31	240	4
NMTAP	31	288	3
NMTAP	31	336	2
NMHLD	32	0	2	192
NMHLD	32	192	0	192
NMHLD	33	0	7	192
NMTAP	33	192	5
NMTAP	33	288	5
NMHLD	34	0	6	192
NMHLD	34	192	4	192
NMHLD	35	0	3	192
NMTAP	35	192	1
NMTAP	35	288	1
NMTAP	36	0	0
NMTAP	36	0	1
NMTAP	36	96	2
NMTAP	36	144	2
NMTAP	36	192	3
NMTAP	36	288	4
NMTAP	36	288	5
NMTAP	37	0	6
NMTAP	37	0	7
NMTAP	37	96	5
NMTAP	37	144	5
NMTAP	37	192	4
NMTAP	37	288	2
NMTAP	37	288	3
NMTAP	38	0	0
NMTAP	38	0	1
NMTAP	38	96	2
NMTAP	38	144	2
NMTAP	38	192	3
NMTAP	38	288	4
NMTAP	38	288	5
NMTAP	39	0	6
NMTAP	39	0	7
NMTAP	39	96	0
NMTAP	39	96	1
NMTAP	39	192	2
NMTAP	39	192	3
BRTAP	39	288	0
BRTAP	39	288	7
NMSTR	40	0	6
NMSCL	40	0	6	96	96	3
NMSTR	40	192	2
NMSCL	40	192	2	96	96	7
NMSTR	41	0	6
NMSCL	41	0	6	96	96	3
NMTAP	41	192	2
NMTAP	41	288	2
NMHLD	42	0	1	288
NMTAP	42	96	3
NMTAP	42	192	3
NMTAP	42	288	4
NMHLD	43	0	6	288
NMTAP	43	96	4
NMTAP	43	192	4
BRTAP	43	288	3
BRTAP	43	336	3
NMTAP	44	0	4
NMTAP	44	0	5
NMTAP	44	96	6
NMTAP	44	96	7
NMTAP	44	192	0
NMTAP	44	192	1
NMTAP	44	288	2
NMTAP	44	288	3
NMTAP	45	0	4
NMTAP	45	0	5
NMTAP	45	96	6
NMTAP	45	96	7
NMTAP	45	192	0
NMTAP	45	192	1
NMTAP	45	288	2
NMTAP	45	288	3
NMHLD	46	0	4	96
NMHLD	46	0	6	96
NMHLD	46	192	2	96
NMHLD	46	192	3	96
NMTAP	47	0	1
NMTAP	47	48	1
NMTAP	47	96	7
NMTAP	47	144	7
EXTAP	47	192	0
EXTAP	47	240	0
BXTAP	47	288	5
NMHLD	48	0	6	96
NMTAP	48	96	7
NMHLD	48	192	1	96
NMTAP	48	288	0
NMHLD	49	0	6	96
NMTAP	49	96	7
NMTAP	49	192	1
NMTAP	49	288	0
NMTAP	49	288	2
NMHLD	50	0	1	96
NMTAP	50	96	0
NMHLD	50	192	6	96
NMTAP	50	288	7
NMTAP	51	0	1
NMTAP	51	96	0
NMSTR	51	192	0
NMSCL	51	192	0	96	96	5
NMSTR	51	192	1
NMSCR	51	192	1	96	96	4
BRTAP	52	96	2
BRTAP	52	96	7
NMHLD	52	192	1	96
NMTAP	52	288	0
NMTAP	53	0	0
NMTAP	53	0	1
NMTAP	53	96	2
NMTAP	53	96	3
NMTAP	53	192	4
NMTAP	53	192	5
NMTAP	53	288	6
NMTAP	53	288	7
NMTAP	54	0	5
NMTAP	54	96	4
NMTAP	54	96	6
NMTAP	54	192	2
NMTAP	54	288	1
NMSTR	54	288	3
NMSCR	54	288	3	96	192	2
NMTTP	56	0	2	E	0	M1
NMTTP	56	192	3	E	0	M1
NMTTP	57	0	0	C	0	M1
NMTTP	57	192	6	E	0	M1
NMTTP	58	0	5	E	0	M1
NMTTP	58	192	4	E	0	M1
EXTAP	59	0	3
EXTAP	59	0	4
EXTAP	59	48	3
EXTAP	59	48	4
NMTTP	59	96	3	E	0	M1
NMTTP	59	144	5	E	0	M1
NMTTP	59	192	4	E	1	M1
EXTAP	59	288	2
EXTAP	59	288	5
NMTAP	60	0	4
NMTAP	60	0	6
NMTAP	60	96	6
NMTAP	60	96	7
NMTAP	60	192	1
NMTAP	60	192	3
NMTAP	60	288	0
NMTAP	60	288	1
NMTAP	61	0	0
NMTAP	61	0	1
NMTAP	61	96	2
NMTAP	61	96	3
NMTAP	61	192	4
NMTAP	61	192	5
NMTAP	61	288	6
NMTAP	61	288	7
NMTAP	62	0	1
NMTAP	62	0	3
NMTAP	62	96	0
NMTAP	62	96	1
NMTAP	62	192	4
NMTAP	62	192	6
NMTAP	62	288	6
NMTAP	62	288	7
NMSTR	63	0	0
NMSCR	63	0	0	96	96	3
NMSTR	63	192	7
NMSCL	63	192	7	96	96	4
NMHLD	64	0	1	96
NMTAP	64	96	3
NMHLD	64	192	6	96
NMTAP	64	288	4
NMSTR	65	0	0
NMSI_	65	0	0	96	96	3
NMSTR	65	192	7
NMSI_	65	192	7	96	96	4
NMHLD	66	0	3	192
NMHLD	66	192	5	192
NMTTP	67	0	6	E	0	M1
NMTTP	67	96	0	C	0	M1
NMTTP	67	192	2	E	0	M1
NMTAP	68	0	1
NMTAP	68	96	2
NMTAP	68	96	3
NMTAP	68	192	6
NMTAP	68	288	4
NMTAP	68	288	5
NMTAP	69	0	2
NMTAP	69	96	1
NMTAP	69	96	3
EXTAP	69	192	0
EXTAP	69	288	1
EXTAP	69	288	7
NMTAP	70	0	6
NMTAP	70	96	4
NMTAP	70	96	5
NMTAP	70	192	1
NMTAP	70	288	2
NMTAP	70	288	3
BRTAP	71	0	1
BRTAP	71	0	3
BRTAP	71	96	4
BRTAP	71	96	6
BRTAP	71	192	0
BRTAP	71	192	7

T_REC_TAP	242
T_REC_BRK	13
T_REC_XTP	20
T_REC_BXX	6
T_REC_HLD	46
T_REC_XHO	0
T_REC_BHO	0
T_REC_BXH	0
T_REC_STR	16
T_REC_BST	0
T_REC_XST	0
T_REC_XBS	0
T_REC_TTP	18
T_REC_THO	0
T_REC_SLD	16
T_REC_BSL	0
T_REC_ALL	377
T_NUM_TAP	296
T_NUM_BRK	19
T_NUM_HLD	46
T_NUM_SLD	16
T_NUM_ALL	377
T_JUDGE_TAP	315
T_JUDGE_HLD	118
T_JUDGE_SLD	16
T_JUDGE_ALL	449
TTM_EACHPAIRS	108
TTM_SCR_TAP	148000
TTM_SCR_BRK	49400
TTM_SCR_HLD	46000
TTM_SCR_SLD	24000
TTM_SCR_ALL	267400
TTM_SCR_S	257550
TTM_SCR_SS	265500
TTM_RAT_ACV	10071

