VERSION	0.00.00	1.05.00
FES_MODE	0
BPM_DEF	240.000	240.000	240.000	240.000
MET_DEF	4	4
RESOLUTION	384
CLK_DEF	384
COMPATIBLE_CODE	MA2

BPM	0	0	240.000
MET	0	0	4	4

NMTTP	2	0	5	E	0	M1
NMTTP	2	96	4	E	0	M1
NMTTP	2	192	3	E	0	M1
NMSTR	2	288	1
NMSXR	2	288	1	96	240	4
NMSTR	2	288	6
NMSXL	2	288	6	96	240	4
NMTAP	4	0	4
NMTAP	4	0	6
NMTTP	4	96	5	B	0	M1
NMTAP	4	192	1
NMTAP	4	192	3
NMTTP	4	288	2	B	0	M1
NMSTR	5	0	4
NMSCL	5	0	4	96	96	1
NMTAP	5	0	6
NMTTP	5	96	5	B	0	M1
NMTTP	5	288	2	B	0	M1
NMTAP	6	0	4
NMTAP	6	0	6
NMTTP	6	96	5	B	0	M1
NMTAP	6	192	1
NMTAP	6	192	3
NMTTP	6	288	2	B	0	M1
NMSTR	7	0	3
NMSCL	7	0	3	96	96	0
NMTAP	7	0	5
NMTTP	7	96	4	B	0	M1
NMSTR	7	192	7
NMSCL	7	192	7	96	96	4
NMTTP	7	288	0	B	0	M1
NMTAP	8	0	1
NMTTP	8	96	2	B	0	M1
NMTAP	8	192	4
NMTAP	8	192	6
NMTTP	8	288	5	B	0	M1
NMTAP	9	0	1
NMSTR	9	0	3
NMSCR	9	0	3	96	96	6
NMTTP	9	96	2	B	0	M1
NMTTP	9	288	5	B	0	M1
NMTAP	10	0	1
NMTAP	10	0	3
NMTTP	10	96	2	B	0	M1
NMTAP	10	192	4
NMTAP	10	192	6
NMTTP	10	288	5	B	0	M1
NMTAP	11	0	2
NMSTR	11	0	4
NMSCR	11	0	4	96	96	7
NMTTP	11	96	3	E	0	M1
NMTAP	11	192	0
NMTAP	11	288	1
NMTAP	11	288	3
NMTAP	12	0	1
NMTAP	12	0	3
NMSTR	12	96	2
NMSCR	12	96	2	96	96	5
NMHLD	12	144	2	144
NMTAP	13	0	1
NMTAP	13	0	3
NMSTR	13	96	2
NMSCR	13	96	2	96	96	5
NMHLD	13	144	2	144
NMTAP	14	0	1
NMTAP	14	0	3
NMSTR	14	96	2
NMSUL	14	96	2	96	96	6
NMHLD	14	144	2	144
NMTAP	15	0	1
NMTAP	15	0	3
NMSTR	15	96	2
NMSUL	15	96	2	96	96	6
NMHLD	15	144	2	144
NMTAP	16	0	1
NMTAP	16	0	3
NMTAP	16	96	2
NMHLD	16	144	2	144
NMTAP	17	0	1
NMTAP	17	0	3
NMTAP	17	96	2
NMHLD	17	144	2	144
NMHLD	18	0	1	288
NMHLD	18	0	3	288
NMTTP	19	96	5	E	0	M1
NMTTP	19	192	4	E	0	M1
NMTTP	19	288	3	E	0	M1
NMSTR	20	0	1
NMSCR	20	0	1	96	96	5
NMSTR	20	96	5
NMSCL	20	96	5	96	96	1
NMTAP	20	192	6
NMTAP	20	288	7
NMSTR	21	0	7
NMSI_	21	0	7	96	96	3
NMSTR	21	96	3
NMSI_	21	96	3	96	96	7
NMTAP	21	192	2
NMTAP	21	288	1
NMSTR	22	0	0
NMSI_	22	0	0	96	96	4
NMSTR	22	96	4
NMSI_	22	96	4	96	96	0
NMTAP	22	192	5
NMTAP	22	288	6
NMSTR	23	0	6
NMSCL	23	0	6	96	96	2
NMSTR	23	96	2
NMSCR	23	96	2	96	96	6
NMTAP	23	192	1
NMTAP	23	288	0
NMSTR	24	0	0
NMSLL	24	0	0	96	96	4
NMSTR	24	96	4
NMSLR	24	96	4	96	96	0
NMTAP	24	192	3
NMTAP	24	288	3
NMSTR	25	0	7
NMSLR	25	0	7	96	96	3
NMSTR	25	96	3
NMSLL	25	96	3	96	96	7
NMTAP	25	192	4
NMTAP	25	288	4
NMTAP	26	0	0
NMTAP	26	96	0
NMTAP	26	192	1
NMTAP	26	192	7
NMTAP	26	288	2
NMTAP	26	288	6
BRTAP	26	336	2
BRTAP	26	336	6
EXTAP	27	96	6
EXTAP	27	96	7
EXTAP	27	192	0
EXTAP	27	192	7
EXSTR	27	288	0
NMSI_	27	288	0	96	96	4
EXSTR	27	288	1
NMSI_	27	288	1	96	96	3
CNSI_	28	96	3	0	96	1
CNSI_	28	96	4	0	96	0
NMSTR	28	288	6
NMSI_	28	288	6	96	96	4
NMSTR	28	288	7
NMSI_	28	288	7	96	96	3
CNSI_	29	96	3	0	96	7
CNSI_	29	96	4	0	96	6
NMHLD	29	288	1	96
NMSTR	30	0	4
NMSCR	30	0	4	96	72	0
NMTAP	30	96	2
CNSCL	30	168	0	0	120	4
NMTAP	30	192	2
NMSTR	30	288	1
NMSUR	30	288	1	96	96	6
NMTAP	31	0	6
CNSUL	31	96	6	0	96	1
NMTAP	31	96	7
NMTAP	31	192	7
NMSTR	31	288	1
NMSI_	31	288	1	96	96	6
NMSTR	31	288	7
NMSI_	31	288	7	96	96	3
CNSI_	32	96	3	0	96	7
CNSI_	32	96	6	0	96	1
NMSTR	32	288	0
NMSI_	32	288	0	96	96	4
NMSTR	32	288	6
NMSI_	32	288	6	96	96	1
CNSI_	33	96	1	0	96	6
CNSI_	33	96	4	0	96	0
NMHLD	33	288	1	96
NMSTR	34	0	4
NMSCR	34	0	4	96	96	0
NMTAP	34	96	2
CNSCL	34	192	0	0	96	4
NMTAP	34	192	2
NMSTR	34	288	2
NMSI_	34	288	2	96	48	0
NMSI_	34	288	2	96	48	7
EXTAP	35	0	2
EXTAP	35	192	1
EXTAP	35	192	4
EXTAP	35	240	1
EXTAP	35	240	4
EXSTR	35	288	2
NMSCL	35	288	2	96	96	7
EXSTR	35	288	3
NMSUL	35	288	3	96	48	7
CNSUR	36	48	7	0	144	3
CNSCR	36	96	7	0	96	2
NMSTR	36	288	4
NMSUR	36	288	4	96	48	0
NMSTR	36	288	5
NMSCR	36	288	5	96	96	0
CNSUL	37	48	0	0	144	4
CNSCL	37	96	0	0	96	5
NMTAP	37	288	3
NMTAP	37	336	4
NMTAP	38	0	2
NMTAP	38	48	7
NMTAP	38	96	7
NMTAP	38	144	4
NMTAP	38	192	5
NMTAP	38	240	0
NMSTR	38	288	0
NMSI_	38	288	0	96	96	3
NMHLD	38	336	2	144
CNSI_	39	96	3	0	96	0
NMSTR	39	288	2
NMSI_	39	288	2	96	96	5
NMSTR	39	288	3
NMSUL	39	288	3	96	96	6
CNSI_	40	96	5	0	96	2
CNSUR	40	96	6	0	96	3
NMSTR	40	288	4
NMSUR	40	288	4	96	96	1
NMSTR	40	288	5
NMSI_	40	288	5	96	96	2
CNSUL	41	96	1	0	96	4
CNSI_	41	96	2	0	96	5
NMTAP	41	288	3
NMSTR	42	0	4
NMSI_	42	0	4	96	48	1
NMTAP	42	0	5
NMTAP	42	96	4
NMSTR	42	96	5
BRSI_	42	96	5	96	48	0
NMTAP	42	192	2
NMSTR	42	288	3
NMSXL	42	288	3	96	96	3
NMSTR	43	0	3
BRSXR	43	0	3	96	96	3
BRHLD	43	288	7	864
NMTAP	46	0	3
NMSTR	46	96	2
NMSI_	46	96	2	96	96	5
NMSTR	46	96	6
NMSI_	46	96	6	96	96	1
NMTAP	47	0	3
NMTAP	47	0	7
NMSTR	47	96	2
NMSI_	47	96	2	96	96	0
NMSTR	47	96	6
NMSI_	47	96	6	96	96	4
NMTAP	48	0	0
NMTAP	48	0	4
NMSTR	48	96	0
NMSI_	48	96	0	96	96	3
NMSTR	48	96	4
NMSI_	48	96	4	96	96	7
NMTAP	49	0	3
NMTAP	49	0	7
NMSTR	49	96	3
NMSI_	49	96	3	96	96	0
NMSTR	49	96	7
NMSI_	49	96	7	96	96	4
NMTAP	50	0	1
NMTAP	50	0	6
NMSTR	50	96	2
NMSCL	50	96	2	96	96	0
NMSTR	50	96	7
NMSCL	50	96	7	96	96	5
NMTAP	51	0	1
NMTAP	51	0	6
NMSTR	51	96	0
NMSCR	51	96	0	96	96	2
NMSTR	51	96	5
NMSCR	51	96	5	96	96	7
NMSTR	52	0	3
NMSXR	52	0	3	96	192	0
NMSTR	52	0	7
NMSV_	52	0	7	96	192	4
NMTAP	53	96	5
NMTAP	53	192	4
NMTAP	53	288	3
NMHLD	54	0	2	192
NMTTP	54	96	3	E	0	M1
NMHLD	54	192	5	192
NMTTP	54	288	5	E	0	M1
NMHLD	55	0	2	96
NMTTP	55	96	4	E	0	M1
NMTTP	55	192	3	B	0	M1
NMTTP	55	192	3	A	0	M1
NMTTP	55	192	4	B	0	M1
NMTTP	55	192	4	A	0	M1
NMTTP	55	192	4	D	1	M1
NMTAP	55	288	5
NMHLD	56	0	6	192
NMTTP	56	96	5	E	0	M1
NMHLD	56	192	1	192
NMTTP	56	288	3	E	0	M1
NMHLD	57	0	6	96
NMTTP	57	96	4	E	0	M1
NMTTP	57	192	3	B	0	M1
NMTTP	57	192	3	A	0	M1
NMTTP	57	192	4	B	0	M1
NMTTP	57	192	4	A	0	M1
NMTTP	57	192	4	D	0	M1
BRTAP	57	288	1
BRTAP	57	336	1
BRTAP	58	0	1
NMTAP	58	96	0
NMTAP	58	96	7
NMTAP	58	192	6
NMTAP	58	288	5
NMTAP	58	336	6
NMTAP	59	0	7
NMTAP	59	48	0
EXTAP	59	96	1
NMTAP	59	144	2
NMHLD	59	192	2	96
NMTAP	59	288	0
NMTAP	59	336	0
NMTAP	60	0	0
NMTAP	60	96	7
NMTAP	60	144	7
NMSTR	60	192	7
NMSI_	60	192	7	96	48	3
NMSTR	60	288	1
NMSI_	60	288	1	96	48	5
NMTAP	61	0	4
NMTAP	61	96	3
NMSTR	61	192	5
NMSCR	61	192	5	96	1248	3
NMTTP	61	288	3	A	0	M1
NMTTP	62	0	2	A	0	M1
NMTTP	62	96	2	B	0	M1
NMTTP	62	192	3	B	0	M1
NMTTP	62	288	3	A	0	M1
NMTTP	63	0	2	A	0	M1
NMTTP	63	96	2	B	0	M1
NMTTP	63	192	1	B	0	M1
NMHLD	64	0	4	384
NMSTR	65	192	2
NMSCL	65	192	2	96	1248	4
NMTTP	65	288	4	A	0	M1
NMTTP	66	0	5	A	0	M1
NMTTP	66	96	5	B	0	M1
NMTTP	66	192	4	B	0	M1
NMTTP	66	288	4	A	0	M1
NMTTP	67	0	5	A	0	M1
NMTTP	67	96	5	B	0	M1
NMTTP	67	192	6	B	0	M1
NMHLD	68	0	3	192
NMTAP	69	96	3
NMTAP	69	192	3
NMSTR	69	288	4
NMSI_	69	288	4	96	96	7
CNSI_	70	96	7	0	96	4
NMTAP	70	192	2
NMSTR	70	288	3
NMSI_	70	288	3	96	96	0
CNSI_	71	96	0	0	96	3
NMTAP	71	192	5
NMTAP	71	288	4
NMTAP	72	0	3
NMTAP	72	96	3
NMTAP	72	192	2
NMTAP	72	192	3
NMSTR	72	288	2
NMSI_	72	288	2	96	96	7
NMSTR	72	288	3
NMSI_	72	288	3	96	96	6
CNSI_	73	96	6	0	96	3
CNSI_	73	96	7	0	96	2
NMSTR	73	288	3
NMSI_	73	288	3	96	96	0
NMTAP	73	288	4
CNSI_	74	96	0	0	96	3
NMTAP	74	192	5
NMSTR	74	288	4
NMSI_	74	288	4	96	96	7
CNSI_	75	96	7	0	96	4
NMTAP	75	192	2
NMTAP	75	288	3
NMTAP	76	0	4
NMTAP	76	96	4
NMHLD	76	192	4	96
NMHLD	76	192	5	96
NMTTP	77	0	4	B	0	M1
NMTTP	77	0	4	E	0	M1
NMTTP	77	0	5	B	1	M1
NMTTP	77	0	6	E	0	M1
NMTTP	77	0	6	D	0	M1
NMTTP	77	144	2	B	1	M1
NMTTP	77	144	2	E	0	M1
NMTTP	77	144	2	D	0	M1
NMTTP	77	144	3	B	0	M1
NMTTP	77	144	4	E	0	M1
EXSTR	77	288	0
NMSUR	77	288	0	96	96	6
EXSTR	77	288	1
NMSCR	77	288	1	96	96	5
CNSCL	78	96	5	0	96	1
CNSUL	78	96	6	0	96	0
NMSTR	78	288	4
NMSUR	78	288	4	96	96	2
NMSTR	78	288	5
NMSCR	78	288	5	96	96	1
CNSCL	79	96	1	0	96	5
CNSUL	79	96	2	0	96	4
NMHLD	79	288	6	96
NMSTR	80	0	4
NMSUL	80	0	4	96	96	7
NMTAP	80	96	5
NMTAP	80	192	5
CNSUR	80	192	7	0	96	4
EXSTR	80	288	5
NMSLR	80	288	5	96	96	1
NMTAP	81	0	2
CNSLL	81	96	1	0	96	5
NMTAP	81	96	3
NMTAP	81	192	4
NMSTR	81	288	3
NMSUR	81	288	3	96	72	0
NMSTR	81	288	7
NMSLL	81	288	7	96	72	2
CNSUL	82	72	0	0	120	3
CNSI_	82	72	2	0	48	5
CNSI_	82	120	5	0	72	7
NMSTR	82	288	0
NMSUL	82	288	0	96	72	3
NMSTR	82	288	4
NMSLR	82	288	4	96	72	1
CNSI_	83	72	1	0	48	6
CNSUR	83	72	3	0	120	0
CNSI_	83	120	6	0	72	4
NMSTR	83	288	1
NMSI_	83	288	1	96	48	5
NMSTR	84	0	6
NMSI_	84	0	6	96	48	2
CNSI_	84	48	5	0	48	1
CNSI_	84	144	2	0	48	6
NMTAP	84	192	1
NMSTR	84	288	0
NMSI_	84	288	0	96	48	3
NMSTR	85	0	7
NMSI_	85	0	7	96	48	4
CNSI_	85	48	3	0	48	0
CNSI_	85	144	4	0	48	7
NMTAP	85	240	1
NMSTR	85	288	1
NMSCL	85	288	1	96	96	6
NMTAP	86	0	3
NMTAP	86	96	4
NMTAP	86	144	4
NMTAP	86	240	2
NMSTR	86	288	1
NMSCL	86	288	1	96	96	6
NMTAP	87	0	3
NMTAP	87	96	4
NMTAP	87	144	4
NMTAP	87	240	3
NMSTR	87	288	2
NMSCL	87	288	2	96	96	6
NMTAP	88	0	3
NMTAP	88	96	4
NMTAP	88	144	4
NMTAP	88	240	3
NMSTR	88	288	2
NMSCL	88	288	2	96	96	6
NMTAP	89	0	3
NMTAP	89	96	4
NMTAP	89	144	4
NMTAP	89	240	3
NMSTR	89	288	2
NMSLR	89	288	2	96	96	1
NMTAP	90	0	7
NMTAP	90	96	0
NMTAP	90	144	0
NMTAP	90	240	1
NMSTR	90	288	1
NMSLR	90	288	1	96	96	0
NMTAP	91	0	6
NMTAP	91	96	7
NMTAP	91	144	7
NMTAP	91	240	1
NMSTR	91	288	1
NMSCR	91	288	1	96	48	3
NMTAP	92	0	7
NMSTR	92	96	6
NMSCL	92	96	6	96	48	4
NMTAP	92	192	0
NMSTR	92	288	1
NMSI_	92	288	1	96	48	3
NMTAP	93	0	7
NMSTR	93	96	6
NMSI_	93	96	6	96	48	4
NMHLD	93	192	0	96
NMSTR	93	288	3
NMSCR	93	288	3	96	48	5
NMTTP	94	192	0	C	0	M1
NMTTP	94	192	1	B	0	M1
NMTTP	94	192	6	B	0	M1
NMTTP	94	192	6	A	0	M1
NMTTP	95	192	0	C	0	M1
NMTTP	95	192	1	B	0	M1
NMTTP	95	192	7	B	0	M1
NMTTP	95	192	7	A	0	M1
NMSTR	95	288	0
NMSI_	95	288	0	96	48	3
NMSTR	96	0	0
NMSI_	96	0	0	96	48	5
NMSTR	96	96	0
NMSI_	96	96	0	96	72	4
NMTAP	96	192	0
CNSI_	96	264	4	0	72	0
NMTAP	96	288	6
NMSTR	97	0	7
NMSUR	97	0	7	96	96	3
NMTAP	97	144	4
CNSUL	97	192	3	0	96	7
NMTAP	97	192	4
NMTAP	98	0	4
NMTAP	98	0	6
NMSTR	98	96	5
NMSCR	98	96	5	96	96	0
NMHLD	98	144	5	144
NMTAP	99	0	4
NMTAP	99	0	6
NMSTR	99	96	5
NMSCR	99	96	5	96	96	0
NMHLD	99	144	5	144
NMTAP	100	0	4
NMTAP	100	0	6
NMSTR	100	96	5
NMSCL	100	96	5	96	48	4
NMHLD	100	144	5	144
CNSI_	100	240	4	0	48	1
NMTAP	101	0	4
NMTAP	101	0	6
NMSTR	101	96	5
NMSCL	101	96	5	96	48	4
NMHLD	101	144	5	144
CNSI_	101	240	4	0	48	1
NMTAP	102	0	4
NMTAP	102	0	6
NMSTR	102	96	5
NMSI_	102	96	5	96	48	2
NMHLD	102	144	5	144
CNSI_	102	240	2	0	48	6
CNSI_	102	288	6	0	48	1
NMTAP	103	0	4
NMTAP	103	0	6
NMSTR	103	96	5
NMSI_	103	96	5	96	48	2
NMHLD	103	144	5	144
CNSI_	103	240	2	0	48	6
CNSI_	103	288	6	0	48	1
NMTAP	104	0	4
NMTAP	104	0	6
NMTAP	104	96	5
NMHLD	104	144	5	144
NMHLD	105	0	4	768
NMHLD	105	0	6	960
NMSTR	107	192	3
NMSI_	107	192	3	96	144	0
NMSI_	107	192	3	96	144	6
CNSCL	108	48	0	0	48	6
CNSCR	108	48	6	0	48	0
CNSUR	108	96	0	0	96	6
CNSUL	108	96	6	0	96	0

T_REC_TAP	171
T_REC_BRK	5
T_REC_XTP	10
T_REC_BXX	0
T_REC_HLD	33
T_REC_XHO	0
T_REC_BHO	1
T_REC_BXH	0
T_REC_STR	101
T_REC_BST	0
T_REC_XST	7
T_REC_XBS	0
T_REC_TTP	71
T_REC_THO	0
T_REC_SLD	108
T_REC_BSL	2
T_REC_ALL	509
T_NUM_TAP	360
T_NUM_BRK	8
T_NUM_HLD	33
T_NUM_SLD	108
T_NUM_ALL	509
T_JUDGE_TAP	365
T_JUDGE_HLD	84
T_JUDGE_SLD	110
T_JUDGE_ALL	559
TTM_EACHPAIRS	66
TTM_SCR_TAP	180000
TTM_SCR_BRK	20800
TTM_SCR_HLD	33000
TTM_SCR_SLD	162000
TTM_SCR_ALL	395800
TTM_SCR_S	383150
TTM_SCR_SS	395000
TTM_RAT_ACV	10020

