VERSION	0.00.00	1.05.00
FES_MODE	0
BPM_DEF	240.000	240.000	240.000	240.000
MET_DEF	4	4
RESOLUTION	384
CLK_DEF	384
COMPATIBLE_CODE	MA2

BPM	0	0	240.000
MET	0	0	4	4

NMSTR	3	0	7
NMSCL	3	0	7	96	96	6
NMSCR	3	0	7	96	96	0
CNSI_	3	192	0	0	144	3
CNSI_	3	192	6	0	144	3
EXHLD	4	0	2	96
EXHLD	4	0	4	96
NMHLD	4	192	2	96
NMHLD	4	192	4	96
NMSTR	5	0	1
NMSCR	5	0	1	96	192	4
NMTAP	5	0	5
EXHLD	6	0	3	96
EXHLD	6	0	5	96
NMHLD	6	192	3	96
NMHLD	6	192	5	96
NMTAP	7	0	2
NMSTR	7	0	6
NMSCL	7	0	6	96	96	4
CNSUL	7	192	4	0	144	7
EXHLD	8	0	0	96
EXHLD	8	0	6	96
NMHLD	8	192	0	96
NMHLD	8	192	6	96
NMSTR	9	0	1
NMSCR	9	0	1	96	96	3
NMTAP	9	0	5
CNSUR	9	192	3	0	144	0
EXHLD	10	0	1	96
EXHLD	10	0	7	96
NMHLD	10	192	1	96
NMHLD	10	192	7	96
NMTAP	11	0	2
NMSTR	11	0	6
NMSUL	11	0	6	96	288	3
NMHLD	12	0	2	144
NMHLD	12	144	3	144
NMTAP	12	288	4
NMHLD	13	0	2	144
NMHLD	13	144	3	144
NMTAP	13	288	4
NMHLD	14	0	6	144
NMTAP	14	0	7
NMHLD	14	144	4	144
NMTAP	14	288	3
NMHLD	15	0	6	144
NMTAP	15	0	7
NMHLD	15	144	4	144
NMTAP	15	288	3
NMHLD	16	0	1	144
NMTAP	16	0	2
NMHLD	16	144	3	144
NMTAP	16	288	4
NMHLD	17	0	1	144
NMTAP	17	0	2
NMHLD	17	144	3	144
NMTAP	17	288	4
NMHLD	18	0	3	672
NMHLD	18	0	4	672
NMTAP	20	0	2
NMTAP	20	96	1
NMTAP	20	192	2
NMTAP	20	288	1
NMTAP	21	0	0
NMTAP	21	0	3
NMTAP	21	96	1
NMTAP	21	96	2
NMHLD	21	192	0	96
NMHLD	21	192	3	96
NMTAP	22	0	6
NMTAP	22	96	5
NMTAP	22	192	6
NMTAP	22	288	5
NMTAP	23	0	4
NMTAP	23	0	7
NMSTR	23	96	5
NMSCL	23	96	5	96	96	2
NMTAP	23	96	6
NMTAP	24	0	0
NMTAP	24	0	7
NMTAP	24	96	6
NMTAP	24	192	0
NMTAP	24	192	7
NMTAP	24	288	1
NMTAP	25	0	0
NMTAP	25	0	7
NMTAP	25	96	1
NMTAP	25	96	6
NMHLD	25	192	2	96
NMHLD	25	192	5	96
NMTAP	26	0	2
NMTAP	26	96	3
NMTAP	26	192	4
NMTAP	26	288	5
EXTAP	26	336	5
NMTTP	27	96	3	E	0	M1
NMTTP	27	192	4	E	0	M1
NMTTP	27	288	5	E	0	M1
NMSTR	28	0	6
NMSCL	28	0	6	96	96	4
NMSTR	28	0	7
NMSUL	28	0	7	96	96	3
EXTAP	28	288	0
EXTAP	28	288	1
NMSTR	29	0	6
NMSCL	29	0	6	96	96	4
NMSTR	29	0	7
NMSUL	29	0	7	96	96	3
EXTAP	29	288	1
EXTAP	29	288	2
NMTAP	30	0	0
NMTAP	30	0	1
NMTAP	30	96	0
NMTAP	30	96	1
NMTAP	30	192	0
NMTAP	30	192	7
NMTAP	30	288	0
NMTAP	30	288	7
NMSTR	31	0	6
NMSCL	31	0	6	96	96	4
NMSTR	31	0	7
NMSUL	31	0	7	96	96	3
EXTAP	31	288	0
EXTAP	31	288	1
NMSTR	32	0	0
NMSUR	32	0	0	96	96	4
NMSTR	32	0	1
NMSCR	32	0	1	96	96	3
EXTAP	32	288	6
EXTAP	32	288	7
NMSTR	33	0	0
NMSUR	33	0	0	96	96	4
NMSTR	33	0	1
NMSCR	33	0	1	96	96	3
EXTAP	33	288	5
EXTAP	33	288	6
NMTAP	34	0	6
NMTAP	34	0	7
NMTAP	34	96	6
NMTAP	34	96	7
NMTAP	34	192	0
NMTAP	34	192	7
NMTAP	34	288	0
NMTAP	34	288	7
NMSTR	35	0	0
NMSUR	35	0	0	96	96	4
NMSTR	35	0	1
NMSCR	35	0	1	96	96	3
CNSUR	35	192	3	0	96	7
CNSCR	35	192	4	0	96	6
EXHLD	36	0	6	96
EXHLD	36	0	7	96
NMHLD	36	144	4	96
NMHLD	36	144	5	96
NMTAP	36	288	6
NMTAP	36	288	7
EXHLD	37	0	0	96
EXHLD	37	0	1	96
NMHLD	37	144	6	96
NMHLD	37	144	7	96
NMTAP	37	288	0
NMTAP	37	288	1
NMTAP	38	0	6
NMTAP	38	0	7
NMTAP	38	96	6
NMTAP	38	96	7
NMTAP	38	192	4
NMTAP	38	192	5
NMSTR	38	288	4
NMSUL	38	288	4	96	288	2
NMSTR	38	288	5
NMSUL	38	288	5	96	288	3
EXHLD	40	0	0	96
EXHLD	40	0	1	96
NMHLD	40	144	2	96
NMHLD	40	144	3	96
NMTAP	40	288	0
NMTAP	40	288	1
EXHLD	41	0	6	96
EXHLD	41	0	7	96
NMHLD	41	144	0	96
NMHLD	41	144	1	96
NMTAP	41	288	6
NMTAP	41	288	7
NMTAP	42	0	0
NMTAP	42	0	1
NMTAP	42	96	0
NMTAP	42	96	1
NMTAP	42	192	2
NMTAP	42	192	3
NMTAP	42	288	2
NMTAP	42	288	3
BRTAP	43	0	1
BRTAP	43	0	2
BRTAP	43	144	5
BRTAP	43	144	6
BRTAP	43	288	0
BRTAP	43	288	7
NMHLD	46	0	0	2592
NMSTR	46	0	1
NMSCR	46	0	1	96	192	4
NMSTR	47	0	1
NMSCR	47	0	1	96	192	4
NMSTR	48	0	2
NMSCR	48	0	2	96	192	5
NMSTR	49	0	2
NMSCR	49	0	2	96	192	5
NMSTR	50	0	3
NMSCR	50	0	3	96	192	6
NMSTR	51	0	3
NMSCR	51	0	3	96	192	6
NMHLD	52	0	7	288
NMTTP	53	96	1	E	0	M1
NMTTP	53	192	2	E	0	M1
NMTTP	53	288	3	E	0	M1
NMHLD	54	0	4	96
NMHLD	54	0	5	96
NMHLD	54	192	4	96
NMHLD	54	192	5	96
NMTAP	55	0	3
NMTAP	55	0	5
NMTAP	55	96	3
NMTAP	55	96	5
NMTTP	55	192	4	B	1	M1
NMTTP	55	192	4	E	0	M1
NMTTP	55	192	5	E	0	M1
NMTAP	56	0	2
NMTAP	56	96	1
NMTAP	56	192	0
NMTAP	56	288	7
NMTAP	57	0	6
NMTAP	57	96	5
NMTAP	57	192	3
NMTAP	57	192	4
EXTAP	57	288	2
EXTAP	57	336	2
EXTAP	58	0	2
NMTAP	58	96	1
NMTAP	58	192	0
NMTAP	58	288	7
NMTAP	59	0	6
NMSTR	59	96	5
NMSI_	59	96	5	96	96	3
NMTAP	60	0	2
NMTAP	60	96	2
NMTAP	60	96	3
NMTAP	60	192	5
NMTAP	60	288	4
NMTAP	60	288	5
NMTAP	61	0	3
NMTAP	61	96	1
NMHLD	61	192	7	288
NMHLD	62	0	5	288
NMHLD	62	192	4	288
NMHLD	63	0	2	288
NMHLD	63	192	1	768
NMHLD	64	0	7	576
NMHLD	66	0	0	288
NMHLD	66	192	2	288
NMHLD	67	0	4	288
NMHLD	67	192	6	480
NMHLD	68	0	1	288
NMTAP	69	192	3
NMTAP	69	192	4
NMSTR	70	0	4
NMSI_	70	0	4	96	144	6
NMSTR	71	0	3
NMSI_	71	0	3	96	144	1
NMSTR	72	0	4
NMSI_	72	0	4	96	144	6
NMSTR	73	0	3
NMSI_	73	0	3	96	144	1
NMSTR	74	0	5
NMSI_	74	0	5	96	192	2
NMSTR	75	0	1
NMSI_	75	0	1	96	192	6
NMSTR	76	0	5
NMSI_	76	0	5	96	192	2
NMTTP	77	0	0	B	0	M1
NMTTP	77	0	0	A	0	M1
NMTTP	77	0	1	B	0	M1
NMTTP	77	0	1	E	1	M1
NMTTP	77	0	1	A	0	M1
NMTTP	77	144	4	B	0	M1
NMTTP	77	144	4	A	0	M1
NMTTP	77	144	5	B	0	M1
NMTTP	77	144	5	E	1	M1
NMTTP	77	144	5	A	0	M1
BRTAP	78	0	7
NMTAP	78	96	2
NMTAP	78	144	2
NMTAP	78	240	6
NMTAP	78	288	6
BRTAP	79	0	0
NMTAP	79	96	5
NMTAP	79	144	5
NMTAP	79	240	1
NMSTR	79	288	1
NMSXL	79	288	1	96	312	4
NMSXL	79	288	1	96	312	5
BXTAP	81	0	7
EXTAP	81	96	0
EXTAP	81	96	6
EXTAP	81	144	0
EXTAP	81	144	6
NMTAP	81	240	1
NMTAP	81	288	1
BRTAP	82	0	2
BRTAP	82	0	4
NMTAP	82	96	5
NMTAP	82	144	5
NMTAP	82	240	0
NMTAP	82	288	0
BRTAP	83	0	1
BRTAP	83	0	7
NMTAP	83	96	6
NMTAP	83	144	6
NMTAP	83	240	3
NMTAP	83	288	3
NMHLD	84	0	2	96
NMHLD	84	96	3	96
NMHLD	84	192	4	96
NMHLD	84	288	5	96
NMSTR	85	0	6
NMSI_	85	0	6	96	96	2
NMSI_	85	0	6	96	96	3
EXTAP	85	288	1
EXTAP	85	288	7
NMHLD	86	0	0	144
NMHLD	86	144	2	144
NMTAP	86	288	3
NMHLD	87	0	4	144
NMTAP	87	0	5
NMHLD	87	144	2	144
NMTAP	87	288	0
NMHLD	88	0	7	144
NMHLD	88	144	5	144
NMTAP	88	288	4
NMTAP	89	0	2
NMHLD	89	0	3	144
NMHLD	89	144	5	144
NMTAP	89	288	7
NMSTR	90	0	4
NMSCL	90	0	4	96	96	2
NMSTR	90	0	6
NMSCL	90	0	6	96	96	4
NMTAP	90	288	0
NMSTR	91	0	1
NMSCR	91	0	1	96	96	3
NMSTR	91	0	3
NMSCR	91	0	3	96	96	5
NMTAP	91	288	7
NMTAP	92	0	4
NMTAP	92	0	6
NMTAP	92	96	3
NMTAP	92	96	5
NMTAP	92	192	2
NMTAP	92	192	4
NMTAP	92	288	1
NMTAP	92	288	3
EXHLD	93	0	0	96
EXHLD	93	0	7	96
NMTAP	93	192	1
NMTAP	93	192	3
NMTAP	93	288	4
NMTAP	93	288	6
NMTAP	94	0	2
NMSTR	94	0	5
NMSI_	94	0	5	96	480	2
NMTAP	95	288	3
NMTAP	96	0	2
NMTAP	96	0	4
NMTAP	96	96	6
NMTAP	96	96	7
NMTAP	96	192	3
NMTAP	96	192	5
NMTAP	96	288	0
NMTAP	96	288	1
NMSTR	97	0	2
BRSV_	97	0	2	96	144	7
NMSTR	97	0	4
BRSV_	97	0	4	96	144	7
NMHLD	98	0	6	240
NMHLD	98	144	5	96
NMTAP	98	288	5
NMTAP	98	288	6
NMHLD	99	0	4	240
NMHLD	99	144	7	96
NMTAP	99	288	4
NMTAP	99	288	7
NMHLD	100	0	0	240
NMHLD	100	144	3	96
NMTAP	100	288	0
NMTAP	100	288	3
NMHLD	101	0	2	240
NMHLD	101	144	1	96
NMTAP	101	288	1
NMTAP	101	288	2
EXTAP	102	0	3
EXTAP	102	48	3
EXTAP	102	96	4
EXTAP	102	144	2
EXTAP	102	240	6
EXTAP	102	240	7
EXTAP	102	288	6
EXTAP	102	288	7
EXTAP	103	0	0
EXTAP	103	48	0
EXTAP	103	96	7
EXTAP	103	144	1
EXTAP	103	240	4
EXTAP	103	240	5
EXTAP	103	288	4
EXTAP	103	288	5
BRHLD	104	0	3	720
BRHLD	104	0	4	720
NMSTR	107	0	7
NMSCL	107	0	7	96	96	6
NMSCR	107	0	7	96	96	0
CNSI_	107	192	0	0	384	3
CNSI_	107	192	6	0	384	3

T_REC_TAP	162
T_REC_BRK	12
T_REC_XTP	36
T_REC_BXX	1
T_REC_HLD	71
T_REC_XHO	18
T_REC_BHO	2
T_REC_BXH	0
T_REC_STR	44
T_REC_BST	0
T_REC_XST	0
T_REC_XBS	0
T_REC_TTP	19
T_REC_THO	0
T_REC_SLD	46
T_REC_BSL	2
T_REC_ALL	413
T_NUM_TAP	261
T_NUM_BRK	17
T_NUM_HLD	89
T_NUM_SLD	46
T_NUM_ALL	413
T_JUDGE_TAP	274
T_JUDGE_HLD	205
T_JUDGE_SLD	48
T_JUDGE_ALL	527
TTM_EACHPAIRS	109
TTM_SCR_TAP	130500
TTM_SCR_BRK	44200
TTM_SCR_HLD	89000
TTM_SCR_SLD	69000
TTM_SCR_ALL	332700
TTM_SCR_S	321100
TTM_SCR_SS	331000
TTM_RAT_ACV	10051

