VERSION	0.00.00	1.05.00
FES_MODE	0
BPM_DEF	180.000	180.000	190.000	145.000
MET_DEF	4	4
RESOLUTION	384
CLK_DEF	384
COMPATIBLE_CODE	MA2

BPM	0	0	180.000
BPM	69	0	145.000
BPM	69	192	155.000
BPM	70	192	152.000
BPM	70	288	155.000
BPM	71	192	160.000
BPM	71	288	170.000
BPM	72	288	180.000
BPM	73	48	190.000
MET	0	0	4	4
MET	22	0	4	3
MET	27	96	4	5
MET	28	192	4	4
MET	68	192	4	2
MET	69	0	4	3
MET	69	288	4	4

NMSTR	2	0	5
NMSI_	2	0	5	96	144	2
NMSUR	2	0	5	96	144	2
NMTAP	2	336	1
NMTAP	2	336	3
NMTAP	3	48	2
NMTAP	3	48	4
NMHLD	3	144	4	96
NMTAP	3	144	5
NMTAP	3	240	6
NMTAP	3	288	6
NMHLD	4	0	7	96
NMHLD	4	96	5	96
NMTAP	4	192	3
NMTAP	4	240	3
NMSTR	4	336	2
NMSI_	4	336	2	96	48	0
NMSTR	5	48	7
NMSI_	5	48	7	96	48	3
NMSI_	5	48	7	96	48	5
EXTAP	5	240	2
EXTAP	5	240	4
EXTAP	5	288	2
EXTAP	5	288	4
NMTAP	6	0	1
NMTAP	6	48	2
NMHLD	6	96	4	72
NMTAP	6	168	3
NMTAP	6	192	5
NMTAP	6	240	1
NMTAP	6	288	2
NMTAP	6	288	4
NMHLD	6	336	6	96
NMTTP	7	48	0	B	0	M1
NMTTP	7	48	1	E	0	M1
NMTTP	7	96	4	B	0	M1
NMTTP	7	96	5	E	0	M1
NMTHO	7	144	0	96	C	0	M1
EXTAP	7	240	0
EXTAP	7	288	0
NMSTR	8	0	1
NMSI_	8	0	1	96	48	7
NMSTR	8	0	7
NMSI_	8	0	7	96	48	5
NMTAP	8	96	1
NMTAP	8	96	7
NMTAP	8	192	4
NMSTR	8	240	4
NMSI_	8	240	4	96	48	0
BRSTR	8	336	2
NMSSR	8	336	2	96	144	6
EXTAP	9	240	7
EXTAP	9	288	7
NMHLD	10	0	1	96
NMHLD	10	0	3	96
NMHLD	10	192	4	96
NMHLD	10	192	6	96
NMHLD	11	0	2	96
NMHLD	11	0	3	96
NMTAP	11	192	4
NMTAP	11	192	6
EXTAP	11	240	7
EXTAP	11	288	7
NMSTR	12	0	0
NMSI_	12	0	0	96	48	5
NMSTR	12	0	1
NMSI_	12	0	1	96	48	4
NMTAP	12	192	3
NMTAP	12	192	6
NMTAP	12	240	3
NMSTR	12	240	6
NMSCL	12	240	6	96	192	1
NMTTP	12	336	0	C	1	M1
BRTAP	13	288	1
BRTAP	13	288	7
NMHLD	14	0	6	96
NMSTR	14	96	4
NMSCL	14	96	4	96	96	2
NMTAP	14	192	5
NMTAP	14	288	4
NMTAP	14	336	4
NMHLD	15	0	1	96
NMSTR	15	96	3
NMSCR	15	96	3	96	96	5
NMTAP	15	192	2
NMTAP	15	288	3
NMTAP	15	336	3
NMTAP	16	0	6
NMTAP	16	48	5
NMTAP	16	96	4
NMTAP	16	144	3
NMTAP	16	192	5
NMTAP	16	240	4
NMTAP	16	288	3
NMHLD	16	336	2	96
NMTAP	17	48	3
NMTAP	17	72	3
NMSTR	17	96	1
NMSI_	17	96	1	96	48	5
NMTAP	17	144	0
EXTAP	17	192	7
CNSI_	17	240	5	0	48	2
CNSI_	17	288	2	0	96	4
BRTAP	18	0	7
NMTAP	18	96	3
NMSTR	18	96	6
NMSCL	18	96	6	96	96	4
NMTAP	18	192	1
NMTAP	18	288	2
NMTAP	18	336	2
NMSTR	19	0	3
NMSI_	19	0	3	96	48	7
NMSTR	19	96	1
NMSI_	19	96	1	96	48	5
EXTAP	19	192	6
NMTAP	19	288	6
NMTAP	19	336	5
NMTAP	20	0	4
NMTAP	20	48	3
NMTAP	20	48	5
NMTAP	20	96	2
NMTAP	20	144	1
NMTAP	20	192	2
NMTAP	20	192	4
NMTAP	20	240	5
NMSTR	20	288	0
NMSSL	20	288	0	96	192	4
NMTAP	20	288	6
NMTAP	20	336	0
NMSTR	20	336	6
NMSSR	20	336	6	96	144	2
NMTAP	21	288	2
NMTAP	21	288	4
NMHLD	22	0	2	288
NMTAP	22	192	4
NMHLD	22	288	5	288
NMTAP	23	96	7
NMHLD	23	192	0	384
NMTAP	24	0	2
NMHLD	24	96	3	96
NMTAP	24	288	2
NMTAP	24	288	3
NMTAP	25	0	2
NMSTR	25	0	3
NMSCR	25	0	3	96	192	7
NMTAP	25	192	2
NMSTR	25	288	4
NMSCL	25	288	4	96	192	0
NMTAP	26	96	5
NMSTR	26	192	3
NMSCR	26	192	3	96	192	7
NMSTR	27	0	2
NMSSR	27	0	2	96	240	6
CNSLL	27	336	6	0	240	2
BXHLD	28	192	0	96
NMTAP	28	288	1
NMSTR	28	336	2
NMSCR	28	336	2	96	48	5
BXTAP	28	336	7
NMTAP	29	48	6
NMHLD	29	96	6	96
BRHLD	29	192	7	96
NMTAP	29	288	6
NMTAP	29	336	0
NMSTR	29	336	5
NMSCR	29	336	5	96	48	0
BRTAP	30	48	2
BRTAP	30	96	2
NMTAP	30	192	1
NMTAP	30	192	3
NMTAP	30	240	1
NMTAP	30	288	5
NMTAP	30	336	5
NMTAP	31	0	4
NMTAP	31	0	6
NMTAP	31	48	6
NMTAP	31	96	2
NMTAP	31	144	2
NMTAP	31	192	2
NMTAP	31	216	3
NMTAP	31	240	2
NMTAP	31	264	3
NMTAP	31	288	1
NMTAP	31	312	4
NMTAP	31	336	1
NMTAP	31	360	4
NMTAP	32	0	0
NMTAP	32	24	5
NMTAP	32	48	0
NMTAP	32	72	5
NMTAP	32	96	7
NMTAP	32	120	6
NMTAP	32	144	7
NMTAP	32	168	6
BRTAP	32	192	0
BRTAP	32	288	1
BRTAP	33	0	2
NMSTR	33	0	4
BRSCR	33	0	4	96	48	7
NMTTP	33	96	4	E	1	M1
BRSTR	33	192	0
NMSI_	33	192	0	96	48	4
BRSTR	33	192	1
NMSI_	33	192	1	96	48	4
BRTAP	33	288	0
BRTAP	33	288	1
NMTAP	34	0	2
NMTAP	34	0	6
NMSTR	34	48	2
NMSI_	34	48	2	96	48	4
NMSTR	34	48	6
NMSI_	34	48	6	96	48	0
BRSTR	34	144	2
BRSV_	34	144	2	96	48	0
BRSTR	34	144	6
BRSV_	34	144	6	96	48	4
BXTAP	34	336	1
BXTAP	34	336	7
NMTAP	35	48	1
NMTAP	35	48	5
NMTAP	35	96	1
NMTAP	35	96	5
NMSTR	35	192	4
NMSCR	35	192	4	96	96	2
NMTAP	35	288	2
NMTAP	35	336	3
NMHLD	36	0	4	96
NMTAP	36	96	5
NMTAP	36	144	3
NMTAP	36	144	6
BRTAP	36	192	2
BRTAP	36	192	7
NMTAP	36	288	2
NMTAP	36	288	3
BRSTR	36	336	1
NMSI_	36	336	1	96	48	7
NMTAP	36	336	4
BRSTR	37	48	1
NMSI_	37	48	1	96	48	4
NMTAP	37	48	7
BRTAP	37	144	1
NMSTR	37	144	6
NMSI_	37	144	6	96	48	4
BRSLL	37	144	6	96	96	0
NMTTP	37	288	0	C	1	M1
CNSCL	37	288	4	0	48	1
NMTAP	38	96	0
NMTAP	38	96	7
NMTAP	38	144	1
NMTAP	38	168	3
NMTAP	38	192	2
NMTAP	38	240	3
NMSTR	38	240	4
BRSCL	38	240	4	96	48	1
NMTAP	38	288	5
NMHLD	38	336	6	96
NMTAP	39	48	0
BRTAP	39	96	1
BRTAP	39	96	5
NMTAP	39	192	0
NMTAP	39	192	1
NMTAP	39	240	0
NMTAP	39	240	1
NMTAP	39	288	2
NMTAP	39	312	3
NMTAP	39	336	2
NMTAP	40	0	3
NMTAP	40	0	5
NMSTR	40	48	7
NMSCL	40	48	7	96	144	1
NMTAP	40	96	0
BRTAP	40	144	1
NMTTP	40	288	4	B	1	M1
NMTTP	40	288	4	E	0	M1
NMTTP	40	288	5	E	0	M1
NMSTR	41	0	0
NMSF_	41	0	0	96	48	4
BRTAP	41	96	0
NMTAP	41	192	2
NMTAP	41	192	6
NMTAP	41	240	7
NMTAP	41	288	2
NMTAP	41	288	6
NMTAP	41	336	1
NMTAP	42	0	2
NMTAP	42	0	4
NMTAP	42	48	3
NMTAP	42	48	5
NMTAP	42	96	4
NMTAP	42	96	6
BRSTR	42	144	7
BRSI_	42	144	7	96	48	5
BRSTR	42	240	0
BRSI_	42	240	0	96	48	4
NMTAP	42	240	7
NMTAP	42	336	0
BRTAP	42	336	1
NMTAP	43	48	2
NMTAP	43	96	4
NMTAP	43	144	0
NMSTR	43	192	6
NMSLL	43	192	6	96	96	2
NMTAP	43	192	7
NMTAP	43	288	2
NMTAP	43	336	1
NMSTR	44	0	0
NMSI_	44	0	0	96	48	3
NMSTR	44	48	0
NMSI_	44	48	0	96	48	6
EXTAP	44	96	0
BXTAP	44	144	0
NMTTP	44	240	4	B	0	M1
NMTTP	44	240	4	E	0	M1
NMTTP	44	240	5	B	0	M1
NMTTP	44	240	5	E	1	M1
NMTTP	44	240	6	E	0	M1
NMTAP	44	336	6
NMTAP	44	336	7
NMTAP	45	0	6
NMSTR	45	0	7
NMSI_	45	0	7	96	48	1
NMSI_	45	0	7	96	48	4
BRTAP	45	96	7
EXTAP	45	192	2
EXTAP	45	240	2
NMTAP	45	288	1
NMTAP	45	312	0
NMTAP	45	336	1
EXTAP	46	0	5
EXTAP	46	48	5
BXTAP	46	96	6
BXTAP	46	120	7
BXTAP	46	144	6
NMTAP	46	192	0
NMTAP	46	192	5
NMTAP	46	240	1
NMTAP	46	240	4
NMSTR	46	288	2
NMSCL	46	288	2	96	96	5
NMSTR	46	288	3
NMSUR	46	288	3	96	96	4
EXTAP	47	192	6
EXTAP	47	240	6
NMTAP	47	288	2
NMTAP	47	312	3
NMTAP	47	336	2
EXTAP	48	0	0
EXTAP	48	48	0
NMTAP	48	96	6
NMTAP	48	120	4
NMTAP	48	144	6
NMTAP	48	168	4
NMTAP	48	192	7
NMTAP	48	216	3
NMTAP	48	240	7
NMTAP	48	264	3
NMTAP	48	288	7
NMTAP	48	312	3
NMTTP	48	336	7	E	0	M1
NMTTP	48	352	6	B	0	M1
NMTTP	48	368	5	B	0	M1
NMTTP	49	0	5	E	0	M1
NMTTP	49	48	2	E	0	M1
NMTTP	49	64	2	B	0	M1
NMTTP	49	80	3	B	0	M1
NMTTP	49	96	4	E	0	M1
EXTAP	49	144	0
EXTAP	49	144	6
BXSTR	49	192	0
NMSUR	49	192	0	96	192	3
BXSTR	49	192	6
NMSUL	49	192	6	96	192	3
NMTTP	50	192	0	C	1	M1
NMTTP	50	192	1	A	0	M1
NMTTP	50	192	2	A	0	M1
NMTTP	50	192	2	D	0	M1
NMTTP	50	192	3	B	0	M1
NMTTP	50	192	3	A	0	M1
NMTTP	50	192	3	D	0	M1
NMTTP	50	192	4	B	0	M1
NMTTP	50	192	4	A	0	M1
NMTTP	50	192	5	A	0	M1
NMTTP	50	192	5	D	0	M1
NMTTP	50	192	6	A	0	M1
NMTTP	50	192	6	D	0	M1
NMTAP	51	0	0
NMTAP	51	48	0
NMTAP	51	96	7
NMTAP	51	144	7
NMSTR	51	192	1
NMSCR	51	192	1	96	336	4
NMSTR	52	96	7
BRSI_	52	96	7	96	48	4
BRTAP	52	192	7
NMTAP	53	48	4
NMTAP	53	48	5
EXTAP	53	96	6
NMTTP	53	192	4	B	0	M1
NMTTP	53	192	5	B	0	M1
NMTTP	53	192	5	E	0	M1
NMTTP	53	192	6	E	0	M1
NMTTP	53	288	2	B	0	M1
NMTTP	53	288	2	E	0	M1
NMTTP	53	288	3	B	0	M1
NMTTP	53	288	3	E	0	M1
NMTAP	54	0	0
NMTAP	54	48	7
NMSTR	54	96	6
NMSCR	54	96	6	96	96	2
NMSTR	54	192	2
NMSV_	54	192	2	96	96	4
NMTAP	54	288	4
NMSTR	55	0	3
NMSI_	55	0	3	96	48	7
NMTTP	55	192	0	B	0	M1
NMTTP	55	192	0	A	0	M1
NMTTP	55	192	1	B	0	M1
NMTTP	55	192	1	E	0	M1
NMTTP	55	192	1	A	0	M1
NMTTP	55	192	1	D	1	M1
NMTTP	55	192	2	E	0	M1
NMTTP	55	192	2	D	0	M1
NMTAP	55	336	6
NMHLD	56	0	6	96
EXTAP	56	96	4
BXHLD	56	192	2	96
NMTAP	56	336	1
NMTAP	56	336	3
NMTAP	57	0	1
NMTAP	57	0	3
NMSTR	57	96	0
NMSCR	57	96	0	96	288	6
NMTAP	57	96	4
NMTAP	57	192	7
NMTAP	57	240	7
NMTAP	57	288	7
NMTAP	57	336	7
NMTAP	58	0	7
NMTAP	58	48	7
NMTAP	58	96	7
NMTAP	58	144	7
NMTAP	58	192	1
NMTAP	58	216	0
NMTAP	58	264	2
NMTAP	58	288	3
NMTAP	58	336	6
NMTAP	58	360	7
NMTAP	59	24	5
NMTAP	59	48	4
BRTAP	59	96	3
BRSTR	59	96	6
NMSSR	59	96	6	96	192	2
NMHLD	59	192	1	288
NMHLD	60	192	2	48
NMHLD	60	192	4	48
NMHLD	60	288	2	48
NMHLD	60	288	4	48
NMSTR	61	0	3
BRSI_	61	0	3	96	48	0
EXTAP	61	48	4
EXTAP	61	48	5
NMTTP	61	96	3	A	1	M1
BXTAP	61	96	6
NMTAP	61	192	6
NMTAP	61	216	7
NMTAP	61	240	6
NMTAP	61	288	1
NMTAP	61	312	0
NMTAP	61	336	1
NMTAP	62	0	4
NMTAP	62	0	6
NMTAP	62	48	5
NMTAP	62	96	1
NMTAP	62	96	3
NMTAP	62	144	2
BXHLD	62	192	4	48
BXHLD	62	192	6	48
BXHLD	62	288	2	48
BXHLD	62	288	3	48
NMTAP	63	0	0
NMTAP	63	0	4
NMTAP	63	48	0
NMTAP	63	48	4
NMTTP	63	96	2	B	0	M1
NMTTP	63	96	3	B	0	M1
NMTTP	63	96	3	E	1	M1
NMTTP	63	96	3	D	0	M1
NMTTP	63	96	5	B	0	M1
NMTTP	63	96	6	B	0	M1
NMTTP	63	96	6	E	0	M1
NMTTP	63	96	6	D	0	M1
NMSTR	63	192	7
NMSCL	63	192	7	96	96	3
EXSTR	64	0	0
NMSI_	64	0	0	96	96	6
EXTAP	64	96	4
EXTAP	64	192	5
CNSI_	64	192	6	0	96	1
CNSI_	64	288	1	0	96	5
EXTAP	64	288	6
CNSI_	65	0	5	0	96	2
BXHLD	65	0	7	96
CNSI_	65	96	2	0	96	4
NMTAP	65	192	6
NMTAP	65	240	5
NMTAP	65	288	4
NMTAP	65	336	3
NMTTP	66	0	6	D	0	M1
NMTTP	66	48	5	D	0	M1
NMTTP	66	96	4	D	0	M1
NMTTP	66	144	3	D	0	M1
EXSTR	66	192	2
NMSI_	66	192	2	96	48	0
NMSI_	66	192	2	96	48	6
EXTAP	66	240	2
CNSI_	66	336	6	0	48	4
EXSTR	67	0	7
NMSCL	67	0	7	96	48	3
NMSCR	67	0	7	96	48	3
EXTAP	67	48	7
NMTTP	67	192	0	C	1	M1
NMTTP	67	192	2	B	0	M1
NMTTP	67	192	2	E	0	M1
NMTTP	67	192	3	B	0	M1
NMTTP	67	192	4	B	0	M1
NMTTP	67	192	5	E	0	M1
EXTAP	69	0	0
EXTAP	69	96	1
EXTAP	69	192	2
NMHLD	69	288	3	48
NMHLD	70	0	3	48
NMTAP	70	96	2
NMTAP	70	96	4
NMHLD	70	144	2	48
NMHLD	70	144	4	48
NMHLD	70	288	4	48
NMHLD	71	0	4	48
NMTAP	71	96	3
NMTAP	71	96	5
EXTAP	71	144	6
EXTAP	71	192	6
NMHLD	71	288	4	48
NMHLD	71	288	5	48
NMHLD	72	0	4	48
NMHLD	72	0	5	48
NMHLD	72	96	3	48
NMHLD	72	96	4	48
NMHLD	72	192	2	48
NMHLD	72	192	3	48
NMTAP	72	288	2
NMSTR	72	288	3
NMSUR	72	288	3	96	192	6
NMSXR	72	288	3	96	192	6
BRTAP	73	288	0
BRTAP	73	288	7
NMTAP	74	0	2
NMTAP	74	0	3
BXHLD	74	72	1	120
BXHLD	74	72	4	120
NMTAP	74	240	2
NMTAP	74	264	3
NMTAP	74	288	2
NMTAP	74	336	7
NMTAP	75	0	1
NMTAP	75	48	5
NMTAP	75	72	4
NMTAP	75	96	5
NMTAP	75	120	4
NMTAP	75	144	5
NMTAP	75	192	3
NMTAP	75	192	6
BRTAP	75	288	0
BRTAP	75	288	7
NMTAP	76	0	2
NMTAP	76	0	3
EXHLD	76	72	1	120
EXHLD	76	72	4	120
NMTAP	76	240	2
NMTAP	76	264	3
NMSTR	76	288	2
NMSCL	76	288	2	96	144	4
NMSUR	76	288	2	96	144	4
EXTAP	77	192	1
EXTAP	77	192	7
NMSTR	77	288	6
NMSI_	77	288	6	96	48	2
NMTAP	77	336	6
NMTAP	78	0	7
NMTAP	78	48	0
NMSTR	78	96	1
NMSI_	78	96	1	96	48	4
NMTAP	78	144	1
NMTAP	78	192	7
NMTAP	78	240	6
NMSTR	78	288	5
NMSI_	78	288	5	96	48	1
NMTAP	78	336	5
NMTAP	79	0	4
NMTAP	79	48	3
NMSTR	79	96	2
NMSI_	79	96	2	96	48	7
NMTAP	79	144	2
NMTAP	79	192	3
NMTAP	79	240	4
NMSTR	79	288	5
NMSI_	79	288	5	96	48	0
NMTAP	79	336	5
NMSTR	80	0	1
NMSI_	80	0	1	96	48	4
NMTAP	80	48	1
NMTAP	80	96	7
NMTAP	80	144	7
NMTAP	80	192	7
BRSTR	80	240	2
NMSSR	80	240	2	96	240	6
BRSTR	80	240	6
NMSSR	80	240	6	96	240	2
NMTTP	81	288	2	E	0	M1
NMTTP	81	304	3	E	0	M1
NMTTP	81	320	4	E	0	M1
NMTTP	82	288	5	A	0	M1
NMTTP	82	304	5	E	0	M1
NMTTP	83	48	2	B	0	M1
NMTTP	83	48	2	E	0	M1
NMTTP	83	192	0	C	0	M1
NMTTP	83	288	6	E	0	M1
NMTTP	83	304	5	B	0	M1
NMTTP	84	96	4	B	0	M1
NMTTP	84	96	4	A	0	M1
NMTTP	84	160	3	B	0	M1
NMTTP	84	160	3	A	0	M1
NMTTP	84	224	2	B	0	M1
NMTTP	84	224	2	A	0	M1
NMTHO	84	288	0	192	C	0	M1
NMTTP	84	288	1	B	0	M1
NMTTP	84	288	1	A	0	M1
NMTAP	85	288	0
NMTAP	86	0	0
NMTAP	86	96	1
NMTAP	86	192	1
NMTAP	86	288	2
NMTAP	87	0	2
NMTAP	87	96	3
EXTAP	87	192	2
EXTAP	87	192	4
NMTAP	87	288	3
NMTAP	87	336	3
NMTAP	88	0	5
NMTAP	88	48	5
NMSTR	88	96	4
NMSI_	88	96	4	96	96	0
NMSTR	88	96	6
NMSI_	88	96	6	96	96	0
CNSI_	88	288	0	0	96	3
CNSCR	88	288	0	0	96	2
NMTAP	89	96	2
NMTAP	89	96	3
NMTAP	89	192	2
NMTAP	89	192	3
NMHLD	89	288	0	96
NMHLD	89	288	1	96
NMTAP	90	96	2
NMTAP	90	96	7
NMTAP	90	144	2
NMTAP	90	144	7
NMTHO	90	240	0	336	C	0	M1
NMTTP	90	240	4	B	0	M1
NMTTP	90	240	4	E	0	M1
NMTTP	90	240	4	A	0	M1
NMTTP	90	240	4	D	0	M1
NMTTP	90	240	5	B	0	M1
NMTTP	90	240	5	E	1	M1
NMTTP	90	240	5	A	0	M1
NMTTP	90	240	5	D	0	M1
NMTTP	90	240	6	E	0	M1
NMTTP	90	240	6	D	0	M1
NMHLD	91	288	0	288
NMTAP	91	288	7
NMTAP	92	288	1
NMTAP	92	288	4
NMTAP	92	336	2
NMTAP	92	360	3
NMTAP	93	0	1
NMTAP	93	48	0
NMTAP	93	48	6
NMTAP	93	96	5
NMTAP	93	120	4
NMTAP	93	144	6
NMSTR	93	192	3
NMSF_	93	192	3	96	48	7
NMTAP	93	192	7
BXTAP	94	0	1
BXTAP	94	0	5
NMTAP	94	96	2
NMTAP	94	96	4
NMTAP	94	144	1
NMTAP	94	192	2
NMSTR	94	192	4
NMSCR	94	192	4	96	48	7
NMTAP	94	240	5
NMHLD	94	288	1	96
NMTAP	95	0	0
BRSTR	95	48	2
BRSI_	95	48	2	96	48	4
BRSTR	95	48	6
BRSI_	95	48	6	96	48	4
BRSTR	95	144	2
BRSLL	95	144	2	96	96	4
BRSTR	95	144	6
BRSLR	95	144	6	96	96	4
BRTAP	95	240	2
BRTAP	95	240	6
NMTTP	96	0	2	B	0	M1
NMTTP	96	0	3	B	0	M1
NMTTP	96	0	3	E	0	M1
NMTTP	96	0	5	B	0	M1
NMTTP	96	0	6	B	0	M1
NMTTP	96	0	6	E	1	M1
NMTAP	96	192	7
NMTAP	96	240	6
NMSTR	96	288	5
NMSXL	96	288	5	96	96	7
NMSTR	96	336	4
NMSCL	96	336	4	96	144	0
BRTAP	97	192	6
NMTAP	97	288	0
NMTAP	97	288	6
EXTAP	97	304	5
EXTAP	97	320	4
EXTAP	97	336	3
NMTAP	98	0	1
NMTAP	98	0	7
EXTAP	98	16	2
EXTAP	98	32	3
EXTAP	98	48	4
NMTAP	98	96	6
NMTAP	98	96	7
NMTAP	98	144	0
NMTAP	98	144	5
NMTAP	98	192	1
NMTAP	98	192	4
NMTAP	98	240	2
NMSTR	98	240	3
NMSI_	98	240	3	96	48	7
NMTAP	98	336	1
NMTAP	99	0	1
CNSI_	99	0	7	0	48	5
NMSTR	99	96	0
BRSF_	99	96	0	96	48	4
EXTAP	99	192	0
BRTAP	99	288	2
BRTAP	99	288	6
NMTAP	99	336	1
NMTAP	99	360	0
BRTAP	100	0	3
NMTAP	100	48	6
NMTAP	100	72	7
BRTAP	100	96	4
BRTAP	100	144	2
BRTAP	100	144	3
BRTAP	100	192	1
BRTAP	100	192	4
BRTAP	100	240	0
BRTAP	100	240	5
NMTAP	100	288	6
NMTAP	100	312	7
NMSTR	100	336	5
BRSI_	100	336	5	96	48	3
NMTAP	100	360	0
NMTAP	101	0	6
NMTAP	101	24	7
NMTAP	101	48	5
BRTAP	101	96	1
NMTAP	101	144	1
NMTAP	101	168	0
NMTAP	101	192	2
NMTAP	101	216	7
NMTAP	101	240	1
NMTAP	101	264	0
BRHLD	101	288	2	48
NMTAP	101	336	4
NMTAP	101	360	3
BRHLD	102	0	5	48
NMTAP	102	48	3
NMTAP	102	72	4
BRTAP	102	96	2
NMSTR	102	144	0
NMSI_	102	144	0	96	48	4
NMSTR	102	144	1
NMSI_	102	144	1	96	48	3
BRTAP	102	192	2
BRTAP	102	192	7
BRTAP	102	240	0
BRTAP	102	240	1
NMTAP	102	336	6
NMTAP	102	336	7
NMTAP	103	0	6
NMTAP	103	0	7
NMTAP	103	48	0
NMTAP	103	48	5
NMSTR	103	96	1
NMSV_	103	96	1	96	48	4
NMSTR	103	96	4
NMSCR	103	96	4	96	48	7
NMTAP	103	144	2
NMTAP	103	144	3
BRTAP	103	192	1
BRTAP	103	192	4
BXTAP	103	288	3
BXTAP	103	288	6
NMTAP	104	0	6
NMTAP	104	0	7
BXTAP	104	48	1
BXTAP	104	48	4
NMTAP	104	144	2
NMTAP	104	144	3
NMTAP	104	192	3
NMTAP	104	192	4
BXSTR	104	240	4
NMSCL	104	240	4	96	48	1
BXTAP	104	240	5
NMSTR	104	336	0
NMSI_	104	336	0	96	48	4
NMTAP	105	0	7
BXTAP	105	48	0
BXTAP	105	48	6
NMTAP	105	144	3
NMTAP	105	144	5
NMSTR	105	192	1
NMSV_	105	192	1	96	48	4
NMSTR	105	192	7
NMSV_	105	192	7	96	48	4
BXTAP	105	288	1
BXTAP	105	288	7
NMTAP	106	0	2
NMTAP	106	0	3
BXTAP	106	48	0
BXTAP	106	48	5
NMTAP	106	144	0
NMTAP	106	144	1
NMTAP	106	192	0
NMTAP	106	192	1
BXTAP	106	240	3
BXSTR	106	240	7
NMSI_	106	240	7	96	48	5
BXSTR	106	336	4
NMSI_	106	336	4	96	48	0
EXTAP	106	336	7
BXSTR	107	48	0
NMSF_	107	48	0	96	48	4
EXTAP	107	48	4
BXTAP	107	144	0
NMTAP	107	240	1
NMTAP	107	240	7
BRTAP	107	288	1
BRTAP	107	288	7
NMTAP	108	0	0
NMTAP	108	24	0
NMTAP	108	48	0
NMTAP	108	72	0
NMSTR	108	96	0
BRSI_	108	96	0	96	48	4
NMTAP	108	120	0
NMTAP	108	144	0
NMTAP	108	168	0
BXTAP	108	288	3
NMHLD	108	288	5	624
NMTAP	110	144	4
EXSTR	110	192	6
NMSLL	110	192	6	96	96	2
NMSTR	110	288	2
NMSCR	110	288	2	96	96	6
NMTAP	111	0	1
EXTAP	111	96	0
EXTAP	111	144	0
EXTAP	111	192	7
EXSTR	111	240	7
NMSI_	111	240	7	96	48	3
NMSTR	111	336	3
NMSI_	111	336	3	96	48	1
NMSI_	111	336	3	96	48	5
NMTAP	112	144	0
NMTAP	112	192	0
NMTAP	112	288	1
NMHLD	112	336	1	48
NMTAP	113	0	3
NMHLD	113	48	3	48
NMTAP	113	96	2
NMHLD	113	144	2	48
NMTAP	113	192	7
NMTAP	113	288	6
NMHLD	113	336	6	24
NMTAP	114	0	4
NMHLD	114	48	4	24
NMTAP	114	96	5
EXTAP	114	144	6
EXTAP	114	144	7
BXTAP	114	192	0
BXTAP	114	192	5
NMTAP	114	288	2
NMTAP	114	312	3
NMTAP	114	336	2
NMTAP	114	360	3
NMTAP	115	0	1
NMTAP	115	24	4
NMTAP	115	48	0
NMTAP	115	72	5
NMTAP	115	96	7
NMTAP	115	120	6
NMSTR	115	144	7
BRSCR	115	144	7	96	48	2
BRSUR	115	144	7	96	48	3
NMTAP	115	168	6
NMTAP	115	192	7
NMTAP	115	216	6

T_REC_TAP	391
T_REC_BRK	48
T_REC_XTP	55
T_REC_BXX	26
T_REC_HLD	51
T_REC_XHO	2
T_REC_BHO	3
T_REC_BXH	9
T_REC_STR	73
T_REC_BST	16
T_REC_XST	5
T_REC_XBS	6
T_REC_TTP	105
T_REC_THO	3
T_REC_SLD	92
T_REC_BSL	18
T_REC_ALL	903
T_NUM_TAP	629
T_NUM_BRK	126
T_NUM_HLD	56
T_NUM_SLD	92
T_NUM_ALL	903
T_JUDGE_TAP	725
T_JUDGE_HLD	151
T_JUDGE_SLD	110
T_JUDGE_ALL	986
TTM_EACHPAIRS	153
TTM_SCR_TAP	314500
TTM_SCR_BRK	327600
TTM_SCR_HLD	56000
TTM_SCR_SLD	138000
TTM_SCR_ALL	836100
TTM_SCR_S	798800
TTM_SCR_SS	823500
TTM_RAT_ACV	10153

