VERSION	0.00.00	1.05.00
FES_MODE	0
BPM_DEF	180.000	180.000	190.000	145.000
MET_DEF	4	4
RESOLUTION	384
CLK_DEF	384
COMPATIBLE_CODE	MA2

BPM	0	0	180.000
BPM	69	0	145.000
BPM	69	192	155.000
BPM	70	192	152.000
BPM	70	288	155.000
BPM	71	192	160.000
BPM	71	288	170.000
BPM	72	288	180.000
BPM	73	48	190.000
MET	0	0	4	4
MET	22	0	4	3
MET	27	96	4	5
MET	28	192	4	4
MET	68	192	4	2
MET	69	0	4	3
MET	69	288	4	4

NMTAP	2	0	2
NMTAP	2	0	4
NMTAP	2	192	2
NMTAP	2	192	4
NMTAP	3	0	3
NMTAP	3	0	5
NMTAP	3	192	3
NMTAP	3	192	5
NMHLD	4	0	4	96
NMHLD	4	0	6	96
NMHLD	4	192	4	96
NMHLD	4	192	6	96
NMTAP	5	0	5
NMTAP	5	96	3
NMHLD	5	192	1	96
NMHLD	5	192	3	96
NMTAP	6	0	1
NMTAP	6	96	0
NMTAP	6	96	1
NMTAP	6	192	7
NMTAP	6	288	0
NMTAP	6	288	7
NMTAP	7	0	6
NMHLD	7	96	6	96
NMHLD	7	96	7	96
NMTAP	8	0	6
NMTAP	8	96	7
NMSTR	8	192	0
NMSCL	8	192	0	96	144	5
NMSTR	8	192	1
NMSCR	8	192	1	96	144	4
EXTAP	9	192	3
EXTAP	9	192	7
NMSTR	10	0	3
NMSI_	10	0	3	96	96	0
NMSTR	10	192	4
NMSI_	10	192	4	96	96	7
NMSTR	11	0	3
NMSCL	11	0	3	96	96	0
NMTAP	11	192	4
EXTAP	11	288	5
NMHLD	12	0	0	96
NMHLD	12	0	6	96
EXTAP	12	192	1
EXTAP	12	192	7
EXTAP	12	240	1
EXTAP	12	240	7
BXHLD	12	336	2	240
BXHLD	12	336	5	240
NMHLD	14	0	1	144
NMTAP	14	144	3
NMTAP	14	192	3
NMTAP	14	288	2
NMTAP	14	288	4
NMHLD	15	0	6	144
NMTAP	15	144	4
NMTAP	15	192	4
NMTAP	15	288	3
NMTAP	15	288	5
NMHLD	16	0	1	144
NMTAP	16	144	3
NMTAP	16	192	3
NMTAP	16	288	2
NMTAP	16	288	3
NMTAP	17	0	3
NMTAP	17	0	4
NMSTR	17	96	5
NMSI_	17	96	5	96	48	3
NMHLD	18	0	2	144
NMTAP	18	144	0
NMTAP	18	192	0
NMTAP	18	288	1
NMTAP	18	288	7
NMHLD	19	0	5	144
NMTAP	19	144	7
NMTAP	19	192	7
NMTAP	19	288	0
NMTAP	19	288	6
NMTAP	20	0	1
NMTAP	20	0	7
NMTAP	20	96	2
NMTAP	20	192	3
NMTAP	20	288	4
NMSTR	20	288	5
NMSUL	20	288	5	96	240	2
NMHLD	22	0	1	192
NMTAP	22	192	0
NMHLD	22	288	0	192
NMTAP	23	96	7
NMHLD	23	192	7	192
NMTAP	24	0	6
NMHLD	24	96	6	192
NMTAP	24	288	4
NMSTR	25	0	4
NMSUL	25	0	4	96	144	0
NMSTR	25	288	7
NMSUL	25	288	7	96	144	3
NMTAP	26	192	2
NMTAP	26	288	1
NMSTR	27	0	0
NMSI_	27	0	0	96	24	2
CNSI_	27	120	2	0	72	6
CNSI_	27	192	6	0	288	4
NMTAP	28	192	4
NMTAP	28	192	5
NMTAP	28	288	6
NMTAP	28	288	7
NMHLD	28	336	6	96
NMTAP	28	336	7
NMTAP	29	48	4
NMTAP	29	96	4
NMTAP	29	192	2
NMTAP	29	192	3
NMTAP	29	288	0
NMTAP	29	288	1
NMTAP	29	336	0
NMHLD	29	336	1	96
NMTAP	30	48	3
NMTAP	30	96	3
NMTAP	30	192	0
NMTAP	30	240	0
NMTAP	30	288	6
NMTAP	30	336	6
NMTAP	31	0	1
NMTAP	31	48	1
NMSTR	31	96	7
NMSCL	31	96	7	96	192	0
NMTAP	32	192	2
NMTAP	32	192	5
NMTAP	32	288	1
NMTAP	32	288	6
NMTAP	33	0	0
NMTAP	33	0	7
BRTAP	33	96	0
BRTAP	33	96	7
NMSTR	33	192	0
NMSI_	33	192	0	96	48	4
NMSTR	33	192	2
NMSI_	33	192	2	96	48	4
NMTAP	34	0	5
NMTAP	34	96	6
NMTAP	34	96	7
NMTAP	34	144	6
NMTAP	34	144	7
NMHLD	34	240	1	96
NMHLD	34	336	0	96
NMTAP	35	48	2
NMTAP	35	96	2
NMTAP	35	192	2
NMTAP	35	192	3
NMHLD	35	288	4	96
NMTAP	35	288	5
NMTAP	36	0	6
NMTAP	36	96	3
NMTAP	36	96	6
NMHLD	36	192	4	96
NMHLD	36	192	5	96
BXTAP	36	336	4
BXTAP	36	336	5
BXTAP	37	48	0
BXTAP	37	48	7
BXTAP	37	144	2
BXTAP	37	144	3
EXTAP	37	240	0
EXTAP	37	240	5
BXHLD	37	288	0	96
BXHLD	37	288	5	96
NMTAP	38	96	1
NMTAP	38	96	4
NMHLD	38	192	2	96
NMTAP	38	288	3
NMTAP	38	336	3
NMTAP	39	48	0
NMTAP	39	48	1
NMTAP	39	96	0
NMTAP	39	96	1
EXTAP	39	192	2
EXTAP	39	192	6
EXTAP	39	240	2
EXTAP	39	240	6
EXTAP	39	288	2
EXTAP	39	288	6
EXTAP	40	0	1
EXTAP	40	0	5
EXTAP	40	48	1
EXTAP	40	48	5
EXTAP	40	96	1
EXTAP	40	96	5
EXSTR	40	144	1
NMSCR	40	144	1	96	72	3
NMSTR	40	144	5
NMSCL	40	144	5	96	72	3
CNSI_	40	312	3	0	72	7
CNSI_	40	312	3	0	72	7
NMSTR	41	192	5
NMSI_	41	192	5	96	48	3
NMSTR	41	192	7
NMSI_	41	192	7	96	48	3
NMTAP	42	0	2
NMTAP	42	96	0
NMTAP	42	96	1
NMTAP	42	144	0
NMTAP	42	144	1
NMHLD	42	240	6	96
NMHLD	42	336	7	96
NMTAP	43	48	5
NMTAP	43	96	5
NMTAP	43	192	4
NMTAP	43	192	5
NMTAP	43	288	3
NMTAP	43	288	4
NMTAP	44	0	2
NMTAP	44	0	3
NMTAP	44	48	2
NMTAP	44	48	3
BRTAP	44	144	0
BRTAP	44	144	7
NMTAP	44	240	4
NMTAP	44	240	5
NMTAP	44	288	4
NMTAP	44	288	5
NMHLD	45	0	6	96
NMTAP	45	96	4
NMTAP	45	144	4
NMSTR	45	240	6
NMSI_	45	240	6	96	48	2
NMSTR	45	240	7
NMSI_	45	240	7	96	48	2
NMSTR	46	48	0
NMSI_	46	48	0	96	48	5
NMSTR	46	48	1
NMSI_	46	48	1	96	48	5
NMSTR	46	240	6
NMSI_	46	240	6	96	48	2
NMSTR	46	240	7
NMSI_	46	240	7	96	48	2
NMTAP	47	48	1
NMTAP	47	96	1
NMTAP	47	144	0
NMSTR	47	240	0
NMSI_	47	240	0	96	48	4
NMSTR	47	240	1
NMSI_	47	240	1	96	48	4
NMSTR	48	48	6
NMSI_	48	48	6	96	48	3
NMSTR	48	48	7
NMSI_	48	48	7	96	48	3
NMSTR	48	240	0
NMSI_	48	240	0	96	48	4
NMSTR	48	240	1
NMSI_	48	240	1	96	48	4
NMTAP	49	48	6
NMTAP	49	48	7
NMTAP	49	144	0
NMSTR	49	192	0
NMSF_	49	192	0	96	144	4
NMTTP	50	192	0	C	1	M1
NMTTP	50	192	2	B	0	M1
NMTTP	50	192	3	B	0	M1
NMTTP	50	192	6	B	0	M1
NMTTP	50	192	7	B	0	M1
NMHLD	51	192	1	192
NMTTP	52	0	3	E	0	M1
NMTTP	52	0	3	A	0	M1
NMHLD	52	192	6	192
NMTTP	53	0	4	A	0	M1
NMTTP	53	0	5	E	0	M1
NMTTP	53	192	6	A	0	M1
NMTTP	53	192	7	A	0	M1
NMTTP	53	192	7	D	0	M1
NMTTP	53	288	0	A	0	M1
NMTTP	53	288	1	A	0	M1
NMTTP	53	288	1	D	0	M1
NMTTP	54	0	2	A	0	M1
NMTTP	54	0	3	A	0	M1
NMTTP	54	0	3	D	0	M1
NMTTP	54	96	4	A	0	M1
NMTTP	54	96	5	A	0	M1
NMTTP	54	96	5	D	0	M1
NMHLD	54	192	4	192
NMSTR	54	192	6
NMSV_	54	192	6	96	144	5
CNSI_	55	48	5	0	48	3
NMTTP	55	192	2	E	0	M1
NMTTP	55	240	2	B	0	M1
NMTTP	55	288	3	B	0	M1
NMTAP	56	0	5
NMTAP	56	96	5
NMTTP	56	192	6	E	0	M1
NMTTP	56	240	5	B	0	M1
NMTTP	56	288	4	B	0	M1
NMTAP	57	0	2
NMTAP	57	96	2
NMTTP	57	192	2	D	0	M1
NMTTP	57	240	3	D	0	M1
NMTTP	57	288	4	D	0	M1
NMTTP	57	336	5	D	0	M1
NMTTP	58	0	6	D	0	M1
NMTTP	58	48	7	D	0	M1
NMTTP	58	96	0	D	0	M1
NMTTP	58	144	1	D	0	M1
NMTHO	58	192	0	288	C	1	M1
NMTAP	59	192	0
NMTAP	59	192	1
NMTAP	59	288	0
NMTAP	59	288	7
NMTAP	60	0	6
NMTAP	60	0	7
NMTAP	60	96	0
NMTAP	60	96	7
NMTAP	60	192	0
NMSTR	60	192	1
NMSLR	60	192	1	96	96	5
EXTAP	61	0	6
BRTAP	61	96	6
BRTAP	61	96	7
NMTAP	61	192	1
NMTAP	61	240	1
NMTAP	61	288	0
NMTAP	62	0	6
NMTAP	62	48	6
NMTAP	62	96	7
NMHLD	62	192	1	96
NMSTR	62	288	0
NMSI_	62	288	0	96	48	4
NMHLD	63	192	5	96
NMTAP	63	288	4
NMHLD	64	0	3	96
NMTAP	64	96	4
NMHLD	64	192	5	96
NMTAP	64	288	3
NMHLD	65	0	2	96
NMTAP	65	96	3
NMHLD	65	192	4	96
NMTAP	65	288	0
NMTAP	66	0	1
NMTAP	66	0	7
NMSTR	66	96	1
NMSI_	66	96	1	96	96	5
NMSTR	66	96	7
NMSI_	66	96	7	96	96	3
NMTTP	67	0	0	C	1	M1
NMTTP	67	0	2	B	0	M1
NMTTP	67	0	6	B	0	M1
EXHLD	69	0	1	96
EXHLD	69	96	3	96
EXHLD	69	192	2	384
EXHLD	69	288	3	96
EXHLD	70	96	3	96
EXHLD	70	288	5	288
EXHLD	71	96	4	96
EXHLD	71	288	4	48
EXHLD	71	288	5	48
EXHLD	72	0	3	48
EXHLD	72	0	4	48
EXHLD	72	96	2	48
EXHLD	72	96	3	48
EXHLD	72	192	3	48
EXHLD	72	192	4	48
EXTAP	72	288	4
EXTAP	72	288	5
EXTAP	73	0	6
EXTAP	73	0	7
EXTAP	73	96	0
EXTAP	73	96	7
EXTAP	73	192	0
EXTAP	73	192	1
BXTAP	73	288	0
BXTAP	73	288	7
BXSTR	74	0	0
NMSI_	74	0	0	96	48	4
BXSTR	74	0	7
NMSI_	74	0	7	96	48	5
NMHLD	74	288	5	96
NMTAP	75	0	7
NMTAP	75	96	1
NMTAP	75	144	1
NMTAP	75	192	0
BXTAP	75	288	0
BXTAP	75	288	7
BXSTR	76	0	0
NMSI_	76	0	0	96	48	2
BXSTR	76	0	7
NMSI_	76	0	7	96	48	3
NMHLD	76	288	2	96
NMTAP	77	0	0
NMTAP	77	96	6
NMTAP	77	144	6
NMTAP	77	192	7
NMTAP	77	288	1
NMTAP	77	336	1
NMTAP	78	0	3
NMTAP	78	48	3
NMTAP	78	96	4
NMTAP	78	144	4
BRTAP	78	192	6
NMTAP	78	288	5
NMTAP	78	336	5
NMTAP	79	0	7
NMTAP	79	48	7
NMTAP	79	96	0
NMTAP	79	144	0
BRTAP	79	192	2
NMTAP	79	288	1
NMTAP	79	336	1
NMTAP	80	0	3
NMTAP	80	48	3
NMTAP	80	96	5
NMTAP	80	144	5
NMTAP	80	192	7
BRHLD	80	240	7	432
NMSTR	81	288	1
NMSI_	81	288	1	96	864	5
NMTAP	84	288	1
NMTAP	84	288	6
NMTAP	85	96	3
NMTAP	85	96	4
NMTAP	85	288	0
NMTAP	85	288	7
NMHLD	86	0	6	96
NMHLD	86	96	4	96
NMHLD	86	192	3	96
NMTAP	86	288	1
NMHLD	87	0	2	96
NMHLD	87	0	4	96
NMTAP	87	288	6
NMTAP	87	336	6
NMTAP	88	0	7
NMSTR	88	96	0
BRSI_	88	96	0	96	96	3
NMSTR	88	96	5
BRSI_	88	96	5	96	96	2
NMTAP	89	0	1
NMTAP	89	0	4
NMTAP	89	96	0
NMTAP	89	96	5
NMTAP	89	192	6
NMTAP	89	192	7
NMTAP	89	288	5
NMTAP	89	336	5
NMTAP	90	0	4
NMSTR	90	96	3
BRSI_	90	96	3	96	96	0
NMSTR	90	96	6
BRSI_	90	96	6	96	96	1
NMTAP	91	288	2
NMTAP	91	288	6
BXHLD	92	288	1	96
BXHLD	92	288	5	96
BXHLD	93	48	2	240
BXHLD	93	48	6	240
BRSTR	94	0	1
NMSI_	94	0	1	96	48	4
BRSTR	94	0	7
NMSI_	94	0	7	96	48	3
NMTAP	94	288	2
NMTAP	94	288	3
NMTAP	95	0	0
NMTAP	95	0	7
NMTAP	95	48	0
NMTAP	95	48	7
NMTAP	95	144	4
NMTAP	95	144	6
NMSTR	95	240	1
BRSI_	95	240	1	96	48	3
NMSTR	95	240	3
BRSI_	95	240	3	96	48	5
EXHLD	96	96	6	96
NMHLD	96	192	7	96
NMHLD	96	288	0	96
NMTAP	97	0	1
NMTAP	97	48	1
NMTAP	97	144	2
NMTAP	97	144	4
NMTAP	97	192	2
NMTAP	97	192	4
BXTAP	97	288	1
BXTAP	97	288	5
BXTAP	97	336	1
BXTAP	97	336	5
BXTAP	98	0	1
BXTAP	98	0	5
BXTAP	98	96	2
BXTAP	98	96	6
BXTAP	98	144	2
BXTAP	98	144	6
BXTAP	98	192	2
BXTAP	98	192	6
BXSTR	98	240	2
BRSI_	98	240	2	96	48	7
BXSTR	98	240	6
BRSI_	98	240	6	96	48	3
NMTAP	99	96	1
NMTAP	99	96	5
NMSTR	99	288	4
NMSI_	99	288	4	96	48	0
NMSTR	99	288	6
NMSI_	99	288	6	96	48	0
NMTAP	100	96	1
NMTAP	100	192	2
NMTAP	100	192	3
NMTAP	100	240	2
NMTAP	100	240	3
NMTAP	100	336	4
NMTAP	100	336	5
NMTAP	101	48	6
NMTAP	101	48	7
NMTAP	101	144	0
NMTAP	101	144	1
NMTAP	101	192	0
NMTAP	101	192	1
NMHLD	101	288	2	96
NMHLD	102	0	4	96
NMTAP	102	96	3
NMTAP	102	144	3
NMHLD	102	240	2	96
NMTAP	102	240	6
NMTAP	102	336	0
NMTAP	103	0	0
NMTAP	103	96	1
NMTAP	103	96	5
NMTAP	103	192	1
NMTAP	103	192	5
BRTAP	103	288	6
BRTAP	103	288	7
NMTAP	104	0	0
NMTAP	104	0	5
NMTAP	104	48	0
NMTAP	104	48	5
NMTAP	104	144	2
NMTAP	104	144	3
BRTAP	104	240	0
BRTAP	104	240	1
NMTAP	104	336	4
NMTAP	104	336	5
BRTAP	105	48	6
BRTAP	105	48	7
NMTAP	105	144	0
NMTAP	105	144	5
NMTAP	105	192	0
NMTAP	105	192	5
BRTAP	105	288	0
BRTAP	105	288	1
NMTAP	106	0	2
NMTAP	106	0	7
NMTAP	106	48	2
NMTAP	106	48	7
NMTAP	106	144	4
NMTAP	106	144	5
BRTAP	106	240	6
BRTAP	106	240	7
NMTAP	106	336	2
NMTAP	106	336	3
BRTAP	107	48	0
BRTAP	107	48	7
NMTAP	107	144	2
NMTAP	107	144	5
NMTAP	107	240	3
NMTAP	107	240	4
BRSTR	107	288	3
NMSXR	107	288	3	96	144	1
BRSTR	107	288	4
NMSXL	107	288	4	96	144	6
NMHLD	108	288	1	48
NMHLD	109	0	7	48
NMHLD	109	96	0	48
NMHLD	109	96	1	48
NMHLD	109	288	6	48
NMHLD	110	0	0	48
NMHLD	110	96	6	48
NMHLD	110	96	7	48
NMHLD	110	288	1	96
NMTAP	110	288	7
NMTAP	111	0	0
NMTAP	111	48	0
NMTAP	111	96	2
NMTAP	111	144	2
NMTAP	111	192	3
NMTAP	111	240	3
NMTAP	111	336	0
NMTAP	111	336	4
NMTAP	112	48	2
NMTAP	112	48	6
EXTAP	112	144	3
EXTAP	112	192	3
NMHLD	112	288	4	48
NMHLD	112	288	5	48
NMHLD	113	0	3	48
NMHLD	113	0	4	48
NMHLD	113	96	2	48
NMHLD	113	96	3	48
NMTAP	113	192	0
NMTAP	113	192	1
NMTAP	113	240	0
NMTAP	113	240	1
NMTAP	113	336	0
NMTAP	113	336	7
NMTAP	114	48	6
NMTAP	114	48	7
EXTAP	114	144	1
EXTAP	114	144	4
EXTAP	114	192	1
EXTAP	114	192	4
NMHLD	114	288	2	48
NMHLD	114	288	3	48
NMHLD	115	0	4	48
NMHLD	115	0	5	48
NMTAP	115	96	0
NMTAP	115	96	7
NMSTR	115	144	0
BRSI_	115	144	0	96	48	4
NMSTR	115	144	7
BRSI_	115	144	7	96	48	3

T_REC_TAP	284
T_REC_BRK	20
T_REC_XTP	36
T_REC_BXX	22
T_REC_HLD	70
T_REC_XHO	16
T_REC_BHO	1
T_REC_BXH	8
T_REC_STR	45
T_REC_BST	4
T_REC_XST	1
T_REC_XBS	6
T_REC_TTP	38
T_REC_THO	1
T_REC_SLD	46
T_REC_BSL	10
T_REC_ALL	608
T_NUM_TAP	404
T_NUM_BRK	71
T_NUM_HLD	87
T_NUM_SLD	46
T_NUM_ALL	608
T_JUDGE_TAP	456
T_JUDGE_HLD	218
T_JUDGE_SLD	56
T_JUDGE_ALL	730
TTM_EACHPAIRS	169
TTM_SCR_TAP	202000
TTM_SCR_BRK	184600
TTM_SCR_HLD	87000
TTM_SCR_SLD	69000
TTM_SCR_ALL	542600
TTM_SCR_S	519450
TTM_SCR_SS	535500
TTM_RAT_ACV	10132

