VERSION	0.00.00	1.05.00
FES_MODE	0
BPM_DEF	180.000	180.000	190.000	145.000
MET_DEF	4	4
RESOLUTION	384
CLK_DEF	384
COMPATIBLE_CODE	MA2

BPM	0	0	180.000
BPM	69	0	145.000
BPM	69	192	155.000
BPM	70	192	152.000
BPM	70	288	155.000
BPM	71	192	160.000
BPM	71	288	170.000
BPM	72	288	180.000
BPM	73	48	190.000
MET	0	0	4	4
MET	22	0	4	3
MET	27	96	4	5
MET	28	192	4	4
MET	68	192	4	2
MET	69	0	4	3
MET	69	288	4	4

NMTAP	2	0	3
NMTAP	2	192	3
NMTAP	3	0	2
NMTAP	3	192	2
NMTAP	4	0	1
NMTAP	4	192	1
NMTAP	5	0	0
NMTAP	5	0	7
NMTAP	5	192	0
NMTAP	5	192	7
NMTAP	6	0	7
NMTAP	6	192	7
NMTAP	7	0	6
NMTAP	7	192	6
NMTAP	8	0	5
NMTAP	8	192	5
NMTAP	9	0	3
NMTAP	9	0	4
NMHLD	10	0	5	192
NMTAP	10	192	4
NMHLD	11	0	6	192
NMTAP	11	192	7
NMHLD	12	0	1	192
NMTAP	12	192	0
NMHLD	13	0	2	192
NMTAP	13	192	3
NMTAP	14	0	3
NMTAP	14	96	3
NMTAP	14	192	2
NMTAP	15	0	1
NMTAP	15	96	1
NMTAP	15	192	0
NMTAP	16	0	7
NMTAP	16	96	7
NMTAP	16	192	6
NMTAP	17	0	5
NMTAP	17	96	5
NMTAP	17	192	4
NMTAP	17	192	5
NMTAP	18	0	4
NMTAP	18	96	4
NMTAP	18	192	5
NMTAP	19	0	6
NMTAP	19	96	6
NMTAP	19	192	7
NMTAP	20	0	0
NMTAP	20	96	0
NMTAP	20	192	1
NMTAP	21	0	2
NMTAP	21	96	2
NMTAP	21	192	2
NMTAP	21	192	3
NMSTR	22	0	1
NMSI_	22	0	1	96	192	4
NMSTR	23	192	6
NMSI_	23	192	6	96	192	3
NMSTR	25	0	2
NMSI_	25	0	2	96	192	7
NMSTR	26	192	6
NMSUL	26	192	6	96	480	3
NMTTP	28	192	1	B	0	L1
NMTTP	28	288	2	B	0	L1
NMTTP	29	0	3	B	0	L1
NMTTP	29	192	6	B	0	L1
NMTTP	29	288	5	B	0	L1
NMTTP	30	0	4	B	0	L1
NMTTP	30	192	1	B	0	L1
NMTTP	30	288	2	B	0	L1
NMTTP	31	0	3	B	0	L1
NMTTP	31	96	4	B	0	L1
NMTHO	31	192	0	384	C	1	L1
NMTAP	33	192	6
NMTAP	33	288	6
NMTAP	34	0	7
NMTAP	34	96	7
NMTAP	34	192	0
NMTAP	34	288	0
NMTAP	35	0	0
NMTAP	35	0	1
NMTAP	35	192	2
NMTAP	35	288	2
NMTAP	36	0	1
NMTAP	36	96	1
NMTAP	36	192	0
NMTAP	36	288	0
NMTAP	37	0	6
NMTAP	37	0	7
NMTAP	37	192	6
NMTAP	37	288	6
NMTAP	38	0	5
NMTAP	38	96	5
NMTAP	38	192	4
NMTAP	38	288	4
NMTAP	39	0	2
NMTAP	39	0	3
NMTAP	39	192	1
NMTAP	39	288	1
NMTAP	40	0	2
NMTAP	40	96	2
NMTAP	40	192	3
NMTAP	40	288	3
NMTAP	41	0	4
NMTAP	41	0	5
NMTAP	41	192	5
NMTAP	41	288	5
NMTAP	42	0	6
NMTAP	42	96	6
NMTAP	42	192	7
NMTAP	42	288	7
NMTAP	43	0	0
NMTAP	43	0	1
NMTAP	43	96	0
NMTAP	43	96	1
NMTAP	43	192	2
NMTAP	43	288	2
NMTAP	44	0	1
NMTAP	44	96	1
NMTAP	44	192	0
NMTAP	44	288	0
NMTAP	45	0	6
NMTAP	45	0	7
NMTAP	45	192	6
NMTAP	45	288	6
NMTAP	46	0	5
NMTAP	46	96	5
NMTAP	46	192	4
NMTAP	46	288	4
NMTAP	47	0	2
NMTAP	47	0	3
NMTAP	47	96	2
NMTAP	47	96	3
NMTAP	47	192	1
NMTAP	47	288	1
NMTAP	48	0	2
NMTAP	48	96	2
NMTAP	48	192	3
NMTAP	48	288	3
NMTAP	49	0	4
NMTAP	49	0	5
BXTAP	49	192	3
BXTAP	49	192	6
EXHLD	50	192	4	192
EXHLD	50	192	5	192
NMHLD	51	192	5	192
NMHLD	52	0	4	192
NMHLD	52	192	3	192
NMTAP	53	0	2
NMHLD	53	192	2	192
NMHLD	54	0	3	192
NMHLD	54	192	4	192
NMTAP	55	0	5
NMHLD	55	192	6	192
NMHLD	56	0	5	192
NMHLD	56	192	4	192
NMTAP	57	0	3
NMHLD	57	192	1	192
NMHLD	58	0	2	192
NMHLD	58	192	3	192
NMTAP	59	0	4
NMTAP	59	192	2
NMTAP	59	288	2
NMTAP	60	0	2
NMTAP	60	0	3
NMTAP	60	192	5
NMTAP	60	288	5
NMTAP	61	0	4
NMTAP	61	0	5
NMTAP	61	192	3
NMTAP	61	288	3
NMTAP	62	0	2
NMTAP	62	96	2
NMTAP	62	192	1
NMTAP	62	288	1
NMTAP	63	0	0
NMTAP	63	96	0
NMTAP	63	192	7
NMTAP	63	288	7
NMTAP	64	0	6
NMTAP	64	96	6
NMTAP	64	192	5
NMTAP	64	288	5
NMTAP	65	0	3
NMTAP	65	0	4
NMTAP	65	192	4
NMTAP	65	288	5
NMTAP	66	0	6
NMTAP	66	96	7
NMTAP	66	192	0
NMTAP	66	288	1
NMTAP	67	0	2
NMTAP	67	96	3
NMHLD	67	192	3	384
NMHLD	67	192	4	384
NMTTP	69	288	4	B	0	L1
NMTTP	69	288	5	B	0	L1
NMTTP	70	96	6	B	0	L1
NMTTP	70	96	7	B	0	L1
NMTTP	70	288	0	B	0	L1
NMTTP	70	288	1	B	0	L1
NMTTP	71	96	2	B	0	L1
NMTTP	71	96	3	B	0	L1
NMTHO	71	288	0	384	C	1	L1
EXTAP	73	288	6
EXTAP	73	288	7
EXTAP	74	96	6
EXTAP	74	96	7
NMTAP	74	288	5
NMTAP	75	0	5
NMTAP	75	96	5
EXTAP	75	288	3
EXTAP	75	288	4
EXTAP	76	96	3
EXTAP	76	96	4
NMTAP	76	288	2
NMTAP	77	0	2
NMTAP	77	96	2
EXTAP	77	288	0
EXTAP	77	288	1
EXTAP	78	96	0
EXTAP	78	96	1
NMTAP	78	288	2
NMTAP	79	0	2
NMTAP	79	96	2
NMHLD	79	288	3	336
NMHLD	79	288	4	336
EXSTR	81	288	2
NMSI_	81	288	2	96	192	5
NMSTR	82	288	6
NMSI_	82	288	6	96	192	3
NMSTR	83	288	1
NMSXR	83	288	1	96	480	4
NMSTR	85	288	5
NMSI_	85	288	5	96	192	0
NMSTR	86	288	1
NMSI_	86	288	1	96	192	5
NMSTR	87	288	6
NMSXL	87	288	6	96	480	3
NMSTR	89	288	3
NMSI_	89	288	3	96	288	0
NMSTR	89	288	4
NMSI_	89	288	4	96	288	7
NMTAP	91	288	1
NMTAP	92	0	1
NMTAP	92	96	0
NMTAP	92	96	1
NMTAP	92	192	0
NMTAP	92	192	1
NMTAP	92	288	7
NMTAP	93	0	7
NMTAP	93	96	6
NMTAP	93	96	7
NMTAP	93	288	5
NMTAP	94	0	5
NMTAP	94	96	6
NMTAP	94	96	7
NMTAP	94	192	6
NMTAP	94	192	7
NMTAP	94	288	0
NMTAP	95	0	0
NMTAP	95	96	0
NMTAP	95	96	1
NMTAP	95	288	1
NMTAP	96	0	1
NMTAP	96	96	2
NMTAP	96	96	3
NMTAP	96	192	2
NMTAP	96	192	3
NMTAP	96	288	4
NMTAP	97	0	4
NMTAP	97	96	4
NMTAP	97	96	5
NMTAP	97	288	6
NMTAP	98	0	6
NMTAP	98	96	4
NMTAP	98	96	5
NMTAP	98	192	4
NMTAP	98	192	5
NMTAP	98	288	3
NMTAP	99	0	3
NMTAP	99	96	2
NMTAP	99	96	3
NMTAP	99	288	2
NMTAP	99	336	2
NMTAP	100	0	2
NMTAP	100	96	0
NMTAP	100	96	1
NMTAP	100	192	0
NMTAP	100	192	1
NMTAP	100	288	7
NMTAP	100	336	7
NMTAP	101	0	7
NMTAP	101	96	6
NMTAP	101	96	7
NMTAP	101	192	6
NMTAP	101	192	7
NMTAP	101	288	5
NMTAP	101	336	5
NMTAP	102	0	5
NMTAP	102	96	6
NMTAP	102	96	7
NMTAP	102	192	6
NMTAP	102	192	7
NMTAP	102	288	0
NMTAP	102	336	0
NMTAP	103	0	0
NMTAP	103	96	0
NMTAP	103	96	1
NMTAP	103	288	1
NMTAP	103	336	1
NMTAP	104	0	1
NMTAP	104	96	2
NMTAP	104	96	3
NMTAP	104	192	2
NMTAP	104	192	3
NMTAP	104	288	4
NMTAP	104	336	4
NMTAP	105	0	4
NMTAP	105	96	4
NMTAP	105	96	5
NMTAP	105	192	4
NMTAP	105	192	5
NMTAP	105	288	6
NMTAP	105	336	6
NMTAP	106	0	6
NMTAP	106	96	4
NMTAP	106	96	5
NMTAP	106	192	4
NMTAP	106	192	5
NMTAP	106	288	3
NMTAP	106	336	3
NMTAP	107	0	3
NMTAP	107	96	2
NMTAP	107	96	3
BRTAP	107	288	1
BRTAP	107	288	4
NMTAP	108	288	2
NMTAP	109	0	2
NMTAP	109	96	2
NMTAP	109	96	3
NMTAP	109	288	5
NMTAP	110	0	5
NMTAP	110	96	4
NMTAP	110	96	5
NMTAP	110	288	4
NMTAP	111	0	5
NMTAP	111	96	6
NMTAP	111	192	7
NMTAP	111	288	0
NMTAP	112	0	1
NMTAP	112	96	2
NMTAP	112	96	3
NMTAP	112	288	4
NMTAP	113	0	4
NMTAP	113	96	4
NMTAP	113	96	5
NMTAP	113	288	3
NMTAP	114	0	3
NMTAP	114	96	2
NMTAP	114	96	3
NMTAP	114	288	3
NMTAP	114	288	4
NMTAP	115	0	3
NMTAP	115	0	4
NMHLD	115	96	2	144
NMHLD	115	96	5	144

T_REC_TAP	281
T_REC_BRK	2
T_REC_XTP	12
T_REC_BXX	2
T_REC_HLD	22
T_REC_XHO	2
T_REC_BHO	0
T_REC_BXH	0
T_REC_STR	11
T_REC_BST	0
T_REC_XST	1
T_REC_XBS	0
T_REC_TTP	18
T_REC_THO	2
T_REC_SLD	12
T_REC_BSL	0
T_REC_ALL	365
T_NUM_TAP	323
T_NUM_BRK	4
T_NUM_HLD	26
T_NUM_SLD	12
T_NUM_ALL	365
T_JUDGE_TAP	327
T_JUDGE_HLD	124
T_JUDGE_SLD	12
T_JUDGE_ALL	463
TTM_EACHPAIRS	64
TTM_SCR_TAP	161500
TTM_SCR_BRK	10400
TTM_SCR_HLD	26000
TTM_SCR_SLD	18000
TTM_SCR_ALL	215900
TTM_SCR_S	209050
TTM_SCR_SS	215500
TTM_RAT_ACV	10018

