VERSION	0.00.00	1.05.00
FES_MODE	0
BPM_DEF	195.000	195.000	195.000	195.000
MET_DEF	4	4
RESOLUTION	384
CLK_DEF	384
COMPATIBLE_CODE	MA2

BPM	0	0	195.000
MET	0	0	4	4

NMTAP	2	0	4
NMTAP	2	96	3
NMTAP	2	96	5
NMTAP	2	240	2
NMHLD	2	288	1	24
NMTAP	2	336	3
NMTAP	3	48	2
NMTAP	3	96	4
NMTAP	3	144	3
NMTAP	3	240	5
NMTAP	3	288	4
NMHLD	3	336	6	24
NMTAP	4	0	4
NMTAP	4	96	3
NMTAP	4	96	5
NMTAP	4	192	2
NMTAP	4	240	4
NMHLD	4	288	1	24
NMTAP	4	336	3
NMTAP	5	48	2
NMTAP	5	48	4
EXTAP	5	192	2
NMTAP	5	192	3
EXTAP	5	264	3
NMTAP	5	264	4
EXTAP	5	336	4
NMSTR	5	336	5
NMSI_	5	336	5	96	48	2
BXHLD	6	96	0	192
NMHLD	6	288	3	24
NMTAP	7	96	2
NMTAP	7	96	4
NMTAP	7	288	1
NMTAP	7	336	1
NMTAP	8	0	2
NMTAP	8	48	2
NMTAP	8	96	3
NMTAP	8	144	3
NMTAP	8	192	4
NMTAP	8	240	4
NMTAP	8	288	5
NMTAP	8	336	5
NMHLD	9	0	6	240
NMTAP	9	240	7
NMTAP	9	264	5
NMTAP	9	288	7
NMTAP	9	312	5
NMTAP	9	336	7
NMTAP	9	360	5
BRSTR	10	0	0
NMSI_	10	0	0	96	48	5
NMHLD	10	48	4	24
NMTAP	10	96	0
NMHLD	10	144	4	24
NMSTR	10	192	6
NMSI_	10	192	6	96	48	2
NMHLD	10	240	4	24
NMTAP	10	288	6
NMHLD	10	336	4	24
NMSTR	11	0	0
NMSCR	11	0	0	96	48	3
NMHLD	11	48	4	24
NMTAP	11	96	0
NMHLD	11	144	4	24
NMTAP	11	192	2
NMTAP	11	240	3
NMTAP	11	240	4
NMTAP	11	288	5
NMTAP	11	336	4
NMTAP	11	336	6
NMSTR	12	0	7
NMSI_	12	0	7	96	48	2
NMHLD	12	48	3	24
NMTAP	12	96	7
NMHLD	12	144	3	24
NMSTR	12	192	1
NMSI_	12	192	1	96	48	5
NMHLD	12	240	3	24
NMTAP	12	288	1
NMHLD	12	336	3	24
NMTAP	13	0	6
NMTAP	13	48	3
NMTAP	13	48	5
NMTAP	13	96	2
NMTAP	13	144	1
NMTAP	13	144	3
NMTAP	13	192	0
NMTAP	13	216	4
NMTAP	13	240	0
NMTAP	13	264	4
NMTAP	13	288	0
NMTAP	13	336	5
NMSTR	14	0	0
NMSI_	14	0	0	96	48	5
NMHLD	14	48	5	24
NMTAP	14	96	0
NMHLD	14	144	4	24
NMSTR	14	192	6
NMSI_	14	192	6	96	48	2
NMHLD	14	240	3	24
NMTAP	14	288	6
NMHLD	14	336	4	24
NMSTR	15	0	0
NMSCR	15	0	0	96	48	3
NMHLD	15	48	5	24
NMTAP	15	96	0
NMHLD	15	144	4	24
NMTAP	15	192	2
NMTAP	15	240	3
NMTAP	15	240	4
NMTAP	15	288	1
NMTAP	15	312	5
NMTAP	15	336	1
NMTAP	15	360	5
NMTAP	16	0	2
NMHLD	16	48	2	48
NMTAP	16	96	0
NMHLD	16	144	0	48
NMTAP	16	192	7
NMHLD	16	240	7	48
NMTAP	16	288	5
NMHLD	16	336	5	48
NMHLD	17	0	2	192
NMTAP	17	192	0
NMTAP	17	216	1
NMTAP	17	240	0
NMTAP	17	264	1
NMTAP	17	288	0
NMTAP	17	312	2
NMTAP	17	336	0
NMTAP	17	360	2
BRSTR	18	0	7
NMSI_	18	0	7	96	48	2
NMHLD	18	48	3	24
NMTAP	18	96	7
NMHLD	18	144	3	24
NMSTR	18	192	1
NMSI_	18	192	1	96	48	6
NMHLD	18	240	3	24
NMTAP	18	288	1
NMHLD	18	336	3	24
NMSTR	19	0	4
NMSCR	19	0	4	96	48	7
NMHLD	19	48	3	24
NMTAP	19	96	4
NMHLD	19	144	3	24
NMTAP	19	192	6
NMTAP	19	240	3
NMTAP	19	240	5
NMTAP	19	288	2
NMTAP	19	336	1
NMTAP	19	336	3
NMSTR	20	0	0
NMSI_	20	0	0	96	48	5
NMHLD	20	48	4	24
NMTAP	20	96	0
NMHLD	20	144	4	24
NMSTR	20	192	6
NMSCR	20	192	6	96	48	1
NMHLD	20	240	4	24
NMTAP	20	288	6
NMHLD	20	336	4	24
NMTAP	21	0	3
NMTAP	21	48	2
NMTAP	21	48	4
NMTAP	21	96	5
NMTAP	21	144	4
NMTAP	21	144	6
NMSTR	21	192	3
NMSI_	21	192	3	96	48	7
NMTAP	21	216	7
NMTAP	21	240	3
NMTAP	21	264	7
NMTAP	21	288	3
EXHLD	22	0	0	96
NMHLD	22	0	6	96
NMHLD	22	144	4	96
EXHLD	22	144	6	96
NMHLD	22	288	2	96
EXHLD	22	288	4	96
NMHLD	23	48	0	96
EXHLD	23	48	2	96
NMTAP	23	192	0
EXTAP	23	192	6
NMTAP	23	288	2
EXTAP	23	288	4
NMTAP	24	0	3
NMTAP	24	0	5
NMTAP	24	72	3
NMTAP	24	72	5
NMTAP	24	120	2
NMTAP	24	152	6
NMTAP	24	184	1
NMTAP	24	216	7
NMTAP	24	240	1
NMTAP	24	264	7
NMTAP	24	288	2
NMTAP	24	304	3
NMTAP	24	320	4
NMTAP	24	336	5
NMTAP	24	352	6
NMTAP	24	368	7
NMSTR	25	0	0
NMSSL	25	0	0	96	96	4
EXTAP	25	192	5
NMTAP	25	264	2
EXTAP	25	264	3
NMTAP	25	336	0
EXTAP	25	336	1
BRTAP	26	0	2
BRTAP	26	0	7
NMTAP	26	96	1
NMTAP	26	96	4
NMTAP	26	144	5
NMTAP	26	168	4
NMTAP	26	192	5
NMTAP	26	240	3
EXTAP	26	240	6
NMTAP	26	288	2
NMTAP	26	312	3
NMTAP	26	336	2
NMTAP	27	0	1
EXTAP	27	0	5
NMTAP	27	48	6
NMTAP	27	72	7
NMTAP	27	96	6
NMTAP	27	144	1
EXTAP	27	144	5
NMTAP	27	192	2
NMTAP	27	240	2
EXTAP	27	240	6
NMTAP	27	288	1
NMTAP	27	312	0
NMTAP	27	336	1
EXTAP	28	0	2
EXTAP	28	0	7
NMTAP	28	96	3
NMTAP	28	96	6
NMTAP	28	144	2
NMTAP	28	168	3
NMTAP	28	192	2
NMTAP	28	240	1
EXTAP	28	240	4
NMTAP	28	288	5
NMTAP	28	312	4
NMTAP	28	336	5
NMTAP	29	0	2
EXTAP	29	0	6
NMTAP	29	48	1
NMTAP	29	72	0
NMTAP	29	96	1
NMTAP	29	144	2
EXTAP	29	144	3
NMTAP	29	192	1
NMTAP	29	240	0
EXTAP	29	240	7
NMTAP	29	288	6
NMTAP	29	336	1
EXTAP	29	336	5
EXTAP	30	0	1
NMTAP	30	0	5
NMTAP	30	96	2
NMTAP	30	120	3
NMTAP	30	144	1
NMTAP	30	168	3
NMTAP	30	192	0
EXTAP	30	240	6
NMTAP	30	264	7
NMTAP	30	288	5
NMTAP	30	312	7
NMTAP	30	336	4
EXTAP	31	0	1
NMTAP	31	24	3
NMTAP	31	72	3
NMTAP	31	96	2
EXTAP	31	144	6
NMTAP	31	168	4
NMTAP	31	216	4
EXTAP	31	240	5
NMTAP	31	288	3
NMTAP	31	312	4
NMTAP	31	336	3
EXTAP	32	0	5
NMTAP	32	24	4
NMTAP	32	48	6
NMTAP	32	72	4
NMTAP	32	96	7
NMTAP	32	144	1
NMTAP	32	168	0
NMTAP	32	192	2
NMTAP	32	216	0
EXTAP	32	240	3
NMTAP	32	288	5
NMTAP	32	312	4
NMTAP	32	336	5
NMTAP	33	0	0
NMTAP	33	24	7
NMTAP	33	48	0
NMTAP	33	96	1
NMTAP	33	96	6
EXTAP	33	144	2
NMTAP	33	168	3
NMTAP	33	216	5
EXTAP	33	240	4
NMTAP	33	288	3
NMTAP	33	288	6
NMTAP	33	336	2
EXTAP	33	336	7
BXTAP	34	0	2
BRTAP	34	0	7
NMTAP	34	96	3
NMTAP	34	96	6
NMTAP	34	144	5
NMTAP	34	168	4
NMTAP	34	192	5
NMTAP	34	216	6
EXTAP	34	240	5
NMTAP	34	288	4
NMTAP	34	288	7
NMTAP	34	336	0
NMTAP	34	360	3
EXTAP	35	0	1
NMTAP	35	24	3
EXTAP	35	48	2
NMTAP	35	96	1
NMTAP	35	96	4
NMTAP	35	144	2
NMTAP	35	168	3
NMTAP	35	192	2
NMTAP	35	216	1
EXTAP	35	240	2
NMTAP	35	288	0
NMTAP	35	288	3
NMTAP	35	336	7
NMTAP	35	360	4
EXTAP	36	0	6
NMTAP	36	24	4
EXTAP	36	48	5
NMTAP	36	96	3
NMTAP	36	96	6
NMSTR	36	144	3
NMSLR	36	144	3	96	96	7
NMTAP	36	144	6
NMSTR	36	240	7
NMSLR	36	240	7	96	96	3
NMSTR	36	336	3
NMSCR	36	336	3	96	96	7
NMSTR	37	48	7
BRSCR	37	48	7	96	132	7
NMTTP	37	144	3	B	0	M1
NMTTP	37	144	4	B	0	M1
NMTTP	37	144	4	E	1	M1
NMTAP	37	288	0
NMTAP	37	300	1
NMTAP	37	312	2
NMTAP	37	324	3
NMTAP	37	336	4
NMTAP	37	348	5
NMTAP	37	360	6
NMTAP	37	372	7
BRTAP	38	0	0
NMTTP	38	144	1	E	0	M1
NMTTP	38	144	1	A	0	M1
NMTTP	38	288	7	E	0	M1
NMTTP	38	288	7	A	0	M1
NMTTP	39	48	3	E	0	M1
NMTTP	39	48	3	A	0	M1
NMTTP	39	192	6	E	0	M1
NMTTP	39	288	5	E	0	M1
NMTTP	40	0	4	E	0	M1
NMTTP	40	96	3	E	0	M1
NMTTP	40	192	2	E	0	M1
NMTAP	40	288	0
NMTAP	40	336	0
NMTAP	41	0	6
NMTAP	41	48	6
NMTAP	41	96	1
NMTAP	41	144	1
NMTAP	41	192	7
NMTAP	41	216	0
NMTAP	41	240	7
NMTAP	41	264	0
NMSTR	41	288	1
NMSI_	41	288	1	96	48	5
NMSTR	41	288	6
NMSI_	41	288	6	96	48	4
BRSTR	42	0	1
NMSCR	42	0	1	96	48	4
BRSTR	42	0	6
NMSCR	42	0	6	96	48	1
NMSTR	42	96	1
NMSLL	42	96	1	96	72	5
NMTAP	42	96	6
NMTAP	42	192	3
NMSTR	42	240	3
NMSI_	42	240	3	96	48	7
NMTAP	42	336	3
NMSTR	42	336	6
NMSI_	42	336	6	96	48	2
NMTAP	43	48	0
NMTAP	43	48	6
NMTAP	43	144	0
NMTAP	43	144	4
NMTAP	43	192	5
NMTAP	43	216	7
NMTAP	43	240	6
NMTAP	43	264	1
NMTAP	43	288	3
NMTAP	43	312	2
NMTAP	43	336	5
NMTAP	43	360	4
NMSTR	44	0	6
NMSUL	44	0	6	96	48	2
NMSTR	44	96	6
NMSCL	44	96	6	96	48	4
NMTAP	44	96	7
NMSTR	44	192	0
NMSCR	44	192	0	96	48	2
NMTAP	44	240	0
CNSI_	44	240	4	0	48	0
CNSI_	44	336	2	0	48	6
NMSTR	44	336	7
NMSF_	44	336	7	96	48	3
NMTAP	45	48	7
NMTAP	45	144	1
NMTAP	45	144	5
NMSTR	45	192	2
NMSV_	45	192	2	96	48	7
NMSTR	45	192	6
NMSI_	45	192	6	96	48	3
NMTAP	45	288	2
NMTAP	45	288	6
NMSTR	46	0	0
NMSCL	46	0	0	96	48	5
NMTAP	46	24	4
NMTAP	46	48	1
NMTAP	46	72	3
NMSTR	46	96	0
NMSLR	46	96	0	96	72	4
NMTAP	46	192	0
NMTAP	46	192	4
NMSTR	46	240	6
NMSI_	46	240	6	96	48	2
NMSTR	46	336	3
NMSI_	46	336	3	96	48	7
NMSTR	46	336	6
NMSCL	46	336	6	96	48	3
NMTAP	47	48	3
NMTAP	47	48	6
NMTAP	47	144	0
NMTAP	47	144	4
NMHLD	47	192	7	48
NMTAP	47	240	5
NMHLD	47	264	0	48
NMTAP	47	312	6
NMHLD	47	336	1	48
NMHLD	48	0	0	48
NMTAP	48	48	2
NMHLD	48	72	7	48
NMTAP	48	120	1
NMHLD	48	144	6	48
NMHLD	48	192	7	48
NMTAP	48	240	5
NMHLD	48	264	0	48
NMTAP	48	312	4
NMTAP	48	336	1
NMTAP	48	360	3
NMTAP	49	0	2
NMTAP	49	24	3
NMTAP	49	48	2
NMTAP	49	96	5
NMTAP	49	120	4
NMTAP	49	144	5
NMTAP	49	168	4
NMTAP	49	192	7
BRSTR	49	288	1
NMSI_	49	288	1	96	48	3
BRSTR	49	288	6
NMSI_	49	288	6	96	48	2
NMSTR	50	0	1
NMSCL	50	0	1	96	48	6
NMSTR	50	0	6
NMSCL	50	0	6	96	48	3
NMTAP	50	96	1
NMSTR	50	96	6
NMSLR	50	96	6	96	72	2
NMTAP	50	192	4
NMSTR	50	240	4
NMSI_	50	240	4	96	48	0
NMSTR	50	336	1
NMSI_	50	336	1	96	48	5
NMTAP	50	336	4
NMTAP	51	48	1
NMTAP	51	48	7
NMTAP	51	144	3
NMTAP	51	144	7
NMTAP	51	192	2
NMTAP	51	216	0
NMTAP	51	240	1
NMTAP	51	264	6
NMTAP	51	288	4
NMTAP	51	312	5
NMTAP	51	336	2
NMTAP	51	360	3
NMSTR	52	0	1
NMSUR	52	0	1	96	48	5
NMTAP	52	96	0
NMSTR	52	96	1
NMSCR	52	96	1	96	48	3
NMSTR	52	192	7
NMSCL	52	192	7	96	48	5
CNSI_	52	240	3	0	48	7
NMTAP	52	240	7
NMSTR	52	336	0
NMSF_	52	336	0	96	48	4
CNSI_	52	336	5	0	48	1
NMTAP	53	48	0
NMTAP	53	144	2
NMTAP	53	144	6
NMSTR	53	192	5
NMSI_	53	192	5	96	48	2
NMSTR	53	240	0
NMSI_	53	240	0	96	48	4
NMTAP	53	288	5
NMTAP	53	336	0
BRSTR	54	0	7
NMSCL	54	0	7	96	96	2
NMTAP	54	144	0
NMSTR	54	192	0
NMSI_	54	192	0	96	48	4
NMTAP	54	288	4
NMSTR	54	336	6
NMSI_	54	336	6	96	48	3
NMTAP	55	48	3
NMHLD	55	96	2	96
NMTAP	55	192	5
NMTAP	55	288	1
NMTAP	55	288	5
NMTAP	56	0	2
NMTAP	56	0	4
NMTAP	56	48	2
NMTAP	56	48	4
NMTAP	56	96	1
NMTAP	56	96	5
NMTAP	56	144	1
NMTAP	56	144	5
NMTAP	56	192	6
NMTAP	56	208	5
NMTAP	56	224	4
NMTAP	56	240	2
NMTAP	56	256	1
NMTAP	56	272	0
NMTAP	56	288	6
NMTAP	56	304	5
NMTAP	56	320	4
NMTAP	56	336	2
NMTAP	56	352	1
NMTAP	56	368	0
NMTAP	57	0	6
NMTAP	57	16	7
NMTAP	57	32	6
NMTAP	57	48	7
NMTAP	57	72	5
NMTAP	57	96	0
NMTAP	57	120	3
NMTAP	57	136	2
NMTAP	57	152	3
NMTAP	57	168	2
NMTAP	57	192	4
NMTAP	57	216	1
NMTAP	57	240	6
NMTAP	57	256	7
NMTAP	57	272	0
NMSTR	57	288	1
BRSI_	57	288	1	96	48	5
NMTAP	57	304	2
NMTAP	57	320	3
BXSTR	58	0	1
NMSCL	58	0	1	96	1248	2
NMTTP	58	12	1	B	1	M1
NMTTP	58	24	0	C	0	M1
NMTTP	58	36	5	B	0	M1
NMTTP	58	48	5	A	0	M1
NMHLD	62	0	2	192
NMHLD	62	192	3	192
NMHLD	63	0	4	192
NMTAP	63	192	5
NMTAP	63	288	4
NMTAP	63	288	5
NMTAP	64	0	2
NMTAP	64	96	2
NMTAP	64	96	3
NMTAP	64	192	4
NMTAP	64	240	4
NMTAP	64	288	2
NMTAP	64	336	2
NMTTP	65	0	5	A	0	M1
NMTTP	65	24	5	E	0	M1
NMTTP	65	48	4	E	0	M1
NMTTP	65	72	3	A	0	M1
NMTTP	65	96	6	E	0	M1
NMTTP	65	120	5	B	0	M1
NMTTP	65	144	3	B	0	M1
NMTTP	65	168	3	E	0	M1
NMTTP	65	192	6	A	0	M1
NMTTP	65	216	6	B	0	M1
NMTTP	65	240	2	B	0	M1
NMTTP	65	264	2	A	0	M1
BRTAP	65	288	0
NMSTR	66	0	1
NMSI_	66	0	1	96	48	3
NMSTR	66	48	3
NMSI_	66	48	3	96	48	5
NMSTR	66	96	5
NMSI_	66	96	5	96	48	7
NMSTR	66	144	7
NMSI_	66	144	7	96	48	1
NMSTR	66	240	3
NMSUR	66	240	3	96	48	7
NMTAP	66	288	3
NMTAP	66	336	2
NMSTR	67	48	1
NMSUR	67	48	1	96	48	5
NMTAP	67	96	1
NMTAP	67	144	0
NMTAP	67	240	6
NMTAP	67	288	4
NMTAP	67	336	3
NMSTR	68	0	1
NMSCL	68	0	1	96	48	7
NMSTR	68	48	7
NMSCL	68	48	7	96	48	5
NMSTR	68	96	5
NMSCL	68	96	5	96	48	3
NMSTR	68	144	3
NMSCL	68	144	3	96	48	1
NMSTR	68	240	7
NMSI_	68	240	7	96	48	1
NMHLD	68	288	7	336
CNSI_	69	0	1	0	72	6
CNSI_	69	72	6	0	48	2
CNSI_	69	120	2	0	72	5
CNSI_	69	192	5	0	48	3
NMSTR	69	288	2
NMSI_	69	288	2	96	48	7
NMTAP	69	336	2
NMSTR	70	0	6
NMSUL	70	0	6	96	48	2
NMTAP	70	48	6
NMSTR	70	96	0
NMSCL	70	96	0	96	48	5
NMTAP	70	144	0
NMSTR	70	192	4
NMSI_	70	192	4	96	48	0
NMTAP	70	240	4
NMTAP	70	288	3
NMHLD	70	336	3	96
NMTAP	71	48	7
NMTAP	71	72	2
NMTAP	71	96	6
NMTAP	71	120	1
NMTAP	71	144	5
NMTAP	71	168	0
NMTAP	71	192	4
NMTAP	71	216	1
NMTAP	71	240	5
NMTAP	71	264	2
NMTAP	71	288	6
NMTAP	71	312	3
NMTAP	71	336	7
NMTAP	72	0	3
NMTAP	72	0	7
NMTTP	72	48	7	E	0	M1
NMTTP	72	64	6	E	0	M1
NMTTP	72	80	5	E	0	M1
NMTTP	72	96	4	E	0	M1
NMTAP	72	144	0
NMTAP	72	144	6
NMTTP	72	192	1	D	0	M1
NMTTP	72	208	2	D	0	M1
NMTTP	72	224	3	D	0	M1
NMTTP	72	240	4	D	0	M1
NMTAP	72	288	7
NMTAP	72	336	7
NMTAP	72	348	0
NMTAP	72	348	6
NMTAP	72	360	1
NMTAP	72	360	5
NMTAP	72	372	2
NMTAP	72	372	4
NMSTR	73	0	3
NMSLL	73	0	3	96	96	6
NMSLR	73	0	3	96	96	0
EXTAP	73	240	1
EXTAP	73	240	5
EXTAP	73	288	1
EXTAP	73	288	5
BXSTR	74	0	7
NMSI_	74	0	7	96	32	1
NMTAP	74	48	1
EXTAP	74	96	3
NMSTR	74	96	7
NMSI_	74	96	7	96	48	4
CNSCR	74	128	1	0	16	2
NMTAP	74	144	4
EXTAP	74	192	3
NMSTR	74	192	7
NMSI_	74	192	7	96	48	2
NMTAP	74	240	1
EXTAP	74	288	3
NMSTR	74	288	7
NMSI_	74	288	7	96	32	5
NMTAP	74	336	4
EXTAP	75	0	3
NMSTR	75	0	7
NMSCR	75	0	7	96	48	2
CNSCL	75	32	5	0	16	4
NMTAP	75	48	1
EXTAP	75	96	3
NMSTR	75	96	7
NMSI_	75	96	7	96	48	3
NMTAP	75	144	4
EXHLD	75	192	1	96
NMTAP	75	192	7
EXTAP	75	288	4
NMTAP	75	312	4
NMTAP	75	336	2
NMTAP	75	360	3
EXSTR	76	0	0
NMSCL	76	0	0	96	32	7
NMTAP	76	48	5
NMSTR	76	96	0
NMSI_	76	96	0	96	48	3
EXTAP	76	96	4
CNSI_	76	128	7	0	16	5
NMTAP	76	144	3
NMSTR	76	192	0
NMSI_	76	192	0	96	48	5
EXTAP	76	192	4
NMTAP	76	240	6
NMSTR	76	288	0
NMSCR	76	288	0	96	32	1
EXTAP	76	288	4
EXTAP	76	336	3
NMSTR	77	0	0
NMSCL	77	0	0	96	48	5
EXTAP	77	0	4
CNSI_	77	32	1	0	16	3
NMTAP	77	48	6
NMSTR	77	96	0
NMSI_	77	96	0	96	48	4
EXTAP	77	96	4
NMTAP	77	144	3
NMTAP	77	192	0
EXHLD	77	192	6	96
EXTAP	77	288	3
NMTAP	77	312	2
NMTAP	77	336	1
NMTAP	77	360	0
EXSTR	78	0	6
NMSI_	78	0	6	96	48	2
NMTAP	78	0	7
NMTAP	78	48	5
EXSTR	78	96	0
NMSI_	78	96	0	96	48	5
NMTAP	78	96	6
NMTAP	78	144	1
NMTAP	78	192	0
EXSTR	78	192	3
NMSI_	78	192	3	96	48	7
NMTAP	78	240	4
EXSTR	78	288	2
NMSI_	78	288	2	96	48	6
NMTAP	78	288	3
NMTAP	78	336	1
NMTAP	79	0	2
EXSTR	79	0	5
NMSI_	79	0	5	96	48	0
NMTAP	79	48	4
EXSTR	79	96	3
NMSI_	79	96	3	96	48	7
NMTAP	79	96	5
NMTAP	79	144	4
NMTAP	79	192	3
EXTAP	79	192	7
NMHLD	79	240	6	24
EXTAP	79	288	0
NMTAP	79	312	1
NMTAP	79	336	2
NMTAP	79	360	3
NMSTR	80	0	4
NMSLL	80	0	4	96	72	0
NMTAP	80	48	4
NMTAP	80	96	7
NMTAP	80	120	6
NMTAP	80	144	5
NMTAP	80	168	4
NMSTR	80	192	3
NMSLR	80	192	3	96	72	7
NMTAP	80	240	3
NMTAP	80	288	0
NMTAP	80	312	1
NMTAP	80	336	2
NMTAP	80	360	3
NMHLD	81	0	4	96
NMTAP	81	96	0
BRTAP	81	144	2
BRTAP	81	144	6
BRTAP	81	240	0
BRTAP	81	240	4
BRTAP	81	336	1
BRTAP	81	336	5
EXTAP	82	48	6
NMTAP	82	72	3
NMTAP	82	96	4
NMTAP	82	120	3
EXTAP	82	144	7
NMTAP	82	168	2
NMTAP	82	192	3
NMTAP	82	216	2
EXTAP	82	240	0
NMTAP	82	264	3
NMTAP	82	288	4
NMTAP	82	312	3
EXTAP	82	336	7
NMTAP	82	360	4
NMTAP	83	0	5
NMTAP	83	24	4
EXTAP	83	48	6
NMTAP	83	72	3
NMTAP	83	96	4
NMTAP	83	120	3
EXTAP	83	144	7
NMTAP	83	168	2
NMTAP	83	192	6
NMTAP	83	216	1
NMTAP	83	240	5
NMTAP	83	264	0
NMTAP	83	288	6
NMTAP	83	304	7
NMTAP	83	320	6
NMTAP	83	336	7
NMTAP	84	0	0
NMTAP	84	0	5
EXTAP	84	48	1
NMTAP	84	72	4
NMTAP	84	96	3
NMTAP	84	120	4
EXTAP	84	144	0
NMTAP	84	168	5
NMTAP	84	192	4
NMTAP	84	216	5
EXTAP	84	240	7
NMTAP	84	264	4
NMTAP	84	288	3
NMTAP	84	312	4
EXTAP	84	336	0
NMTAP	84	360	3
NMTAP	85	0	2
NMTAP	85	24	3
EXTAP	85	48	1
NMTAP	85	72	4
NMTAP	85	96	3
NMTAP	85	120	4
EXTAP	85	144	0
NMTAP	85	168	5
NMTAP	85	192	1
NMTAP	85	216	6
NMTAP	85	240	2
NMTAP	85	264	7
NMTAP	85	288	1
NMTAP	85	304	0
NMTAP	85	320	1
NMTAP	85	336	0
NMTAP	86	0	2
NMTAP	86	0	7
NMTAP	86	48	0
NMTAP	86	48	1
NMTAP	86	64	2
NMTAP	86	64	7
NMTAP	86	80	3
NMTAP	86	80	6
NMHLD	86	96	4	48
NMHLD	86	96	5	48
NMTAP	86	192	6
NMTAP	86	216	7
NMTAP	86	240	6
NMTAP	86	288	0
NMTAP	86	288	5
NMTAP	86	336	6
NMTAP	86	336	7
NMTAP	86	352	0
NMTAP	86	352	5
NMTAP	86	368	1
NMTAP	86	368	4
NMHLD	87	0	2	48
NMHLD	87	0	3	48
NMTAP	87	96	1
NMTAP	87	120	0
NMHLD	87	144	2	48
NMTAP	87	192	6
NMTAP	87	216	7
NMHLD	87	240	5	48
NMTAP	87	288	6
NMTAP	87	304	7
NMTAP	87	320	0
NMTAP	87	336	1
NMTAP	87	352	2
NMTAP	87	368	3
NMHLD	88	0	4	48
NMHLD	88	0	5	48
NMHLD	88	72	6	48
NMHLD	88	72	7	48
NMTAP	88	144	2
NMTAP	88	144	3
NMHLD	88	192	2	48
NMHLD	88	192	3	48
NMHLD	88	264	0	48
NMHLD	88	264	1	48
NMTAP	88	336	4
NMTAP	88	336	5
BRTAP	89	0	6
BRTAP	89	24	4
BRTAP	89	48	0
BRTAP	89	72	2
BRHLD	89	96	5	96
NMTAP	89	192	4
NMTAP	89	208	3
NMTAP	89	224	2
NMTAP	89	240	1
NMTAP	89	256	0
NMTAP	89	272	7
NMTAP	89	288	5
NMTAP	89	300	4
NMTAP	89	312	3
NMTAP	89	324	2
NMTAP	89	336	1
NMTAP	89	348	0
NMTAP	89	360	7
NMTAP	89	372	6
BRSTR	90	0	1
NMSF_	90	0	1	96	672	5
BRTAP	90	0	5

T_REC_TAP	545
T_REC_BRK	16
T_REC_XTP	66
T_REC_BXX	1
T_REC_HLD	70
T_REC_XHO	6
T_REC_BHO	1
T_REC_BXH	1
T_REC_STR	76
T_REC_BST	8
T_REC_XST	7
T_REC_XBS	2
T_REC_TTP	38
T_REC_THO	0
T_REC_SLD	92
T_REC_BSL	2
T_REC_ALL	931
T_NUM_TAP	732
T_NUM_BRK	31
T_NUM_HLD	76
T_NUM_SLD	92
T_NUM_ALL	931
T_JUDGE_TAP	759
T_JUDGE_HLD	117
T_JUDGE_SLD	94
T_JUDGE_ALL	970
TTM_EACHPAIRS	126
TTM_SCR_TAP	366000
TTM_SCR_BRK	80600
TTM_SCR_HLD	76000
TTM_SCR_SLD	138000
TTM_SCR_ALL	660600
TTM_SCR_S	637800
TTM_SCR_SS	657500
TTM_RAT_ACV	10047

