VERSION	0.00.00	1.05.00
FES_MODE	0
BPM_DEF	195.000	195.000	195.000	195.000
MET_DEF	4	4
RESOLUTION	384
CLK_DEF	384
COMPATIBLE_CODE	MA2

BPM	0	0	195.000
MET	0	0	4	4

NMTAP	2	0	3
NMTAP	2	0	4
NMTAP	2	96	2
NMHLD	2	96	5	576
NMTAP	2	240	3
NMTAP	2	336	3
NMHLD	3	96	4	192
NMTAP	4	0	3
NMTAP	4	0	4
NMHLD	4	96	2	336
NMTAP	4	96	5
NMTAP	4	240	3
NMTAP	4	336	3
NMTAP	5	48	3
EXTAP	5	192	2
EXTAP	5	192	3
EXTAP	5	264	3
EXTAP	5	264	4
EXTAP	5	336	4
EXTAP	5	336	5
BXTAP	6	96	3
BXHLD	6	96	6	192
NMHLD	6	288	4	192
NMHLD	7	96	3	192
NMTAP	7	288	1
NMTAP	8	0	0
NMTAP	8	48	0
NMTAP	8	96	0
NMTAP	8	144	0
NMTAP	8	192	7
NMTAP	8	240	7
NMSTR	8	288	7
NMSSR	8	288	7	96	216	3
EXTAP	9	288	2
EXTAP	9	288	4
EXTAP	10	0	2
EXTAP	10	0	3
EXTAP	10	48	2
EXTAP	10	48	3
EXHLD	10	96	2	48
EXHLD	10	96	3	48
NMHLD	10	192	1	48
NMHLD	10	192	2	48
NMHLD	10	288	0	48
NMHLD	10	288	1	48
NMHLD	11	0	2	48
NMHLD	11	0	3	48
NMHLD	11	96	2	48
NMHLD	11	96	3	48
NMHLD	11	192	0	48
NMHLD	11	192	1	48
NMHLD	11	288	0	48
NMHLD	11	288	7	48
EXTAP	12	0	6
EXTAP	12	0	7
EXTAP	12	48	6
EXTAP	12	48	7
EXHLD	12	96	6	48
EXHLD	12	96	7	48
NMHLD	12	192	5	48
NMHLD	12	192	6	48
NMHLD	12	288	4	48
NMHLD	12	288	5	48
NMTAP	13	0	3
NMTAP	13	48	3
NMTAP	13	96	4
NMTAP	13	144	2
BXTAP	13	192	1
BXTAP	13	192	5
NMTAP	13	288	3
NMTAP	13	288	7
EXTAP	14	0	4
EXTAP	14	0	5
EXTAP	14	48	4
EXTAP	14	48	5
EXHLD	14	96	4	48
EXHLD	14	96	5	48
NMHLD	14	192	5	48
NMHLD	14	192	6	48
NMHLD	14	288	6	48
NMHLD	14	288	7	48
NMHLD	15	0	4	48
NMHLD	15	0	5	48
NMHLD	15	96	4	48
NMHLD	15	96	5	48
NMHLD	15	192	6	48
NMHLD	15	192	7	48
NMHLD	15	288	0	48
NMHLD	15	288	7	48
EXTAP	16	0	0
EXTAP	16	0	1
EXTAP	16	48	0
EXTAP	16	48	1
EXHLD	16	96	0	48
EXHLD	16	96	1	48
NMHLD	16	192	2	48
NMHLD	16	192	7	48
NMTAP	16	288	2
NMSTR	16	288	7
NMSI_	16	288	7	96	96	1
CNSI_	17	96	1	0	96	5
CNSI_	17	192	5	0	96	3
BXTAP	17	288	2
NMTAP	18	0	0
NMTAP	18	0	1
NMTAP	18	48	0
NMTAP	18	48	1
NMHLD	18	96	0	48
NMHLD	18	96	1	48
NMHLD	18	192	6	48
NMHLD	18	192	7	48
NMHLD	18	288	4	48
NMHLD	18	288	5	48
NMHLD	19	0	6	48
NMHLD	19	0	7	48
NMHLD	19	96	6	48
NMHLD	19	96	7	48
NMHLD	19	192	0	48
NMHLD	19	192	1	48
NMHLD	19	288	2	48
NMHLD	19	288	3	48
EXTAP	20	0	1
EXTAP	20	0	4
EXTAP	20	48	1
EXTAP	20	48	4
EXHLD	20	96	1	48
EXHLD	20	96	4	48
NMHLD	20	192	2	48
NMHLD	20	192	5	48
NMHLD	20	288	3	48
NMHLD	20	288	6	48
EXTAP	21	0	2
EXTAP	21	0	7
EXTAP	21	48	2
EXTAP	21	48	7
EXTAP	21	96	2
EXTAP	21	96	7
BRTAP	21	192	0
BRTAP	21	192	5
BRTAP	21	288	1
BRTAP	21	288	6
EXSTR	22	0	2
NMSI_	22	0	2	96	48	4
EXSTR	22	144	6
NMSI_	22	144	6	96	48	2
EXSTR	22	288	1
NMSI_	22	288	1	96	48	5
EXSTR	23	48	7
NMSI_	23	48	7	96	48	1
EXTAP	23	192	2
NMHLD	23	288	2	480
NMTHO	24	0	0	384	C	1	M1
NMTAP	25	192	0
NMTAP	25	192	7
NMTAP	25	264	1
NMTAP	25	264	6
NMTAP	25	336	2
NMTAP	25	336	5
BRTAP	26	0	2
BRTAP	26	0	5
NMTAP	26	96	0
NMTAP	26	96	1
NMTAP	26	192	6
NMTAP	26	192	7
NMTAP	26	288	3
NMTAP	26	288	5
NMTAP	27	0	1
NMTAP	27	0	2
NMTAP	27	96	0
NMTAP	27	96	7
NMSTR	27	192	6
NMSI_	27	192	6	96	48	4
NMSTR	27	192	7
NMSI_	27	192	7	96	48	3
NMTAP	28	0	0
NMTAP	28	0	1
NMTAP	28	96	2
NMTAP	28	96	7
NMTAP	28	144	2
NMTAP	28	144	7
NMTAP	28	240	3
NMTAP	28	240	6
NMTAP	28	336	1
NMTAP	28	336	4
NMTAP	29	48	2
NMTAP	29	48	3
NMSTR	29	96	2
NMSCL	29	96	2	96	96	7
NMSTR	29	96	3
NMSUL	29	96	3	96	96	6
EXTAP	30	0	4
EXTAP	30	0	5
NMTAP	30	96	7
NMSTR	30	144	7
NMSI_	30	144	7	96	48	3
NMTAP	30	240	0
NMSTR	30	288	0
NMSI_	30	288	0	96	48	4
NMTAP	31	0	6
NMSTR	31	48	6
NMSI_	31	48	6	96	48	2
NMTAP	31	144	0
NMTAP	31	192	0
NMTAP	31	288	1
NMTAP	31	288	3
NMTAP	32	0	2
NMTAP	32	48	3
NMTAP	32	96	4
NMHLD	32	144	5	96
NMHLD	32	240	7	96
NMHLD	32	336	0	96
NMTAP	33	48	1
NMTAP	33	96	2
NMTAP	33	96	7
NMTAP	33	192	4
NMTAP	33	192	5
NMTAP	33	240	4
NMTAP	33	240	5
NMTAP	33	288	4
NMTAP	33	288	5
BRTAP	34	0	3
BRTAP	34	0	6
NMTAP	34	96	0
NMTAP	34	96	7
NMTAP	34	192	1
NMTAP	34	192	2
NMTAP	34	288	3
NMTAP	34	288	5
NMTAP	35	0	6
NMTAP	35	0	7
NMTAP	35	96	0
NMTAP	35	96	1
NMSTR	35	192	2
NMSI_	35	192	2	96	48	4
NMSTR	35	192	7
NMSI_	35	192	7	96	48	5
EXTAP	36	0	3
EXTAP	36	0	6
NMTAP	36	96	1
NMTAP	36	96	4
NMTAP	36	144	1
NMTAP	36	144	4
NMTAP	36	240	2
NMTAP	36	240	5
NMTAP	36	336	0
NMTAP	36	336	7
NMSTR	37	48	0
NMSCL	37	48	0	96	96	5
NMSTR	37	48	1
NMSCR	37	48	1	96	96	4
NMHLD	38	0	4	192
NMSTR	38	0	5
NMSLR	38	0	5	96	144	1
NMSTR	39	0	2
NMSLL	39	0	2	96	144	6
NMHLD	39	0	3	192
NMTAP	40	0	4
NMTAP	40	0	5
NMTAP	40	96	5
NMTAP	40	96	6
NMTAP	40	192	6
NMTAP	40	192	7
NMTAP	40	288	0
NMTAP	40	288	7
NMTAP	41	0	1
NMTAP	41	0	6
NMTAP	41	48	1
NMTAP	41	48	6
NMSTR	41	96	1
NMSI_	41	96	1	96	48	3
NMSTR	41	96	6
NMSI_	41	96	6	96	48	4
BXTAP	41	288	2
BXTAP	41	288	5
NMTAP	42	0	0
NMSTR	42	0	1
NMSI_	42	0	1	96	48	4
NMSTR	42	96	7
NMSI_	42	96	7	96	48	2
NMTAP	42	192	5
NMHLD	42	240	5	96
NMHLD	42	336	3	96
NMHLD	43	48	1	96
NMTAP	43	144	0
EXTAP	43	192	0
EXTAP	43	192	1
EXTAP	43	264	0
EXTAP	43	264	7
EXTAP	43	336	6
EXTAP	43	336	7
EXSTR	44	0	6
NMSI_	44	0	6	96	48	3
EXTAP	44	0	7
NMSTR	44	96	0
NMSI_	44	96	0	96	48	5
NMTAP	44	192	2
NMHLD	44	240	2	96
NMHLD	44	336	4	96
NMHLD	45	48	6	96
NMTAP	45	144	7
NMSTR	45	192	7
BRSCR	45	192	7	96	48	2
BRTAP	45	288	4
EXTAP	46	0	3
EXTAP	46	0	5
EXTAP	46	48	3
EXTAP	46	48	5
EXTAP	46	96	3
EXTAP	46	96	5
NMTAP	46	192	6
NMHLD	46	240	6	96
NMHLD	46	336	4	96
NMHLD	47	48	3	96
NMTAP	47	144	1
BRSTR	47	192	0
NMSI_	47	192	0	96	48	5
BRSTR	47	192	1
NMSI_	47	192	1	96	48	4
BRSTR	48	0	6
NMSI_	48	0	6	96	48	3
BRSTR	48	0	7
NMSI_	48	0	7	96	48	2
BRSTR	48	192	0
NMSI_	48	192	0	96	48	5
BRSTR	48	192	1
NMSI_	48	192	1	96	48	4
BRTAP	49	0	6
BRTAP	49	0	7
NMTAP	49	96	0
NMTAP	49	120	7
NMTAP	49	144	0
NMTAP	49	168	7
NMTAP	49	192	0
BRTAP	49	288	2
BRTAP	49	288	4
NMTAP	50	0	0
NMSTR	50	0	1
NMSI_	50	0	1	96	48	4
NMSTR	50	96	7
NMSI_	50	96	7	96	48	2
NMTAP	50	192	5
NMHLD	50	240	5	96
NMHLD	50	336	3	96
NMHLD	51	48	1	96
NMTAP	51	144	0
EXTAP	51	192	0
EXTAP	51	192	1
EXTAP	51	264	0
EXTAP	51	264	7
EXTAP	51	336	6
EXTAP	51	336	7
EXSTR	52	0	6
NMSI_	52	0	6	96	48	3
EXTAP	52	0	7
NMSTR	52	96	0
NMSI_	52	96	0	96	48	5
NMTAP	52	192	2
NMHLD	52	240	2	96
NMHLD	52	336	4	96
NMHLD	53	48	6	96
NMTAP	53	144	7
NMSTR	53	192	7
BRSI_	53	192	7	96	48	2
BRSI_	53	192	7	96	48	4
EXTAP	54	0	1
EXTAP	54	0	5
NMTAP	54	96	2
NMTAP	54	144	2
NMTAP	54	192	3
NMTAP	54	288	2
NMTAP	54	288	6
NMTAP	55	0	5
NMTAP	55	48	5
NMTAP	55	96	4
NMTAP	55	192	1
NMTAP	55	192	5
NMTAP	55	288	2
NMTAP	55	288	6
NMTAP	56	0	0
NMTAP	56	0	4
NMTAP	56	48	1
NMTAP	56	72	3
NMTAP	56	96	1
NMTAP	56	120	3
NMTAP	56	144	1
NMTAP	56	168	3
NMTAP	56	192	1
NMTAP	56	216	3
NMTAP	56	240	1
NMTAP	56	264	3
BRTAP	56	288	2
NMTAP	57	0	1
NMTAP	57	24	7
NMTAP	57	48	1
NMTAP	57	72	7
NMTAP	57	96	1
NMTAP	57	120	7
NMTAP	57	144	1
NMTAP	57	168	7
NMTAP	57	192	0
NMTAP	57	216	6
NMTAP	57	240	0
NMTAP	57	264	6
BXSTR	57	288	0
NMSI_	57	288	0	96	192	2
CNSI_	58	192	2	0	192	4
CNSI_	59	0	4	0	192	6
NMSTR	60	0	7
NMSCL	60	0	7	96	672	1
NMHLD	62	0	0	768
NMTTP	62	192	0	E	0	M1
NMTTP	63	0	0	C	0	M1
NMTTP	63	192	4	E	0	M1
NMTAP	64	0	3
NMTAP	64	96	3
NMTAP	64	192	4
NMSTR	64	288	4
NMSSL	64	288	4	96	192	0
NMHLD	65	288	1	96
NMTAP	66	0	0
NMTAP	66	96	2
NMTAP	66	96	7
NMTAP	66	144	2
NMTAP	66	144	7
NMTAP	66	240	4
NMTAP	66	240	5
NMTAP	66	288	4
NMTAP	66	288	5
NMTAP	67	0	6
NMTAP	67	48	6
NMTAP	67	96	7
NMSTR	67	144	5
NMSI_	67	144	5	96	48	0
NMTAP	67	240	4
NMTAP	67	288	4
NMTAP	68	0	1
NMTAP	68	0	3
NMTAP	68	96	2
NMSTR	68	144	2
NMSI_	68	144	2	96	48	7
NMTAP	68	240	3
NMTAP	68	288	3
NMHLD	69	0	6	72
NMHLD	69	72	5	72
NMTAP	69	144	4
NMTAP	69	192	4
NMTAP	69	288	3
NMTAP	69	288	5
BRTAP	70	0	5
NMTAP	70	48	4
NMTAP	70	96	3
NMHLD	70	144	2	96
NMTAP	70	240	0
NMTAP	70	288	0
BRTAP	71	0	1
NMTAP	71	48	0
NMTAP	71	96	7
NMHLD	71	144	6	96
NMTAP	71	240	7
NMTAP	71	288	7
EXTAP	72	0	5
NMTAP	72	24	4
NMTAP	72	48	5
NMTAP	72	72	4
EXTAP	72	144	2
NMTAP	72	168	3
NMTAP	72	192	2
NMTAP	72	216	3
NMTAP	72	288	2
NMTAP	72	288	4
NMSTR	73	0	3
NMSF_	73	0	3	96	96	7
NMSTR	73	288	0
NMSI_	73	288	0	96	48	5
NMTAP	73	288	6
BXSTR	74	0	4
NMSI_	74	0	4	96	48	1
NMSTR	74	96	2
NMSI_	74	96	2	96	48	7
NMSTR	74	192	6
NMSI_	74	192	6	96	48	3
NMSTR	74	288	0
NMSI_	74	288	0	96	48	5
NMSTR	75	0	4
NMSI_	75	0	4	96	48	1
NMSTR	75	96	2
NMSI_	75	96	2	96	48	7
NMSTR	75	192	6
NMSI_	75	192	6	96	48	3
NMSTR	75	288	1
NMSI_	75	288	1	96	48	4
BXSTR	76	0	7
NMSI_	76	0	7	96	48	2
NMSTR	76	96	3
NMSI_	76	96	3	96	48	6
NMSTR	76	192	5
NMSI_	76	192	5	96	48	0
NMSTR	76	288	1
NMSI_	76	288	1	96	48	4
NMSTR	77	0	7
NMSI_	77	0	7	96	48	2
NMSTR	77	96	3
NMSI_	77	96	3	96	48	6
NMSTR	77	192	5
NMSI_	77	192	5	96	48	0
NMTAP	77	288	1
NMTAP	78	0	2
NMTAP	78	0	3
NMTAP	78	48	1
NMTAP	78	48	4
NMSTR	78	96	0
NMSCL	78	96	0	96	48	5
NMTAP	78	96	5
NMSTR	78	192	4
NMSI_	78	192	4	96	48	0
NMSTR	78	288	1
NMSCR	78	288	1	96	48	4
NMSTR	79	0	5
NMSI_	79	0	5	96	48	0
NMSTR	79	96	1
NMSI_	79	96	1	96	48	4
NMSTR	79	192	5
NMSCR	79	192	5	96	48	0
BRTAP	79	288	1
EXSTR	80	0	2
NMSI_	80	0	2	96	48	0
EXSTR	80	0	3
NMSI_	80	0	3	96	48	7
EXSTR	80	192	4
NMSI_	80	192	4	96	48	0
EXSTR	80	192	5
NMSI_	80	192	5	96	48	7
NMHLD	81	0	1	96
NMTAP	81	96	0
NMSTR	81	144	0
NMSCR	81	144	0	96	96	4
NMSUR	81	144	0	96	96	5
BRTAP	82	48	2
BRTAP	82	48	7
BRSTR	82	96	2
NMSI_	82	96	2	96	48	5
BRTAP	82	96	7
NMSTR	82	192	0
NMSI_	82	192	0	96	48	4
NMSTR	82	288	1
NMSI_	82	288	1	96	48	6
NMSTR	83	0	3
NMSI_	83	0	3	96	48	7
NMTAP	83	96	2
NMTAP	83	192	6
NMTAP	83	216	0
NMTAP	83	240	6
NMTAP	83	264	0
NMTAP	83	288	6
BRTAP	84	0	0
BRSTR	84	0	5
NMSI_	84	0	5	96	48	2
NMSTR	84	96	7
NMSI_	84	96	7	96	48	3
NMSTR	84	192	6
NMSI_	84	192	6	96	48	1
NMSTR	84	288	4
NMSI_	84	288	4	96	48	0
NMSTR	85	0	5
NMSCL	85	0	5	96	48	2
EXTAP	85	96	2
NMTAP	85	192	1
NMTAP	85	216	7
NMTAP	85	240	1
NMTAP	85	264	7
NMTAP	85	288	1
BRTAP	86	0	2
BRTAP	86	0	6
NMTAP	86	96	1
NMTAP	86	96	4
BRTAP	86	144	1
BRTAP	86	144	4
NMTAP	86	240	3
NMTAP	86	240	6
BRTAP	86	288	3
BRTAP	86	288	6
NMTAP	87	0	2
NMTAP	87	0	3
BRTAP	87	48	1
BRTAP	87	48	4
NMTAP	87	144	4
NMTAP	87	144	5
BRTAP	87	192	3
BRTAP	87	192	6
BRTAP	87	288	0
BRTAP	87	288	7
NMTAP	88	0	0
NMTAP	88	24	7
NMTAP	88	48	0
NMTAP	88	72	7
NMTAP	88	96	0
NMTAP	88	120	7
NMTAP	88	144	0
NMTAP	88	168	7
NMTAP	88	192	1
NMTAP	88	216	6
NMTAP	88	240	1
NMTAP	88	264	6
NMTAP	88	288	1
NMTAP	88	312	6
NMTAP	88	336	1
NMTAP	88	360	6
BRSTR	89	0	1
NMSI_	89	0	1	96	48	6
BXSTR	89	96	7
BRSCL	89	96	7	96	192	1
BXSTR	90	0	0
BRSSR	90	0	0	96	288	4
CNSCL	91	0	4	0	96	3
CNSSL	91	96	3	0	288	7

T_REC_TAP	244
T_REC_BRK	33
T_REC_XTP	64
T_REC_BXX	6
T_REC_HLD	81
T_REC_XHO	10
T_REC_BHO	0
T_REC_BXH	1
T_REC_STR	58
T_REC_BST	9
T_REC_XST	10
T_REC_XBS	5
T_REC_TTP	3
T_REC_THO	1
T_REC_SLD	79
T_REC_BSL	5
T_REC_ALL	609
T_NUM_TAP	379
T_NUM_BRK	59
T_NUM_HLD	92
T_NUM_SLD	79
T_NUM_ALL	609
T_JUDGE_TAP	432
T_JUDGE_HLD	183
T_JUDGE_SLD	84
T_JUDGE_ALL	699
TTM_EACHPAIRS	153
TTM_SCR_TAP	189500
TTM_SCR_BRK	153400
TTM_SCR_HLD	92000
TTM_SCR_SLD	118500
TTM_SCR_ALL	553400
TTM_SCR_S	531100
TTM_SCR_SS	547500
TTM_RAT_ACV	10107

