VERSION	0.00.00	1.05.00
FES_MODE	0
BPM_DEF	195.000	195.000	195.000	195.000
MET_DEF	4	4
RESOLUTION	384
CLK_DEF	384
COMPATIBLE_CODE	MA2

BPM	0	0	195.000
MET	0	0	4	4

NMTAP	2	0	4
NMTAP	2	192	4
NMTAP	3	0	5
NMTAP	3	192	5
NMTAP	4	0	6
NMTAP	4	192	6
NMTAP	5	0	0
NMTAP	5	0	7
NMTAP	5	192	0
NMTAP	5	192	7
NMTAP	6	0	0
NMTAP	6	192	0
NMTAP	7	0	1
NMTAP	7	192	1
NMTAP	8	0	2
NMTAP	8	192	2
NMTAP	9	0	3
NMTAP	9	0	4
NMTAP	10	0	3
NMTAP	10	96	3
NMTAP	10	192	2
NMTAP	11	0	1
NMTAP	11	96	1
NMTAP	11	192	0
NMTAP	12	0	7
NMTAP	12	96	7
NMTAP	12	192	6
NMTAP	13	0	5
NMTAP	13	96	5
NMTAP	13	192	4
NMTAP	13	192	5
NMTAP	14	0	4
NMTAP	14	96	4
NMTAP	14	192	5
NMTAP	15	0	6
NMTAP	15	96	6
NMTAP	15	192	7
NMTAP	16	0	0
NMTAP	16	96	0
NMTAP	16	192	1
NMTAP	17	0	2
NMTAP	17	96	2
NMTAP	17	192	2
NMTAP	17	192	3
NMTTP	18	0	1	B	0	L1
NMTTP	18	96	2	B	0	L1
NMTTP	18	192	3	B	0	L1
NMTTP	19	0	6	B	0	L1
NMTTP	19	96	5	B	0	L1
NMTTP	19	192	4	B	0	L1
NMTTP	20	0	1	B	0	L1
NMTTP	20	96	2	B	0	L1
NMTTP	20	192	3	B	0	L1
NMTTP	20	288	4	B	0	L1
NMTTP	21	0	0	C	0	L1
NMTTP	22	0	7	B	0	L1
NMTTP	22	96	6	B	0	L1
NMTTP	22	192	4	B	0	L1
NMTTP	22	192	5	B	0	L1
NMTTP	23	0	0	B	0	L1
NMTTP	23	96	1	B	0	L1
NMTTP	23	192	2	B	0	L1
NMTTP	23	192	3	B	0	L1
NMTTP	24	0	6	B	0	L1
NMTTP	24	96	5	B	0	L1
NMTTP	24	192	4	B	0	L1
NMTTP	24	288	3	B	0	L1
NMTTP	25	0	0	C	1	L1
NMTAP	26	0	6
NMTAP	26	96	6
NMTAP	26	192	6
NMTAP	26	192	7
NMTAP	27	0	5
NMTAP	27	96	5
NMTAP	27	192	4
NMTAP	27	192	5
NMTAP	28	0	3
NMTAP	28	96	3
NMTAP	28	192	2
NMTAP	28	192	3
NMTAP	29	0	0
NMTAP	29	0	1
NMTAP	29	96	0
NMTAP	29	96	1
NMTAP	29	192	0
NMTAP	29	192	1
NMTAP	30	0	1
NMTAP	30	96	1
NMTAP	30	192	0
NMTAP	30	192	1
NMTAP	31	0	2
NMTAP	31	96	2
NMTAP	31	192	2
NMTAP	31	192	3
NMTAP	32	0	4
NMTAP	32	96	4
NMTAP	32	192	4
NMTAP	32	192	5
NMTAP	33	0	6
NMTAP	33	0	7
NMTAP	33	96	6
NMTAP	33	96	7
NMTAP	33	192	6
NMTAP	33	192	7
NMHLD	34	0	5	192
NMHLD	34	192	4	192
NMHLD	35	0	3	192
NMTAP	35	192	2
NMHLD	36	0	2	192
NMHLD	36	192	3	192
NMHLD	37	0	4	192
NMTAP	37	192	5
NMHLD	38	0	6	192
NMHLD	38	192	5	192
NMHLD	39	0	4	192
NMTAP	39	192	3
NMHLD	40	0	1	192
NMHLD	40	192	2	192
NMHLD	41	0	3	192
NMTAP	41	192	4
NMTAP	42	0	2
NMTAP	42	96	2
NMTAP	42	192	1
NMTAP	42	288	1
NMTAP	43	0	0
NMTAP	43	96	0
NMTAP	43	192	6
NMTAP	43	192	7
NMTAP	44	0	5
NMTAP	44	96	5
NMTAP	44	192	6
NMTAP	44	288	6
NMTAP	45	0	7
NMTAP	45	96	7
NMTAP	45	192	0
NMTAP	45	192	1
NMTAP	46	0	1
NMTAP	46	96	1
NMTAP	46	192	2
NMTAP	46	288	2
NMTAP	47	0	3
NMTAP	47	96	3
NMTAP	47	192	4
NMTAP	47	192	5
NMTAP	48	0	6
NMTAP	48	96	6
NMTAP	48	192	5
NMTAP	48	288	5
NMTAP	49	0	4
NMTAP	49	96	4
BXTAP	49	192	2
BXTAP	49	192	3
NMTAP	50	0	2
NMTAP	50	96	2
NMTAP	50	192	0
NMTAP	50	192	1
NMTAP	50	288	0
NMTAP	50	288	1
NMTAP	51	0	7
NMTAP	51	96	7
NMTAP	51	192	6
NMTAP	51	192	7
NMTAP	52	0	5
NMTAP	52	96	5
NMTAP	52	192	6
NMTAP	52	192	7
NMTAP	52	288	6
NMTAP	52	288	7
NMTAP	53	0	0
NMTAP	53	96	0
NMTAP	53	192	0
NMTAP	53	192	1
NMTAP	54	0	1
NMTAP	54	96	1
NMTAP	54	192	2
NMTAP	54	192	3
NMTAP	54	288	2
NMTAP	54	288	3
NMTAP	55	0	4
NMTAP	55	96	4
NMTAP	55	192	4
NMTAP	55	192	5
NMTAP	56	0	6
NMTAP	56	96	6
NMTAP	56	192	4
NMTAP	56	192	5
NMTAP	56	288	4
NMTAP	56	288	5
NMTAP	57	0	3
NMTAP	57	96	3
NMTAP	57	192	2
NMTAP	57	192	3
NMSTR	58	0	1
NMSI_	58	0	1	96	192	4
NMSTR	59	0	6
NMSI_	59	0	6	96	192	3
NMSTR	60	0	1
NMSI_	60	0	1	96	192	5
NMTAP	61	0	6
NMTAP	61	192	6
NMTAP	61	192	7
NMSTR	62	0	6
NMSI_	62	0	6	96	192	3
NMSTR	63	0	2
NMSI_	63	0	2	96	192	7
NMSTR	64	0	6
NMSI_	64	0	6	96	192	2
NMTAP	65	0	1
NMTAP	65	192	0
NMTAP	65	192	1
NMTAP	66	0	2
NMTAP	66	96	2
NMTAP	66	192	2
NMTAP	66	192	3
NMTAP	66	288	2
NMTAP	66	288	3
NMTAP	67	0	1
NMTAP	67	96	1
NMTAP	67	192	0
NMTAP	67	192	1
NMTAP	67	288	0
NMTAP	67	288	1
NMTAP	68	0	7
NMTAP	68	96	7
NMTAP	68	192	6
NMTAP	68	192	7
NMTAP	68	288	6
NMTAP	68	288	7
NMTAP	69	0	4
NMTAP	69	0	5
NMTAP	69	96	4
NMTAP	69	96	5
NMTAP	69	192	4
NMTAP	69	192	5
NMTAP	70	0	5
NMTAP	70	96	5
NMTAP	70	192	4
NMTAP	70	192	5
NMTAP	70	288	4
NMTAP	70	288	5
NMTAP	71	0	6
NMTAP	71	96	6
NMTAP	71	192	6
NMTAP	71	192	7
NMTAP	71	288	6
NMTAP	71	288	7
NMTAP	72	0	0
NMTAP	72	96	0
NMTAP	72	192	0
NMTAP	72	192	1
NMTAP	72	288	0
NMTAP	72	288	1
NMTAP	73	0	2
NMTAP	73	0	3
NMTAP	73	96	2
NMTAP	73	96	3
NMTAP	73	192	2
NMTAP	73	192	3
NMTAP	74	0	2
NMTAP	74	48	2
NMTAP	74	96	2
NMTAP	74	192	1
NMTAP	74	240	1
NMTAP	74	288	1
NMTAP	75	0	0
NMTAP	75	48	0
NMTAP	75	96	0
NMTAP	75	192	6
NMTAP	75	192	7
NMTAP	76	0	5
NMTAP	76	48	5
NMTAP	76	96	5
NMTAP	76	192	6
NMTAP	76	240	6
NMTAP	76	288	6
NMTAP	77	0	7
NMTAP	77	48	7
NMTAP	77	96	7
NMTAP	77	192	0
NMTAP	77	192	1
NMTAP	78	0	1
NMTAP	78	48	1
NMTAP	78	96	1
NMTAP	78	192	2
NMTAP	78	240	2
NMTAP	78	288	2
NMTAP	79	0	3
NMTAP	79	48	3
NMTAP	79	96	3
NMTAP	79	192	4
NMTAP	79	192	5
NMTAP	80	0	6
NMTAP	80	48	6
NMTAP	80	96	6
NMTAP	80	192	5
NMTAP	80	240	5
NMTAP	80	288	5
NMTAP	81	0	4
NMTAP	81	48	4
NMTAP	81	96	4
NMTAP	81	192	2
NMTAP	81	192	3
NMTAP	82	0	2
NMTAP	82	48	2
NMTAP	82	96	2
NMTAP	82	192	0
NMTAP	82	192	1
NMTAP	82	240	0
NMTAP	82	240	1
NMTAP	82	288	0
NMTAP	82	288	1
NMTAP	83	0	7
NMTAP	83	48	7
NMTAP	83	96	7
NMTAP	83	192	6
NMTAP	83	192	7
NMTAP	84	0	5
NMTAP	84	48	5
NMTAP	84	96	5
NMTAP	84	192	6
NMTAP	84	192	7
NMTAP	84	240	6
NMTAP	84	240	7
NMTAP	84	288	6
NMTAP	84	288	7
NMTAP	85	0	0
NMTAP	85	48	0
NMTAP	85	96	0
NMTAP	85	192	0
NMTAP	85	192	1
NMTAP	86	0	1
NMTAP	86	48	1
NMTAP	86	96	1
NMTAP	86	192	2
NMTAP	86	192	3
NMTAP	86	240	2
NMTAP	86	240	3
NMTAP	86	288	2
NMTAP	86	288	3
NMTAP	87	0	4
NMTAP	87	48	4
NMTAP	87	96	4
NMTAP	87	192	4
NMTAP	87	192	5
NMTAP	88	0	6
NMTAP	88	48	6
NMTAP	88	96	6
NMTAP	88	192	4
NMTAP	88	192	5
NMTAP	88	240	4
NMTAP	88	240	5
NMTAP	88	288	4
NMTAP	88	288	5
NMTAP	89	0	3
NMTAP	89	48	3
NMTAP	89	96	3
NMTAP	89	192	2
NMTAP	89	192	3
BRTAP	90	0	1
BRTAP	90	0	4

T_REC_TAP	308
T_REC_BRK	2
T_REC_XTP	0
T_REC_BXX	2
T_REC_HLD	12
T_REC_XHO	0
T_REC_BHO	0
T_REC_BXH	0
T_REC_STR	6
T_REC_BST	0
T_REC_XST	0
T_REC_XBS	0
T_REC_TTP	24
T_REC_THO	0
T_REC_SLD	6
T_REC_BSL	0
T_REC_ALL	360
T_NUM_TAP	338
T_NUM_BRK	4
T_NUM_HLD	12
T_NUM_SLD	6
T_NUM_ALL	360
T_JUDGE_TAP	342
T_JUDGE_HLD	48
T_JUDGE_SLD	6
T_JUDGE_ALL	396
TTM_EACHPAIRS	74
TTM_SCR_TAP	169000
TTM_SCR_BRK	10400
TTM_SCR_HLD	12000
TTM_SCR_SLD	9000
TTM_SCR_ALL	200400
TTM_SCR_S	194000
TTM_SCR_SS	200000
TTM_RAT_ACV	10020

