VERSION	0.00.00	1.05.00
FES_MODE	0
BPM_DEF	180.000	180.000	180.000	180.000
MET_DEF	4	4
RESOLUTION	384
CLK_DEF	384
COMPATIBLE_CODE	MA2

BPM	0	0	180.000
MET	0	0	4	4

NMTAP	1	0	5
NMTAP	1	24	4
NMTAP	1	48	5
NMTAP	1	96	3
NMTAP	1	120	4
NMTAP	1	144	3
NMTAP	1	192	5
NMTAP	1	216	4
NMHLD	1	240	5	48
NMTAP	1	288	3
NMTAP	1	312	4
NMTAP	1	336	3
BXHLD	2	0	2	384
BXTAP	2	0	4
NMHLD	3	0	0	384
EXHLD	4	0	7	384
NMHLD	5	0	5	192
NMTAP	5	192	4
EXTAP	6	0	3
NMSTR	6	0	6
NMSI_	6	0	6	96	48	0
NMSTR	6	96	1
NMSI_	6	96	1	96	48	3
NMTAP	6	192	4
NMTAP	6	288	4
NMTAP	6	288	5
NMTAP	6	336	6
NMSTR	7	0	4
NMSI_	7	0	4	96	48	2
NMTAP	7	0	5
NMSTR	7	96	6
NMSI_	7	96	6	96	48	4
NMTAP	7	192	0
NMTAP	7	288	2
NMTAP	7	288	3
NMTAP	7	336	1
NMTAP	8	0	2
NMTAP	8	0	3
NMTAP	8	96	3
NMTAP	8	96	6
NMTAP	8	192	2
NMTAP	8	192	4
NMTAP	8	240	2
NMTAP	8	240	4
NMTAP	8	288	1
NMTAP	8	288	5
NMTAP	8	336	0
NMHLD	8	336	6	96
BRTAP	9	48	7
BRTAP	9	96	0
BRTAP	9	96	5
BRTAP	9	144	1
BRTAP	9	144	4
BRTAP	9	192	2
BRSTR	9	192	3
NMSI_	9	192	3	96	48	7
BRTAP	9	288	0
EXTAP	10	0	2
NMHLD	10	96	1	96
NMTAP	10	192	2
NMTAP	10	240	3
NMTAP	10	288	4
NMHLD	10	336	5	96
NMTAP	11	48	4
NMTAP	11	96	3
NMSTR	11	96	6
NMSCR	11	96	6	96	96	1
NMSTR	11	192	1
NMSCL	11	192	1	96	96	6
NMTAP	11	288	2
NMTAP	12	0	3
NMTAP	12	96	4
NMTAP	12	96	6
NMTAP	12	192	5
NMTAP	12	240	4
NMTAP	12	288	3
NMHLD	12	336	2	96
NMTAP	13	48	3
NMTAP	13	96	1
NMSTR	13	96	4
NMSUR	13	96	4	96	96	0
NMTAP	13	192	0
NMTAP	13	288	1
NMTAP	14	0	2
NMSTR	14	0	7
NMSI_	14	0	7	96	96	3
NMTAP	14	96	0
NMTAP	14	192	1
NMTAP	14	240	1
NMTAP	14	288	3
NMHLD	14	336	2	96
NMTAP	15	48	3
NMTAP	15	96	1
NMTAP	15	96	4
NMTAP	15	192	6
NMTAP	15	240	7
NMTAP	15	288	0
NMSTR	15	288	5
NMSCL	15	288	5	96	96	2
NMSTR	16	0	2
NMSCL	16	0	2	96	96	7
NMSTR	16	96	7
NMSCL	16	96	7	96	96	4
NMSTR	16	192	4
NMSCL	16	192	4	96	96	1
NMSTR	16	288	1
NMSXL	16	288	1	96	144	3
NMSXR	16	288	1	96	144	7
NMTAP	17	288	0
NMSTR	17	288	1
NMSCR	17	288	1	96	48	4
BRSTR	18	0	5
NMSI_	18	0	5	96	48	0
NMSI_	18	0	5	96	48	1
NMTAP	18	192	7
NMTAP	18	240	6
NMTAP	18	288	0
NMSTR	18	336	1
NMSI_	18	336	1	96	48	7
NMTAP	19	48	3
NMTAP	19	96	3
NMSTR	19	192	7
NMSI_	19	192	7	96	48	3
NMTAP	19	288	6
NMSTR	20	0	2
NMSI_	20	0	2	96	48	6
NMSI_	20	0	2	96	48	7
NMTAP	20	0	4
NMTAP	20	192	0
NMTAP	20	240	1
NMTAP	20	288	7
NMSTR	20	336	6
NMSI_	20	336	6	96	48	0
NMTAP	21	48	4
NMHLD	21	96	3	96
NMSTR	21	192	0
NMSI_	21	192	0	96	48	4
NMTAP	21	288	2
NMTAP	21	336	1
NMSTR	22	0	0
NMSI_	22	0	0	96	48	6
NMHLD	22	0	5	96
NMTAP	22	192	5
NMTAP	22	240	5
NMTAP	22	288	4
NMSTR	22	336	7
NMSUL	22	336	7	96	96	2
NMTAP	23	48	2
NMTAP	23	96	1
NMHLD	23	144	0	96
NMTAP	23	240	3
NMTAP	23	288	1
NMSTR	23	288	3
NMSCR	23	288	3	96	96	7
NMTAP	24	0	2
NMSTR	24	96	4
NMSCL	24	96	4	96	96	0
NMTAP	24	192	6
NMTAP	24	288	5
NMTAP	24	336	5
NMTAP	25	48	6
NMTAP	25	48	7
NMSTR	25	96	6
NMSI_	25	96	6	96	48	2
NMSTR	25	96	7
NMSI_	25	96	7	96	48	3
NMTAP	25	192	6
NMTAP	25	192	7
NMTAP	25	288	1
NMTAP	25	288	4
BRHLD	26	0	0	192
NMTAP	26	144	2
NMTAP	26	192	2
NMTAP	26	288	1
NMTAP	26	288	3
NMTAP	27	0	4
NMHLD	27	0	6	192
NMTAP	27	144	5
NMTAP	27	192	5
NMSTR	27	288	4
NMSCL	27	288	4	96	192	7
NMTAP	27	288	7
NMHLD	28	0	6	672
NMSTR	28	288	7
NMSI_	28	288	7	96	144	3
CNSCR	29	144	3	0	144	5
NMTAP	30	0	4
NMHLD	30	0	7	192
NMTAP	30	144	5
NMTAP	30	192	5
NMTAP	30	288	4
NMTAP	30	288	6
NMHLD	31	0	1	192
NMTAP	31	0	3
NMTAP	31	144	2
NMTAP	31	192	2
NMTAP	31	288	1
NMTAP	31	288	3
NMTAP	32	0	0
NMHLD	32	48	0	96
NMTAP	32	144	3
NMTAP	32	192	4
NMHLD	32	240	5	96
NMTAP	32	336	4
NMTAP	33	0	3
NMHLD	33	48	2	96
NMTAP	33	144	0
NMTAP	33	192	7
NMHLD	33	240	6	96
NMTAP	33	336	4
NMTAP	34	0	4
NMTAP	34	0	5
NMTAP	34	96	4
NMTAP	34	96	6
NMTAP	34	192	4
NMTAP	34	192	6
NMHLD	34	288	5	96
NMHLD	35	0	4	96
NMHLD	35	96	3	96
NMTAP	35	192	2
NMTAP	35	288	3
NMTAP	35	288	4
NMTAP	36	0	6
NMTAP	36	24	4
NMTAP	36	48	5
NMHLD	36	96	5	96
NMTAP	36	192	2
NMTAP	36	216	4
NMTAP	36	240	3
NMHLD	36	288	3	96
NMTAP	37	0	6
NMTAP	37	24	4
NMTAP	37	48	5
NMHLD	37	96	5	96
NMTAP	37	192	2
NMTAP	37	216	4
NMTAP	37	240	3
NMSTR	37	288	3
NMSCL	37	288	3	96	384	6
NMTAP	38	0	4
NMTAP	38	96	4
NMTAP	38	192	4
NMTAP	38	288	4
NMTAP	39	0	4
CNSUR	39	0	6	0	192	3
NMTAP	39	96	4
NMTAP	39	192	4
NMTAP	39	288	2
NMTAP	39	288	4
NMTAP	40	0	2
NMTAP	40	24	3
NMTAP	40	48	2
NMTAP	40	96	4
NMTAP	40	120	3
NMTAP	40	144	4
NMTAP	40	192	1
NMTAP	40	216	3
NMTAP	40	240	1
NMTAP	40	264	3
NMTAP	40	288	1
BRTAP	40	336	2
BRTAP	40	336	4
BRTAP	41	48	0
BRTAP	41	48	6
BRTAP	41	96	1
BRHLD	41	96	5	144
NMTAP	41	240	2
NMTAP	41	264	4
NMTTP	41	288	0	C	1	M1
NMSTR	42	0	1
NMSV_	42	0	1	96	48	4
NMSTR	42	0	7
NMSV_	42	0	7	96	48	4
NMTAP	42	96	1
NMTAP	42	96	7
NMTAP	42	192	0
NMSTR	42	192	6
NMSCL	42	192	6	96	48	3
NMTAP	42	288	2
NMSTR	42	336	1
NMSUR	42	336	1	96	48	5
NMTAP	43	48	5
NMSTR	43	96	6
BRSI_	43	96	6	96	48	2
NMTAP	43	192	2
NMTAP	43	192	6
NMSTR	43	288	0
NMSCR	43	288	0	96	48	3
NMTAP	43	288	4
NMTAP	44	0	0
NMSTR	44	0	6
NMSCL	44	0	6	96	48	3
NMTAP	44	96	6
NMTAP	44	96	7
NMHLD	44	192	0	96
NMTAP	44	288	2
NMSTR	44	336	3
NMSCR	44	336	3	96	48	6
NMTAP	45	48	1
NMSTR	45	96	1
NMSLR	45	96	1	96	96	7
BRTAP	45	192	7
NMSTR	45	288	6
NMSI_	45	288	6	96	48	3
NMSTR	46	0	0
NMSI_	46	0	0	96	48	4
NMTAP	46	0	6
NMTAP	46	96	0
NMSTR	46	96	5
NMSI_	46	96	5	96	48	0
NMTAP	46	192	3
NMTAP	46	192	5
NMSTR	46	288	1
BRSUR	46	288	1	96	96	5
NMTAP	46	336	1
NMTAP	47	48	0
NMTAP	47	96	0
CNSCL	47	96	5	0	96	2
BRTAP	47	192	7
NMTAP	47	288	1
NMTAP	47	288	4
NMTAP	48	0	2
NMTAP	48	24	3
NMTAP	48	48	2
NMTAP	48	96	7
NMTAP	48	120	0
NMTAP	48	144	7
NMTAP	48	192	5
NMTAP	48	216	4
NMTAP	48	240	5
NMTAP	48	288	1
NMTAP	48	312	0
NMTAP	48	336	1
NMSTR	49	0	6
NMSI_	49	0	6	96	48	2
NMSTR	49	48	0
NMSI_	49	48	0	96	48	4
NMTAP	49	96	6
NMTAP	49	144	0
NMSTR	49	192	7
NMSCL	49	192	7	96	48	4
NMSCR	49	192	7	96	48	2
BRTAP	49	288	7
EXSTR	50	0	3
NMSUL	50	0	3	96	48	7
NMSUR	50	0	3	96	48	7
NMTAP	50	96	3
NMTAP	50	192	0
NMSTR	50	192	6
NMSCL	50	192	6	96	48	3
NMTAP	50	288	2
NMSTR	50	336	1
NMSUR	50	336	1	96	48	5
NMTAP	51	48	6
NMSTR	51	96	7
NMSUL	51	96	7	96	48	3
NMSUR	51	96	7	96	48	3
NMTAP	51	192	7
NMSTR	51	288	0
NMSCR	51	288	0	96	48	3
NMTAP	51	288	6
NMTAP	52	0	0
NMSTR	52	0	5
NMSCR	52	0	5	96	48	0
NMTAP	52	96	4
NMTAP	52	96	5
NMHLD	52	192	1	96
NMTAP	52	288	2
NMSTR	52	336	3
NMSCR	52	336	3	96	48	6
NMTAP	53	48	2
NMSTR	53	96	1
NMSLR	53	96	1	96	96	7
BRTAP	53	192	7
NMSTR	53	288	6
NMSI_	53	288	6	96	48	3
NMSTR	54	0	0
NMSI_	54	0	0	96	48	4
NMTAP	54	0	6
NMTAP	54	96	0
NMSTR	54	96	5
NMSI_	54	96	5	96	48	0
NMTAP	54	192	3
NMTAP	54	192	5
NMSTR	54	288	1
BRSUR	54	288	1	96	96	5
NMTAP	54	336	1
NMTAP	55	48	0
NMTAP	55	96	0
CNSCL	55	96	5	0	96	2
BRTAP	55	192	7
NMTAP	55	288	3
NMTAP	55	288	6
NMTAP	56	0	5
NMTAP	56	24	4
NMTAP	56	48	5
NMTAP	56	96	2
NMTAP	56	120	3
NMTAP	56	144	2
NMTAP	56	192	7
NMTAP	56	216	0
NMTAP	56	240	7
NMTAP	56	264	0
NMTAP	56	288	6
NMTAP	56	312	1
NMHLD	56	336	6	96
NMTAP	57	48	7
NMTAP	57	96	4
NMTAP	57	96	5
NMTAP	57	144	2
NMTAP	57	144	3
NMSTR	57	192	0
NMSI_	57	192	0	96	48	3
NMSI_	57	192	0	96	48	5
NMTAP	57	192	1
BRTAP	57	288	0
NMTAP	58	0	6
NMTAP	58	48	6
NMTAP	58	96	3
NMTAP	58	144	5
NMTAP	58	192	4
NMSTR	58	240	4
NMSCL	58	240	4	96	48	2
NMTAP	58	336	5
NMTAP	59	48	0
NMTAP	59	96	7
NMTAP	59	144	1
NMTAP	59	192	3
NMSTR	59	240	3
NMSCR	59	240	3	96	48	5
NMTAP	59	336	2
NMTAP	60	48	0
NMTAP	60	96	7
NMTAP	60	144	4
NMTAP	60	192	6
NMSTR	60	240	6
NMSCR	60	240	6	96	48	0
NMTAP	60	336	3
NMTTP	61	48	2	E	0	M1
NMTTP	61	96	0	E	0	M1
NMTTP	61	144	3	E	0	M1
NMTTP	61	192	5	E	0	M1
NMTTP	61	240	0	C	0	M1
NMTTP	61	288	6	E	0	M1
NMTTP	61	336	0	E	0	M1
NMTAP	62	0	6
NMTAP	62	48	6
NMTAP	62	96	0
NMTAP	62	144	0
NMTAP	62	192	1
NMTAP	62	192	4
NMTAP	62	240	2
NMTAP	62	288	1
NMTAP	62	288	4
NMTAP	62	336	3
NMTAP	63	0	0
NMTAP	63	48	0
NMTAP	63	96	6
NMTAP	63	144	6
NMTAP	63	192	3
NMTAP	63	192	5
NMTAP	63	240	2
NMTAP	63	288	3
NMTAP	63	288	5
NMTAP	63	336	6
NMTAP	64	0	1
NMTAP	64	24	0
NMTAP	64	48	1
NMTAP	64	96	1
NMTAP	64	120	0
NMTAP	64	144	1
NMTAP	64	192	1
NMTAP	64	216	7
NMTAP	64	240	1
NMTAP	64	288	1
NMTAP	64	312	0
NMTAP	64	336	1
NMTAP	65	0	0
NMTAP	65	0	7
NMTAP	65	48	6
NMTAP	65	72	1
NMSTR	65	96	6
BRSCL	65	96	6	96	48	3
NMTAP	65	120	1
NMTAP	65	144	7
BXTAP	65	192	0
BXTAP	65	192	6
NMTAP	66	0	4
NMSTR	66	0	5
NMSLR	66	0	5	96	192	1
NMTAP	66	144	3
NMTAP	66	192	3
NMHLD	66	336	2	96
NMHLD	67	48	0	96
NMTAP	67	144	1
NMTAP	67	192	1
NMTAP	67	288	2
NMSTR	68	0	2
NMSLL	68	0	2	96	192	6
NMTAP	68	0	3
NMTAP	68	144	4
NMTAP	68	192	4
NMHLD	68	336	5	96
NMHLD	69	48	7	96
NMTAP	69	144	6
NMTAP	69	192	6
NMTAP	69	288	0
NMTAP	69	288	7
NMSTR	70	0	1
NMSLR	70	0	1	96	144	5
NMTAP	70	144	0
NMTAP	70	192	0
NMHLD	70	336	6	96
NMHLD	71	48	4	96
NMTAP	71	144	5
NMTAP	71	192	5
NMTAP	71	288	4
NMTAP	71	288	6
NMTAP	71	336	4
NMTAP	71	336	6
NMTAP	72	0	7
NMSTR	72	48	0
NMSCR	72	48	0	96	96	3
NMTAP	72	144	7
NMTAP	72	192	6
NMSTR	72	240	5
NMSCR	72	240	5	96	96	0
NMTAP	72	336	3
NMTAP	73	0	2
NMSTR	73	48	1
NMSCR	73	48	1	96	96	4
NMTAP	73	144	0
NMTAP	73	192	7
NMTAP	73	240	6
NMTAP	73	336	4
NMTAP	73	336	5
BXSTR	74	0	4
NMSI_	74	0	4	96	96	0
BRTAP	74	0	5
NMTAP	74	144	6
NMTAP	74	192	6
NMTAP	74	288	0
NMHLD	74	336	0	96
NMTAP	75	48	2
NMTAP	75	96	2
NMTAP	75	192	1
NMTAP	75	192	3
NMTAP	75	288	2
NMTAP	75	288	4
NMTAP	76	0	6
NMTAP	76	24	4
NMTAP	76	48	5
NMHLD	76	96	5	96
NMTAP	76	192	2
NMTAP	76	216	4
NMTAP	76	240	3
NMHLD	76	288	3	96
NMTAP	77	0	5
NMTAP	77	24	4
NMTAP	77	48	6
NMHLD	77	96	6	96
NMTAP	77	192	0
NMTAP	77	216	7
NMTAP	77	240	1
NMSTR	77	288	1
NMSCR	77	288	1	96	384	6
EXTAP	78	0	7
NMTAP	78	96	7
NMTAP	78	192	7
NMTAP	78	288	7
CNSUL	79	0	6	0	192	0
NMTAP	79	0	7
NMTAP	79	96	7
NMTAP	79	192	7
NMTAP	79	288	6
NMTAP	79	288	7
NMTAP	80	0	5
NMTAP	80	24	4
NMTAP	80	48	5
NMTAP	80	96	3
NMTAP	80	120	4
NMTAP	80	144	3
NMTAP	80	192	6
NMTAP	80	216	4
NMTAP	80	240	6
NMTAP	80	264	4
NMTAP	80	288	6
BRSTR	80	336	1
NMSI_	80	336	1	96	48	4
BRTAP	80	336	7
BXTAP	81	48	0
CNSI_	81	96	4	0	48	0
BXHLD	81	96	6	144
NMTAP	81	240	7
BXTAP	81	288	0
BXSTR	81	288	4
NMSF_	81	288	4	96	48	0
NMTTP	82	0	3	B	0	M1
NMTTP	82	0	4	B	0	M1
NMTTP	82	0	4	E	0	M1
NMTTP	82	0	4	A	1	M1
NMTTP	82	0	4	D	0	M1
NMTTP	82	0	5	B	0	M1
NMTTP	82	0	5	E	0	M1
NMTTP	82	0	5	D	0	M1
NMSTR	84	0	7
NMSCL	84	0	7	96	288	1
NMHLD	85	0	0	288
CNSI_	85	0	1	0	96	3
CNSI_	85	96	3	0	96	5
CNSI_	85	192	5	0	96	7
NMHLD	86	0	0	96
NMHLD	86	0	1	96
NMHLD	86	192	6	96
NMHLD	86	192	7	96
NMHLD	87	0	1	96
NMHLD	87	0	3	96
NMHLD	87	192	4	96
NMTAP	87	192	6
NMSTR	87	288	5
NMSCR	87	288	5	96	96	0
NMSTR	88	0	0
NMSCR	88	0	0	96	96	3
NMSTR	88	96	3
NMSCR	88	96	3	96	96	6
NMTAP	88	192	6
NMTAP	88	288	0
NMTAP	88	336	0
NMTAP	89	0	1
NMTAP	89	0	7
NMSTR	89	48	3
NMSI_	89	48	3	96	48	0
NMSTR	89	48	5
NMSI_	89	48	5	96	48	0
NMTAP	89	144	3
NMTAP	89	144	5
NMTAP	89	240	2
NMTAP	89	240	6
NMTAP	89	336	2
NMTAP	89	336	6
BRSTR	90	0	1
NMSI_	90	0	1	96	48	4
NMTAP	90	48	1
NMSTR	90	96	5
NMSI_	90	96	5	96	48	0
NMTAP	90	144	5
NMTAP	90	192	2
NMTAP	90	240	2
NMTAP	90	288	3
NMTAP	90	288	6
NMTAP	90	336	3
NMTAP	90	336	6
NMTAP	91	0	5
NMTAP	91	24	4
NMHLD	91	48	6	48
NMTAP	91	96	1
NMTAP	91	120	0
NMTAP	91	144	2
NMTAP	91	168	7
NMHLD	91	192	1	48
NMTAP	91	240	6
NMTAP	91	264	0
NMTAP	91	288	6
NMTAP	91	336	1
NMTAP	91	336	5
NMSTR	92	0	2
NMSI_	92	0	2	96	48	7
NMTAP	92	48	2
NMSTR	92	96	3
NMSI_	92	96	3	96	48	6
NMTAP	92	144	3
NMTAP	92	192	1
NMTAP	92	240	1
NMTAP	92	288	2
NMTAP	92	288	7
NMTAP	92	336	2
NMTAP	92	336	7
NMTAP	93	0	6
NMTAP	93	24	7
NMHLD	93	48	5	48
NMTAP	93	96	2
NMTAP	93	120	3
NMTAP	93	144	1
NMTAP	93	168	4
NMHLD	93	192	2	48
NMTAP	93	240	7
NMTAP	93	264	1
NMTAP	93	288	7
NMTAP	93	336	0
NMTAP	93	336	6
NMSTR	94	0	5
NMSCL	94	0	5	96	48	2
NMTAP	94	48	5
NMSTR	94	96	0
NMSI_	94	96	0	96	48	4
NMTAP	94	144	0
NMTAP	94	192	7
NMTAP	94	288	3
NMSTR	94	288	6
BRSUL	94	288	6	96	96	2
NMTAP	94	336	3
NMTAP	94	336	6
EXTAP	95	48	1
EXTAP	95	96	1
CNSCR	95	96	2	0	96	5
CNSUL	95	192	5	0	96	1
NMTAP	95	192	7
NMTAP	95	288	0
NMTAP	95	336	0
NMSTR	96	0	1
NMSLR	96	0	1	96	96	7
BRTAP	96	0	7
NMTAP	96	96	4
NMSTR	96	144	6
NMSLL	96	144	6	96	96	0
NMTAP	96	240	0
NMTAP	96	288	2
NMSTR	96	336	3
NMSI_	96	336	3	96	48	1
NMTAP	97	48	7
CNSI_	97	96	1	0	48	4
NMTAP	97	96	7
CNSCR	97	144	4	0	48	6
NMTAP	97	144	7
NMSTR	97	192	7
NMSV_	97	192	7	96	48	2
NMSV_	97	192	7	96	48	4
BRTAP	97	288	7
NMSTR	98	0	1
NMSCL	98	0	1	96	48	6
NMTAP	98	48	1
NMSTR	98	96	5
NMSI_	98	96	5	96	48	1
NMTAP	98	144	5
NMTAP	98	192	3
NMTAP	98	240	3
NMTAP	98	288	0
NMTAP	98	288	2
NMTAP	98	336	0
NMTAP	98	336	2
NMTAP	99	0	3
NMTAP	99	0	7
NMTAP	99	48	6
NMTAP	99	72	4
NMTAP	99	96	5
NMTAP	99	120	2
NMTAP	99	144	3
NMTAP	99	168	1
NMTAP	99	192	7
BRTAP	99	240	0
BRTAP	99	240	6
BRSTR	99	288	0
BRSI_	99	288	0	96	48	4
BRTAP	99	288	6
NMSTR	100	0	5
NMSCR	100	0	5	96	48	0
NMTAP	100	48	5
NMSTR	100	96	2
NMSI_	100	96	2	96	48	7
NMTAP	100	144	2
NMSTR	100	192	6
NMSCL	100	192	6	96	48	3
NMTAP	100	240	6
NMTAP	100	288	0
NMTAP	100	336	1
NMTAP	101	0	2
NMTAP	101	0	7
NMTAP	101	48	6
NMTAP	101	72	7
NMHLD	101	96	5	48
NMTAP	101	144	1
NMTAP	101	168	0
NMHLD	101	192	2	48
NMTAP	101	240	5
NMTAP	101	264	4
NMTAP	101	288	6
NMTAP	101	336	3
NMTAP	101	336	7
NMSTR	102	0	1
NMSCL	102	0	1	96	48	6
NMTAP	102	48	1
NMSTR	102	96	5
NMSI_	102	96	5	96	48	1
NMTAP	102	144	5
NMTAP	102	192	3
NMTAP	102	240	3
NMTAP	102	288	0
NMTAP	102	288	2
NMTAP	102	336	0
NMTAP	102	336	2
NMTAP	103	0	3
NMTAP	103	0	7
NMTAP	103	48	6
NMTAP	103	72	4
NMTAP	103	96	5
NMTAP	103	120	2
NMTAP	103	144	3
NMTAP	103	168	1
NMHLD	103	192	7	48
NMTAP	103	240	1
NMTAP	103	264	0
NMTAP	103	288	2
NMTAP	103	336	2
NMTAP	103	336	7
NMTAP	104	0	1
NMTAP	104	24	0
NMTAP	104	48	2
NMTAP	104	72	7
NMTAP	104	96	0
NMTAP	104	120	7
NMTAP	104	144	1
NMTAP	104	168	6
NMTAP	104	192	7
NMTAP	104	216	6
NMTAP	104	240	0
NMTAP	104	264	5
NMTAP	104	288	1
NMTAP	104	312	4
NMHLD	104	336	2	96
BRTAP	105	48	3
BRTAP	105	96	0
BRTAP	105	96	1
BRTAP	105	144	6
BRTAP	105	144	7
BRTAP	105	192	0
BRTAP	105	192	5
NMTAP	105	240	1
NMTAP	105	264	4
NMTAP	105	288	2
NMTAP	105	312	3
NMHLD	105	336	2	96
BRTAP	106	48	0
BRTAP	106	96	3
BRTAP	106	96	4
BRTAP	106	144	5
BRTAP	106	144	7
BRTAP	106	192	0
BRSTR	106	192	4
NMSF_	106	192	4	96	48	0
NMTTP	106	288	0	C	1	M1
NMTTP	106	288	2	B	0	M1
NMTTP	106	288	3	B	0	M1
NMTTP	106	288	4	B	0	M1
NMTTP	106	288	4	E	0	M1
NMTTP	106	288	5	B	0	M1
NMTTP	106	288	5	E	0	M1
NMTTP	106	288	6	B	0	M1

T_REC_TAP	496
T_REC_BRK	38
T_REC_XTP	5
T_REC_BXX	5
T_REC_HLD	55
T_REC_XHO	1
T_REC_BHO	2
T_REC_BXH	2
T_REC_STR	90
T_REC_BST	6
T_REC_XST	1
T_REC_XBS	2
T_REC_TTP	24
T_REC_THO	0
T_REC_SLD	101
T_REC_BSL	6
T_REC_ALL	834
T_NUM_TAP	616
T_NUM_BRK	61
T_NUM_HLD	56
T_NUM_SLD	101
T_NUM_ALL	834
T_JUDGE_TAP	667
T_JUDGE_HLD	158
T_JUDGE_SLD	107
T_JUDGE_ALL	932
TTM_EACHPAIRS	118
TTM_SCR_TAP	308000
TTM_SCR_BRK	158600
TTM_SCR_HLD	56000
TTM_SCR_SLD	151500
TTM_SCR_ALL	674100
TTM_SCR_S	648000
TTM_SCR_SS	668000
TTM_RAT_ACV	10091

