VERSION	0.00.00	1.05.00
FES_MODE	0
BPM_DEF	180.000	180.000	180.000	180.000
MET_DEF	4	4
RESOLUTION	384
CLK_DEF	384
COMPATIBLE_CODE	MA2

BPM	0	0	180.000
MET	0	0	4	4

NMTAP	2	0	1
NMSTR	2	0	3
NMSLR	2	0	3	96	192	7
NMSTR	3	0	4
NMSLL	3	0	4	96	192	0
NMTAP	3	0	6
NMTAP	4	0	1
NMSTR	4	0	3
NMSLR	4	0	3	96	192	7
NMSTR	5	0	4
NMSI_	5	0	4	96	96	0
NMTAP	5	0	6
NMTAP	5	288	1
NMTAP	5	288	7
NMTAP	6	0	6
NMTAP	6	96	6
NMTAP	6	192	6
NMTAP	6	192	7
NMTAP	6	288	0
NMTAP	6	288	5
NMTAP	7	0	1
NMTAP	7	96	1
NMTAP	7	192	0
NMTAP	7	192	1
NMTAP	7	288	2
NMTAP	7	288	7
NMTAP	8	0	6
NMTAP	8	96	6
NMTAP	8	192	6
NMTAP	8	192	7
NMTAP	8	288	0
NMTAP	8	288	5
NMTAP	8	336	0
NMTAP	8	336	5
NMTAP	9	48	1
NMTAP	9	96	1
NMTAP	9	192	2
NMTAP	9	192	3
BRTAP	9	288	0
BRTAP	9	288	4
NMHLD	10	0	5	288
NMTAP	10	192	4
NMTAP	10	288	4
NMTAP	11	0	3
NMSTR	11	0	6
NMSCR	11	0	6	96	192	1
NMHLD	12	0	2	288
NMTAP	12	192	3
NMTAP	12	288	3
NMSTR	13	0	1
NMSI_	13	0	1	96	96	4
NMTAP	13	0	4
NMSTR	13	192	5
NMSI_	13	192	5	96	96	0
NMHLD	14	0	1	288
NMTAP	14	192	0
NMTAP	14	288	0
NMSTR	15	0	7
NMSCL	15	0	7	96	192	4
NMSCR	15	0	7	96	192	2
NMTAP	16	0	3
NMTAP	16	96	2
NMTAP	16	96	4
NMTAP	16	192	1
NMTAP	16	288	1
NMTAP	16	288	3
NMSTR	17	0	3
NMSF_	17	0	3	96	192	7
NMTAP	18	0	1
NMTAP	18	96	1
NMTAP	18	96	3
NMTAP	18	192	6
NMTAP	18	288	4
NMTAP	18	288	6
NMTAP	19	0	1
NMTAP	19	48	1
NMTAP	19	96	0
NMTAP	19	192	6
NMTAP	19	240	6
NMTAP	19	288	7
NMHLD	20	0	1	96
NMTAP	20	96	3
NMHLD	20	192	6	96
NMTAP	20	288	4
NMTAP	21	0	4
NMTAP	21	0	5
NMTAP	21	96	3
NMTAP	21	96	6
NMTAP	21	192	2
NMTAP	21	192	3
NMTAP	21	288	1
NMTAP	21	288	4
NMTAP	22	0	5
NMTAP	22	96	4
NMTAP	22	96	6
NMTAP	22	192	2
NMTAP	22	240	2
NMTAP	22	288	1
NMTAP	22	288	3
NMTAP	23	0	6
NMTAP	23	96	5
NMTAP	23	96	7
NMTAP	23	192	1
NMTAP	23	240	1
NMTAP	23	288	0
NMTAP	23	288	2
NMTAP	24	0	4
NMTAP	24	0	5
NMTAP	24	96	3
NMTAP	24	96	7
NMTAP	24	192	2
NMTAP	24	192	3
NMTAP	24	288	0
NMTAP	24	288	4
NMTAP	25	0	6
NMTAP	25	0	7
NMTAP	25	96	6
NMTAP	25	96	7
BRTAP	25	192	0
BRTAP	25	192	5
NMSTR	26	0	7
NMSV_	26	0	7	96	192	4
NMSTR	27	0	7
NMSV_	27	0	7	96	192	2
NMSTR	28	0	0
NMSCR	28	0	0	96	384	7
NMTAP	29	192	0
NMTAP	29	192	7
NMSTR	30	0	7
NMSCL	30	0	7	96	192	4
NMSTR	31	0	0
NMSCR	31	0	0	96	192	3
NMTTP	32	0	5	B	0	M1
NMTTP	32	0	5	E	0	M1
NMTTP	32	192	7	B	0	M1
NMTTP	32	192	7	E	0	M1
NMTTP	33	0	1	B	0	M1
NMTTP	33	0	1	E	0	M1
NMTTP	33	192	3	B	0	M1
NMTTP	33	192	3	E	0	M1
EXHLD	34	0	5	384
NMTAP	34	192	4
NMTAP	34	288	3
NMHLD	35	0	2	192
NMTAP	35	192	3
NMTAP	35	288	3
NMTAP	35	288	4
NMHLD	36	0	6	192
NMHLD	36	192	7	192
NMHLD	37	0	0	192
NMHLD	37	192	1	288
NMTAP	38	0	0
NMTAP	38	96	0
NMHLD	38	192	2	96
NMHLD	38	192	7	96
NMHLD	39	0	1	96
NMHLD	39	0	6	96
NMHLD	39	192	0	96
NMHLD	39	192	5	96
NMTAP	40	0	6
NMTAP	40	0	7
NMTAP	40	96	4
NMTAP	40	96	5
NMTAP	40	192	2
NMTAP	40	192	3
NMTAP	40	288	1
NMHLD	40	336	1	144
NMTAP	41	48	0
NMTAP	41	96	0
EXTAP	41	288	2
EXTAP	41	288	7
NMTAP	42	0	4
NMTAP	42	0	5
NMTAP	42	96	6
NMTAP	42	96	7
NMTAP	42	192	0
NMTAP	42	192	1
NMTAP	42	288	2
NMTAP	42	288	3
NMTAP	42	336	2
NMTAP	42	336	3
NMTAP	43	48	4
NMTAP	43	48	5
NMSTR	43	96	4
NMSI_	43	96	4	96	96	1
NMSTR	43	96	5
NMSI_	43	96	5	96	96	2
NMTAP	44	0	2
NMTAP	44	0	3
NMTAP	44	96	0
NMTAP	44	96	1
NMTAP	44	192	6
NMTAP	44	192	7
NMTAP	44	288	4
NMTAP	44	288	5
NMTAP	44	336	4
NMTAP	44	336	5
NMTAP	45	48	2
NMTAP	45	48	3
NMSTR	45	96	2
NMSI_	45	96	2	96	96	7
NMSTR	45	96	3
NMSI_	45	96	3	96	96	7
NMTAP	46	0	0
NMTAP	46	0	1
NMTAP	46	96	2
NMTAP	46	96	3
NMTAP	46	192	4
NMTAP	46	192	5
NMTAP	46	288	6
NMHLD	46	336	6	144
NMTAP	47	48	7
NMTAP	47	96	7
NMTAP	47	192	0
NMTAP	47	192	5
NMHLD	47	288	1	96
NMHLD	48	0	3	96
NMHLD	48	96	4	96
NMSTR	48	192	6
NMSCL	48	192	6	96	192	1
NMTAP	49	192	0
NMTAP	49	192	7
BRTAP	49	288	0
BRTAP	49	288	7
NMTAP	50	0	6
NMTAP	50	0	7
NMTAP	50	96	4
NMTAP	50	96	5
NMTAP	50	192	2
NMTAP	50	192	3
NMTAP	50	288	0
NMTAP	50	288	1
NMTAP	50	336	0
NMTAP	50	336	1
NMTAP	51	48	6
NMTAP	51	48	7
NMSTR	51	96	6
NMSV_	51	96	6	96	96	3
NMSTR	51	96	7
NMSI_	51	96	7	96	96	3
NMTAP	52	0	4
NMTAP	52	0	5
NMTAP	52	96	6
NMTAP	52	96	7
NMTAP	52	192	0
NMTAP	52	192	1
NMTAP	52	288	2
NMTAP	52	288	3
NMTAP	52	336	2
NMTAP	52	336	3
NMTAP	53	48	4
NMTAP	53	48	5
NMSTR	53	96	4
NMSV_	53	96	4	96	96	1
NMSV_	53	96	4	96	96	7
NMTAP	53	96	5
NMTAP	54	0	0
NMTAP	54	0	6
NMTAP	54	96	4
NMTAP	54	96	5
NMTAP	54	192	2
NMTAP	54	192	3
NMTAP	54	288	0
NMTAP	54	288	1
NMSTR	54	336	0
NMSXL	54	336	0	96	240	0
NMSXR	54	336	0	96	240	0
NMTAP	54	336	1
EXTAP	56	0	1
EXTAP	56	0	7
NMTAP	56	96	4
NMTAP	56	96	6
NMTAP	56	144	4
NMTAP	56	144	6
NMTAP	56	240	1
NMTAP	56	288	1
NMTAP	56	336	3
NMTAP	57	48	2
NMTAP	57	96	3
NMTAP	57	144	4
NMTAP	57	192	5
NMTTP	57	288	3	B	0	M1
NMTTP	57	288	4	B	0	M1
NMTTP	57	288	4	E	1	M1
NMTAP	58	0	1
NMTAP	58	96	0
NMTAP	58	96	1
NMTAP	58	192	6
NMTAP	58	288	6
NMTAP	58	288	7
NMTAP	59	0	1
NMTAP	59	48	1
NMTAP	59	96	0
NMTAP	59	192	6
NMTAP	59	240	6
NMTAP	59	288	7
NMHLD	60	0	1	96
NMTAP	60	96	3
NMHLD	60	192	6	96
NMTAP	60	288	4
NMSTR	61	0	3
NMSCL	61	0	3	96	96	0
NMSTR	61	192	6
NMSCL	61	192	6	96	96	3
NMTAP	62	0	1
NMTAP	62	96	0
NMTAP	62	96	1
NMTAP	62	192	2
NMTAP	62	240	2
NMTAP	62	288	3
NMTAP	63	0	5
NMTAP	63	96	4
NMTAP	63	96	5
NMTAP	63	192	6
NMTAP	63	240	6
NMTAP	63	288	7
NMTAP	64	0	6
NMTAP	64	48	6
NMTAP	64	96	3
NMTAP	64	144	3
NMTAP	64	192	4
NMTAP	64	240	4
NMSTR	64	288	1
NMSI_	64	288	1	96	96	5
BRTAP	65	192	4
BRTAP	65	192	6
NMHLD	66	0	5	576
NMTAP	66	144	4
NMTAP	66	192	4
NMTTP	66	336	5	E	0	M1
NMTTP	67	48	6	E	0	M1
EXTAP	67	144	6
EXTAP	67	192	6
NMHLD	68	0	2	576
NMTAP	68	144	3
NMTAP	68	192	3
NMTTP	68	336	3	E	0	M1
NMTTP	69	48	2	E	0	M1
EXTAP	69	144	1
EXTAP	69	192	1
NMHLD	70	0	6	576
NMTAP	70	144	4
NMTAP	70	192	4
NMTTP	70	336	5	B	0	M1
NMTTP	71	48	6	B	0	M1
EXTAP	71	144	7
EXTAP	71	192	7
NMHLD	72	0	6	192
NMHLD	72	192	7	192
NMHLD	73	0	0	192
NMHLD	73	192	1	192
EXHLD	74	0	3	576
NMTAP	74	144	2
NMTAP	74	192	2
NMTTP	74	336	3	E	0	M1
NMTTP	75	48	4	E	0	M1
NMTAP	75	144	4
NMTAP	75	192	4
NMHLD	76	0	4	576
NMTAP	76	0	5
NMTAP	76	144	5
NMTAP	76	192	5
NMTTP	76	336	5	E	0	M1
NMTTP	77	48	4	E	0	M1
NMTAP	77	144	3
NMTAP	77	192	3
NMTAP	77	288	2
NMTAP	77	288	5
NMTAP	78	0	1
NMTAP	78	96	1
NMTAP	78	96	3
NMTAP	78	192	6
NMTAP	78	288	4
NMTAP	78	288	6
NMTAP	79	0	2
NMTAP	79	96	1
NMTAP	79	96	3
NMTAP	79	192	5
NMTAP	79	288	4
NMTAP	79	288	6
NMTAP	80	0	6
NMTAP	80	0	7
NMTAP	80	96	0
NMTAP	80	96	7
NMTAP	80	192	0
NMTAP	80	192	1
NMTAP	80	288	2
NMTAP	80	288	7
NMTAP	80	336	2
NMTAP	80	336	7
NMTAP	81	48	0
NMTAP	81	48	5
NMTAP	81	96	0
NMTAP	81	96	5
BRTAP	81	288	1
BRTAP	81	288	6
NMSTR	82	0	0
NMSV_	82	0	0	96	192	3
NMSTR	82	0	7
NMSLL	82	0	7	96	192	3
NMSTR	83	0	2
NMSCL	83	0	2	96	288	5
NMTAP	83	0	4
NMSTR	84	0	4
NMSCL	84	0	4	96	192	7
NMSUL	84	0	4	96	192	7
NMSTR	85	0	0
NMSCR	85	0	0	96	192	3
NMSTR	85	0	6
NMSCL	85	0	6	96	192	3
NMHLD	86	0	2	192
NMHLD	86	192	0	192
NMHLD	87	0	7	192
NMTAP	87	192	5
NMHLD	88	0	4	96
NMHLD	88	0	6	96
NMHLD	88	192	1	96
NMHLD	88	192	3	96
NMTAP	89	0	0
NMTAP	89	48	0
NMTAP	89	144	2
NMTAP	89	144	6
BRTAP	89	240	0
BRTAP	89	240	4
NMTAP	90	0	2
NMTAP	90	0	3
NMTAP	90	96	0
NMTAP	90	96	1
NMTAP	90	192	6
NMTAP	90	192	7
NMTAP	90	288	4
NMTAP	90	288	5
NMTAP	90	336	4
NMTAP	90	336	5
NMTAP	91	48	2
NMTAP	91	48	3
NMSTR	91	96	2
NMSCL	91	96	2	96	96	7
NMSTR	91	96	3
NMSUL	91	96	3	96	96	6
NMTAP	92	0	4
NMTAP	92	0	5
NMTAP	92	96	6
NMTAP	92	96	7
NMTAP	92	192	0
NMTAP	92	192	1
NMTAP	92	288	2
NMTAP	92	288	3
NMTAP	92	336	2
NMTAP	92	336	3
NMTAP	93	48	4
NMTAP	93	48	5
NMSTR	93	96	4
NMSI_	93	96	4	96	96	1
NMSTR	93	96	5
NMSI_	93	96	5	96	96	0
NMTAP	94	0	2
NMTAP	94	0	3
NMTAP	94	96	0
NMTAP	94	96	1
NMTAP	94	192	6
NMTAP	94	192	7
EXTAP	94	288	5
EXHLD	94	336	5	144
NMTAP	95	48	4
NMTAP	95	96	4
NMTAP	95	192	6
NMTAP	95	192	7
NMTAP	95	288	1
NMTAP	95	336	1
NMTAP	96	0	0
NMTAP	96	96	2
NMTAP	96	96	3
NMTAP	96	144	2
NMTAP	96	144	3
NMSTR	96	240	4
NMSXR	96	240	4	96	240	1
NMSTR	96	240	5
NMSXL	96	240	5	96	240	0
BRTAP	97	288	2
BRTAP	97	288	7
NMTAP	98	0	0
NMTAP	98	0	1
NMTAP	98	96	2
NMTAP	98	96	3
NMTAP	98	192	4
NMTAP	98	192	5
NMTAP	98	288	6
NMTAP	98	288	7
NMTAP	98	336	6
NMTAP	98	336	7
NMTAP	99	48	0
NMTAP	99	48	1
NMTAP	99	96	0
NMSTR	99	96	1
NMSUL	99	96	1	96	96	5
NMSUR	99	96	1	96	96	5
NMTAP	100	0	6
NMTAP	100	0	7
NMTAP	100	96	4
NMTAP	100	96	5
NMTAP	100	192	2
NMTAP	100	192	3
NMTAP	100	288	0
NMTAP	100	288	1
NMTAP	100	336	0
NMTAP	100	336	1
NMTAP	101	48	6
NMTAP	101	48	7
NMSTR	101	96	6
NMSI_	101	96	6	96	96	1
NMSI_	101	96	6	96	96	3
NMTAP	101	96	7
NMHLD	102	0	1	96
NMHLD	102	96	3	96
NMHLD	102	192	4	96
NMTAP	102	288	6
NMTAP	102	336	6
NMTAP	103	48	0
NMTAP	103	48	7
NMTAP	103	96	0
NMTAP	103	96	7
NMSTR	103	192	1
NMSI_	103	192	1	96	96	6
NMSTR	104	0	5
NMSXL	104	0	5	96	240	3
NMTAP	105	48	2
NMTAP	105	96	3
NMTAP	105	144	4
NMTAP	105	192	5
NMTAP	105	288	4
NMTAP	105	288	6
NMTAP	105	336	4
NMTAP	105	336	6
BXTAP	106	48	6
BXTAP	106	96	7
BXTAP	106	144	0
BXSTR	106	192	1
BRSI_	106	192	1	96	48	5

T_REC_TAP	354
T_REC_BRK	14
T_REC_XTP	11
T_REC_BXX	3
T_REC_HLD	41
T_REC_XHO	3
T_REC_BHO	0
T_REC_BXH	0
T_REC_STR	42
T_REC_BST	0
T_REC_XST	0
T_REC_XBS	1
T_REC_TTP	21
T_REC_THO	0
T_REC_SLD	48
T_REC_BSL	1
T_REC_ALL	539
T_NUM_TAP	428
T_NUM_BRK	19
T_NUM_HLD	44
T_NUM_SLD	48
T_NUM_ALL	539
T_JUDGE_TAP	446
T_JUDGE_HLD	185
T_JUDGE_SLD	49
T_JUDGE_ALL	680
TTM_EACHPAIRS	152
TTM_SCR_TAP	214000
TTM_SCR_BRK	49400
TTM_SCR_HLD	44000
TTM_SCR_SLD	72000
TTM_SCR_ALL	379400
TTM_SCR_S	366200
TTM_SCR_SS	377500
TTM_RAT_ACV	10050

