VERSION	0.00.00	1.05.00
FES_MODE	0
BPM_DEF	180.000	180.000	180.000	180.000
MET_DEF	4	4
RESOLUTION	384
CLK_DEF	384
COMPATIBLE_CODE	MA2

BPM	0	0	180.000
MET	0	0	4	4

NMTAP	2	0	2
NMTAP	2	96	2
NMTAP	2	192	2
NMTAP	3	0	1
NMTAP	3	96	1
NMTAP	3	192	1
NMTAP	4	0	0
NMTAP	4	96	0
NMTAP	4	192	0
NMTAP	5	0	6
NMTAP	5	0	7
NMTAP	5	192	6
NMTAP	5	192	7
NMTAP	6	0	5
NMTAP	6	96	5
NMTAP	6	192	5
NMTAP	7	0	6
NMTAP	7	96	6
NMTAP	7	192	6
NMTAP	8	0	7
NMTAP	8	96	7
NMTAP	8	192	7
NMTAP	9	0	0
NMTAP	9	0	1
NMTAP	9	192	0
NMTAP	9	192	1
NMHLD	10	0	1	192
NMTAP	10	192	0
NMTAP	11	0	1
NMTAP	11	96	1
NMTAP	11	192	0
NMTAP	11	192	1
NMHLD	12	0	2	192
NMTAP	12	192	3
NMTAP	13	0	2
NMTAP	13	96	2
NMTAP	13	192	2
NMTAP	13	192	3
NMHLD	14	0	5	192
NMTAP	14	192	4
NMTAP	15	0	5
NMTAP	15	96	5
NMTAP	15	192	4
NMTAP	15	192	5
NMHLD	16	0	6	192
NMTAP	16	192	7
NMTAP	17	0	6
NMTAP	17	0	7
NMTAP	18	0	7
NMTAP	18	96	7
NMTAP	18	192	6
NMTAP	19	0	5
NMTAP	19	96	5
NMTAP	19	192	4
NMTAP	20	0	3
NMTAP	20	96	3
NMTAP	20	192	2
NMTAP	21	0	1
NMTAP	21	96	1
NMTAP	21	192	0
NMTAP	21	192	1
NMTAP	22	0	0
NMTAP	22	96	0
NMTAP	22	192	1
NMTAP	23	0	2
NMTAP	23	96	2
NMTAP	23	192	3
NMTAP	24	0	4
NMTAP	24	96	4
NMTAP	24	192	5
NMTAP	25	0	6
NMTAP	25	96	6
BRTAP	25	192	6
BRTAP	25	192	7
NMSTR	26	0	5
NMSI_	26	0	5	96	192	2
NMSTR	27	0	1
NMSI_	27	0	1	96	192	4
NMSTR	28	0	6
NMSI_	28	0	6	96	192	3
NMSTR	29	0	2
NMSI_	29	0	2	96	192	7
NMSTR	30	0	6
NMSI_	30	0	6	96	192	2
NMSTR	31	0	0
NMSI_	31	0	0	96	192	4
NMTAP	32	0	5
NMTAP	32	192	4
NMTAP	32	192	5
NMTAP	33	0	3
NMTAP	33	192	3
NMTAP	33	192	4
NMHLD	34	0	2	192
NMHLD	34	192	3	192
NMHLD	35	0	4	192
NMTAP	35	192	5
NMHLD	36	0	5	192
NMHLD	36	192	4	192
NMHLD	37	0	3	192
NMTAP	37	192	2
NMHLD	38	0	1	192
NMHLD	38	192	2	192
NMHLD	39	0	3	192
NMTAP	39	192	4
NMHLD	40	0	6	192
NMHLD	40	192	5	192
NMHLD	41	0	4	192
NMTAP	41	192	3
NMTAP	42	0	5
NMTAP	42	96	5
NMTAP	42	192	6
NMTAP	42	288	6
NMTAP	43	0	7
NMTAP	43	96	7
NMTAP	43	192	0
NMTAP	43	192	1
NMTAP	44	0	2
NMTAP	44	96	2
NMTAP	44	192	1
NMTAP	44	288	1
NMTAP	45	0	0
NMTAP	45	96	0
NMTAP	45	192	6
NMTAP	45	192	7
NMTAP	46	0	6
NMTAP	46	96	6
NMTAP	46	192	5
NMTAP	46	288	5
NMTAP	47	0	4
NMTAP	47	96	4
NMTAP	47	192	2
NMTAP	47	192	3
NMTAP	48	0	1
NMTAP	48	96	1
NMTAP	48	192	2
NMTAP	48	288	2
NMTAP	49	0	3
NMTAP	49	96	3
NMTAP	49	192	4
NMTAP	49	192	5
NMTAP	50	0	5
NMTAP	50	96	5
NMTAP	50	192	6
NMTAP	50	288	6
NMTAP	51	0	7
NMTAP	51	96	7
NMTAP	51	192	0
NMTAP	51	192	1
NMTAP	52	0	2
NMTAP	52	96	2
NMTAP	52	192	1
NMTAP	52	288	1
NMTAP	53	0	0
NMTAP	53	96	0
NMTAP	53	192	6
NMTAP	53	192	7
NMTAP	54	0	6
NMTAP	54	96	6
NMTAP	54	192	5
NMTAP	54	288	5
NMTAP	55	0	4
NMTAP	55	96	4
NMTAP	55	192	2
NMTAP	55	192	3
NMTAP	56	0	1
NMTAP	56	96	1
NMTAP	56	192	2
NMTAP	56	288	2
NMTAP	57	0	3
NMTAP	57	96	3
BXTAP	57	192	4
BXTAP	57	192	5
NMTAP	58	0	3
NMTAP	58	96	2
NMTAP	58	192	1
NMTAP	58	288	0
NMTAP	59	0	7
NMTAP	59	96	6
NMTAP	59	192	4
NMTAP	59	192	5
NMTAP	60	0	4
NMTAP	60	96	5
NMTAP	60	192	6
NMTAP	60	288	7
NMTAP	61	0	0
NMTAP	61	96	1
NMTAP	61	192	2
NMTAP	61	192	3
NMTAP	62	0	3
NMTAP	62	96	2
NMTAP	62	192	1
NMTAP	62	288	0
NMTAP	63	0	7
NMTAP	63	96	6
NMTAP	63	192	5
NMTAP	63	288	4
NMTAP	64	0	3
NMTAP	64	96	2
NMTAP	64	192	1
NMTAP	64	288	0
NMTAP	65	0	0
NMTAP	65	0	7
NMTAP	65	96	0
NMTAP	65	96	7
NMTAP	65	192	1
NMTAP	65	192	6
NMSTR	66	0	0
NMSI_	66	0	0	96	192	3
NMSTR	67	0	4
NMSI_	67	0	4	96	192	7
NMSTR	68	0	1
NMSI_	68	0	1	96	192	5
NMSTR	69	0	6
NMSI_	69	0	6	96	192	3
NMSTR	70	0	2
NMSI_	70	0	2	96	192	7
NMSTR	71	0	6
NMSI_	71	0	6	96	192	2
NMTAP	72	0	1
NMTAP	72	192	0
NMTAP	72	192	1
NMTAP	73	0	7
NMTAP	73	192	0
NMTAP	73	192	7
NMTAP	74	0	6
NMTAP	74	96	6
NMTAP	74	192	6
NMTAP	74	192	7
NMTAP	75	0	5
NMTAP	75	96	5
NMTAP	75	192	4
NMTAP	75	192	5
NMTAP	76	0	3
NMTAP	76	96	3
NMTAP	76	192	2
NMTAP	76	192	3
NMTAP	77	0	0
NMTAP	77	0	1
NMTAP	77	96	0
NMTAP	77	96	1
NMTAP	77	192	0
NMTAP	77	192	1
NMTAP	78	0	1
NMTAP	78	96	1
NMTAP	78	192	0
NMTAP	78	192	1
NMTAP	79	0	2
NMTAP	79	96	2
NMTAP	79	192	2
NMTAP	79	192	3
NMTAP	80	0	4
NMTAP	80	96	4
NMTAP	80	192	4
NMTAP	80	192	5
NMTAP	81	0	6
NMTAP	81	0	7
NMTAP	81	96	6
NMTAP	81	96	7
NMHLD	82	0	5	384
NMHLD	83	0	4	384
NMHLD	84	0	3	384
NMTAP	85	0	2
NMTTP	86	0	2	B	0	L1
NMTTP	86	0	3	B	0	L1
NMTTP	87	0	4	B	0	L1
NMTTP	87	0	5	B	0	L1
NMTTP	88	0	7	B	0	L1
NMTTP	88	192	0	B	0	L1
NMTTP	89	0	0	C	1	L1
EXTAP	90	0	1
EXTAP	90	96	1
EXTAP	90	192	0
EXTAP	90	192	1
EXTAP	90	288	0
EXTAP	90	288	1
EXTAP	91	0	7
EXTAP	91	96	7
EXTAP	91	192	6
EXTAP	91	192	7
NMTAP	92	0	5
NMTAP	92	96	5
NMTAP	92	192	6
NMTAP	92	192	7
NMTAP	92	288	6
NMTAP	92	288	7
NMTAP	93	0	0
NMTAP	93	96	0
NMTAP	93	192	0
NMTAP	93	192	1
NMTAP	94	0	1
NMTAP	94	96	1
NMTAP	94	192	2
NMTAP	94	192	3
NMTAP	94	288	2
NMTAP	94	288	3
NMTAP	95	0	4
NMTAP	95	96	4
NMTAP	95	192	4
NMTAP	95	192	5
NMTAP	96	0	6
NMTAP	96	96	6
NMTAP	96	192	4
NMTAP	96	192	5
NMTAP	96	288	4
NMTAP	96	288	5
NMTAP	97	0	3
NMTAP	97	96	3
NMTAP	97	192	2
NMTAP	97	192	3
NMTAP	98	0	1
NMTAP	98	96	1
NMTAP	98	192	1
NMTAP	98	288	0
NMTAP	98	288	1
NMTAP	99	0	2
NMTAP	99	96	2
NMTAP	99	192	2
NMTAP	99	288	2
NMTAP	99	288	3
NMTAP	100	0	4
NMTAP	100	96	4
NMTAP	100	192	4
NMTAP	100	288	4
NMTAP	100	288	5
NMTAP	101	0	6
NMTAP	101	96	6
BRTAP	101	192	0
BRTAP	101	192	7
NMTAP	102	0	6
NMTAP	102	96	6
NMTAP	102	192	6
NMTAP	102	288	6
NMTAP	102	288	7
NMTAP	103	0	5
NMTAP	103	96	5
NMTAP	103	192	5
NMTAP	103	288	4
NMTAP	103	288	5
NMTAP	104	0	3
NMTAP	104	96	3
NMTAP	104	192	3
NMTAP	104	288	2
NMTAP	104	288	3
NMTAP	105	0	1
NMTAP	105	96	1
NMTAP	105	192	0
NMTAP	105	192	7
NMTAP	106	0	0
NMTAP	106	0	7
NMTAP	106	96	0
NMTAP	106	96	7
NMTAP	106	192	1
NMTAP	106	192	6
BRTAP	106	288	2
BRTAP	106	288	5

T_REC_TAP	287
T_REC_BRK	6
T_REC_XTP	10
T_REC_BXX	2
T_REC_HLD	19
T_REC_XHO	0
T_REC_BHO	0
T_REC_BXH	0
T_REC_STR	12
T_REC_BST	0
T_REC_XST	0
T_REC_XBS	0
T_REC_TTP	7
T_REC_THO	0
T_REC_SLD	12
T_REC_BSL	0
T_REC_ALL	355
T_NUM_TAP	316
T_NUM_BRK	8
T_NUM_HLD	19
T_NUM_SLD	12
T_NUM_ALL	355
T_JUDGE_TAP	324
T_JUDGE_HLD	88
T_JUDGE_SLD	12
T_JUDGE_ALL	424
TTM_EACHPAIRS	62
TTM_SCR_TAP	158000
TTM_SCR_BRK	20800
TTM_SCR_HLD	19000
TTM_SCR_SLD	18000
TTM_SCR_ALL	215800
TTM_SCR_S	208550
TTM_SCR_SS	215000
TTM_RAT_ACV	10037

