VERSION	0.00.00	1.05.00
FES_MODE	0
BPM_DEF	180.000	180.000	180.000	180.000
MET_DEF	4	4
RESOLUTION	384
CLK_DEF	384
COMPATIBLE_CODE	MA2

BPM	0	0	180.000
MET	0	0	4	4

EXTAP	2	0	0
NMTAP	3	0	1
NMTAP	4	0	2
NMTAP	5	0	3
NMTAP	5	0	4
NMTAP	6	0	4
NMTAP	7	0	5
NMTAP	8	0	6
EXTAP	9	0	0
EXTAP	9	0	7
NMTAP	10	0	7
NMTAP	10	192	7
NMTAP	11	0	6
NMTAP	12	0	5
NMTAP	12	192	5
NMTAP	13	0	4
NMTAP	14	0	3
NMTAP	14	192	3
NMTAP	15	0	2
NMTAP	16	0	1
NMTAP	16	192	1
EXTAP	17	0	0
EXTAP	17	0	7
NMTAP	18	0	0
NMTAP	18	192	0
NMTAP	19	0	1
NMTAP	19	192	1
NMTAP	20	0	2
NMTAP	20	192	2
NMTAP	21	0	2
NMTAP	21	0	3
NMTAP	22	0	4
NMTAP	22	192	4
NMTAP	23	0	5
NMTAP	23	192	5
NMTAP	24	0	6
NMTAP	24	192	6
NMTAP	25	0	6
NMTAP	25	0	7
NMHLD	26	0	6	384
NMHLD	26	0	7	384
NMHLD	28	0	4	384
NMHLD	28	0	5	384
NMHLD	30	0	2	384
NMHLD	30	0	3	384
NMHLD	32	0	0	384
NMHLD	32	0	1	384
NMTTP	34	0	0	B	0	L1
NMTTP	34	0	1	B	0	L1
NMTTP	35	0	2	B	0	L1
NMTTP	35	0	3	B	0	L1
NMTTP	36	0	4	B	0	L1
NMTTP	36	0	5	B	0	L1
NMTTP	37	0	6	B	0	L1
NMTTP	37	0	7	B	0	L1
NMTTP	38	0	4	B	0	L1
NMTTP	38	0	5	B	0	L1
NMTTP	39	0	2	B	0	L1
NMTTP	39	0	3	B	0	L1
NMTHO	40	0	0	336	C	1	L1
BXTAP	42	0	0
NMTAP	42	96	0
NMTAP	42	192	0
NMTAP	43	0	1
NMTAP	43	192	1
NMTAP	44	0	2
NMTAP	44	96	2
NMTAP	44	192	2
NMTAP	45	0	3
NMTAP	45	0	4
NMTAP	45	192	3
NMTAP	45	192	4
NMTAP	46	0	4
NMTAP	46	96	4
NMTAP	46	192	4
NMTAP	47	0	5
NMTAP	47	192	5
NMTAP	48	0	6
NMTAP	48	96	6
NMTAP	48	192	6
EXTAP	49	0	0
EXTAP	49	0	7
BXTAP	50	0	7
NMTAP	50	96	7
NMTAP	50	192	7
NMTAP	51	0	6
NMTAP	51	192	6
NMTAP	52	0	5
NMTAP	52	96	5
NMTAP	52	192	5
NMTAP	53	0	3
NMTAP	53	0	4
NMTAP	53	192	3
NMTAP	53	192	4
NMTAP	54	0	3
NMTAP	54	96	3
NMTAP	54	192	3
NMTAP	55	0	2
NMTAP	55	192	2
NMTAP	56	0	1
NMTAP	56	96	1
NMTAP	56	192	1
EXTAP	57	0	0
EXTAP	57	0	7
NMTAP	58	0	1
NMTAP	58	192	1
NMTAP	59	0	0
NMTAP	59	0	1
NMTAP	59	192	0
NMTAP	59	192	1
NMTAP	60	0	2
NMTAP	60	192	2
NMTAP	61	0	3
NMTAP	61	0	4
NMTAP	61	192	3
NMTAP	61	192	4
NMTAP	62	0	5
NMTAP	62	192	5
NMTAP	63	0	4
NMTAP	63	0	5
NMTAP	63	192	4
NMTAP	63	192	5
NMTAP	64	0	6
NMTAP	64	192	6
EXTAP	65	0	0
EXTAP	65	0	7
NMSTR	66	0	7
NMSI_	66	0	7	96	288	3
NMSTR	68	0	0
NMSI_	68	0	0	96	288	4
NMSTR	70	0	6
NMSI_	70	0	6	96	288	2
NMSTR	72	0	1
NMSI_	72	0	1	96	288	5
NMHLD	74	0	6	192
NMHLD	74	0	7	192
NMTAP	75	0	6
NMTAP	75	0	7
NMHLD	76	0	4	192
NMHLD	76	0	5	192
NMTAP	77	0	4
NMTAP	77	0	5
NMHLD	78	0	2	192
NMHLD	78	0	3	192
NMTAP	79	0	2
NMTAP	79	0	3
NMHLD	80	0	0	192
NMHLD	80	0	1	192
NMTAP	81	0	0
NMTAP	81	0	1
NMTTP	82	0	1	B	0	L1
NMTTP	82	0	2	B	0	L1
NMTTP	84	0	3	B	0	L1
NMTTP	84	0	4	B	0	L1
NMTTP	86	0	5	B	0	L1
NMTTP	86	0	6	B	0	L1
NMTHO	88	0	0	384	C	1	L1
BRTAP	90	0	0
NMTAP	90	96	0
NMTAP	90	192	0
NMTAP	91	0	1
NMTAP	91	96	1
NMTAP	91	192	1
NMTAP	92	0	2
NMTAP	92	96	2
NMTAP	92	192	2
NMTAP	93	0	3
NMTAP	93	0	4
NMTAP	93	192	3
NMTAP	93	192	4
NMTAP	94	0	4
NMTAP	94	96	4
NMTAP	94	192	4
NMTAP	95	0	5
NMTAP	95	96	5
NMTAP	95	192	5
NMTAP	96	0	6
NMTAP	96	96	6
NMTAP	96	192	6
EXTAP	97	0	0
EXTAP	97	0	7
EXTAP	97	192	0
EXTAP	97	192	7
BRTAP	98	0	7
NMTAP	98	96	7
NMTAP	98	192	7
NMTAP	99	0	6
NMTAP	99	96	6
NMTAP	99	192	6
NMTAP	99	192	7
NMTAP	100	0	5
NMTAP	100	96	5
NMTAP	100	192	5
NMTAP	101	0	4
NMTAP	101	96	4
NMTAP	101	192	3
NMTAP	101	192	4
NMTAP	102	0	2
NMTAP	102	96	2
NMTAP	102	192	2
NMTAP	103	0	1
NMTAP	103	96	1
NMTAP	103	192	0
NMTAP	103	192	1
NMTAP	104	0	7
NMTAP	104	96	7
NMTAP	104	192	7
NMTAP	105	0	0
NMTAP	105	96	0
NMTAP	105	192	0
NMTAP	106	0	0
NMTAP	106	0	7
NMTAP	106	96	0
NMTAP	106	96	7
EXTAP	106	192	1
EXTAP	106	192	6
EXTAP	106	288	1
EXTAP	106	288	6

T_REC_TAP	151
T_REC_BRK	2
T_REC_XTP	19
T_REC_BXX	2
T_REC_HLD	16
T_REC_XHO	0
T_REC_BHO	0
T_REC_BXH	0
T_REC_STR	4
T_REC_BST	0
T_REC_XST	0
T_REC_XBS	0
T_REC_TTP	18
T_REC_THO	2
T_REC_SLD	4
T_REC_BSL	0
T_REC_ALL	218
T_NUM_TAP	192
T_NUM_BRK	4
T_NUM_HLD	18
T_NUM_SLD	4
T_NUM_ALL	218
T_JUDGE_TAP	196
T_JUDGE_HLD	111
T_JUDGE_SLD	4
T_JUDGE_ALL	311
TTM_EACHPAIRS	41
TTM_SCR_TAP	96000
TTM_SCR_BRK	10400
TTM_SCR_HLD	18000
TTM_SCR_SLD	6000
TTM_SCR_ALL	130400
TTM_SCR_S	126100
TTM_SCR_SS	130000
TTM_RAT_ACV	10030

