VERSION	0.00.00	1.05.00
FES_MODE	0
BPM_DEF	256.000	256.000	256.000	128.000
MET_DEF	4	4
RESOLUTION	384
CLK_DEF	384
COMPATIBLE_CODE	MA2

BPM	0	0	256.000
BPM	72	0	128.000
BPM	80	0	256.000
BPM	132	0	128.000
BPM	134	0	256.000
MET	0	0	4	4
MET	26	0	4	6
MET	44	0	4	4

BXHLD	2	0	2	192
NMTAP	2	192	3
NMTAP	2	240	2
NMTAP	2	288	5
NMTAP	2	336	4
EXHLD	3	0	6	96
NMTAP	3	96	5
NMHLD	3	192	1	96
NMSTR	3	288	3
NMSCR	3	288	3	96	192	6
NMHLD	4	0	0	96
NMHLD	4	192	0	96
CNSUL	4	192	6	0	96	2
NMTHO	5	0	0	192	C	0	M1
NMTAP	5	192	7
NMTAP	5	240	7
BRHLD	6	0	0	192
BRTAP	6	0	6
NMTAP	6	192	3
NMTAP	6	240	3
NMTAP	6	288	1
NMTAP	6	336	2
NMHLD	7	0	1	96
NMHLD	7	0	3	96
NMHLD	7	192	3	96
NMHLD	7	192	4	96
NMTAP	8	0	4
EXHLD	8	0	6	192
NMTAP	8	192	4
NMTAP	8	240	5
NMTAP	8	288	2
NMTAP	8	336	3
EXHLD	9	0	1	96
NMTAP	9	96	2
NMHLD	9	192	6	96
NMSTR	9	288	4
NMSCL	9	288	4	96	192	1
NMHLD	10	0	7	96
CNSUR	10	192	1	0	96	5
NMHLD	10	192	7	96
NMTHO	11	0	0	192	C	0	M1
NMTAP	11	192	0
NMTAP	11	240	0
BRTAP	12	0	1
BRHLD	12	0	7	192
NMTAP	12	192	4
NMTAP	12	240	4
NMTAP	12	288	5
NMTAP	12	336	5
NMHLD	13	0	4	96
NMTAP	13	0	6
NMTAP	13	96	5
NMHLD	13	192	2	96
NMTAP	13	192	4
NMSTR	13	288	3
NMSI_	13	288	3	96	192	5
NMTTP	14	0	1	B	0	M1
NMTTP	14	0	2	B	0	M1
NMTTP	14	0	2	E	1	M1
CNSCR	14	192	5	0	96	7
BRHLD	15	0	0	192
NMTAP	15	192	7
NMHLD	15	288	1	96
NMTAP	15	288	3
NMTAP	16	0	4
NMTAP	16	48	5
NMTAP	16	96	3
NMHLD	16	144	2	96
NMTAP	16	240	3
NMTAP	16	336	1
NMHLD	16	336	4	144
NMTAP	17	96	2
EXTAP	17	192	4
EXTAP	17	192	6
EXTAP	17	240	4
EXTAP	17	240	6
NMTAP	17	336	3
NMTAP	17	336	5
NMTAP	18	48	4
NMHLD	18	48	6	144
NMTAP	18	192	3
NMTAP	18	240	3
NMTAP	18	288	4
NMHLD	18	336	3	144
NMHLD	18	336	5	96
NMHLD	19	96	6	96
NMHLD	19	144	4	96
EXTAP	19	288	3
EXTAP	19	288	7
BRSTR	20	0	0
BRSCL	20	0	0	96	192	4
NMHLD	20	0	1	288
EXTAP	21	0	1
EXTAP	21	0	3
NMTAP	21	192	4
NMTAP	21	240	3
NMTAP	21	288	2
NMTAP	21	288	4
NMTAP	21	336	3
NMTAP	22	0	1
NMSTR	22	48	1
NMSI_	22	48	1	96	96	7
NMTAP	22	144	3
NMTAP	22	240	4
CNSI_	22	240	7	0	96	2
CNSI_	22	336	2	0	96	4
NMHLD	22	336	5	144
EXTAP	23	192	4
EXTAP	23	192	6
EXTAP	23	240	4
EXTAP	23	240	6
NMTAP	23	336	3
NMTAP	23	336	7
NMTAP	24	48	4
NMHLD	24	48	6	144
NMTAP	24	192	5
NMTAP	24	288	4
NMTAP	24	288	7
NMTAP	24	336	4
NMTAP	24	336	7
NMTAP	25	0	6
NMTAP	25	48	3
NMTAP	25	96	5
NMTAP	25	144	1
NMTAP	25	192	0
NMTAP	25	192	4
NMTAP	25	240	0
NMTAP	25	240	4
NMTAP	25	288	0
NMTAP	25	288	4
NMTAP	25	336	0
NMTAP	25	336	4
NMSTR	26	0	0
NMSSL	26	0	0	96	480	4
NMTAP	26	0	4
NMSTR	27	192	6
NMSSL	27	192	6	96	480	2
NMSTR	29	0	1
NMSSR	29	0	1	96	480	5
NMSTR	30	192	4
NMSSL	30	192	4	96	480	0
NMHLD	32	0	1	192
NMHLD	32	192	7	192
NMTHO	33	0	0	96	C	0	M1
NMHLD	33	192	6	192
NMHLD	34	0	0	192
NMTHO	34	192	0	96	C	0	M1
NMHLD	35	0	2	192
NMHLD	35	192	0	192
NMTHO	36	0	0	96	C	0	M1
NMTAP	36	192	7
NMTAP	36	288	7
NMTAP	37	0	6
NMTAP	37	96	5
NMTAP	37	192	4
NMTAP	37	288	3
NMHLD	38	0	2	96
NMHLD	38	144	2	96
NMSTR	38	288	2
NMSCR	38	288	2	96	96	4
NMTAP	39	0	4
CNSI_	39	96	4	0	96	1
NMTAP	39	96	6
NMHLD	39	192	0	96
NMHLD	39	336	0	96
NMSTR	40	96	0
NMSCL	40	96	0	96	192	5
NMTAP	40	192	1
NMHLD	41	0	4	96
NMHLD	41	144	4	96
NMSTR	41	288	4
NMSCL	41	288	4	96	96	1
NMTAP	42	0	5
CNSI_	42	96	1	0	96	7
NMTAP	42	96	6
NMTHO	42	192	0	576	C	1	M1
BRSTR	44	0	0
NMSI_	44	0	0	96	288	6
NMSCR	44	0	0	96	1248	0
CNSI_	45	0	6	0	384	4
CNSI_	46	0	4	0	192	2
CNSI_	46	192	2	0	384	0
BXHLD	48	0	0	96
NMTAP	48	96	7
NMHLD	48	192	1	96
NMTAP	48	288	3
NMTAP	48	336	3
NMHLD	49	0	2	96
NMHLD	49	192	3	96
NMHLD	50	0	4	96
NMTAP	50	0	6
NMTHO	50	192	0	96	C	0	M1
NMHLD	50	192	5	96
NMHLD	51	0	6	96
NMTTP	51	96	0	E	0	M1
NMHLD	51	192	7	96
BXHLD	52	0	0	96
NMTAP	52	0	6
NMTAP	52	96	5
NMHLD	52	192	1	96
NMTAP	52	288	3
NMTAP	52	336	3
NMHLD	53	0	2	96
NMHLD	53	192	3	96
NMHLD	54	0	4	96
NMTAP	54	0	6
NMTAP	54	96	6
NMTHO	54	192	0	96	C	0	M1
NMHLD	54	192	5	96
NMHLD	55	0	6	96
NMTTP	55	96	0	E	0	M1
NMHLD	55	192	7	96
BXHLD	56	0	0	96
BXTAP	56	0	6
NMTAP	56	96	5
NMHLD	56	192	1	96
NMTAP	56	192	4
NMTAP	56	288	3
NMTAP	56	336	3
NMHLD	57	0	2	96
NMTAP	57	0	3
NMTAP	57	96	4
NMHLD	57	192	3	96
NMTAP	57	192	6
NMTAP	57	288	5
NMTAP	57	336	5
NMHLD	58	0	4	96
NMTAP	58	192	3
NMHLD	58	192	5	96
NMTHO	58	288	0	96	C	0	M1
NMHLD	59	0	6	96
NMTTP	59	96	2	B	0	M1
NMTTP	59	96	2	E	0	M1
EXTAP	59	192	1
NMHLD	59	192	7	96
BXHLD	60	0	0	96
BXTAP	60	0	6
NMTAP	60	96	5
NMHLD	60	192	1	96
NMTAP	60	192	4
NMTAP	60	288	3
NMTAP	60	336	3
NMHLD	61	0	2	96
NMTAP	61	0	3
NMTAP	61	96	4
NMHLD	61	192	3	96
NMTAP	61	192	6
NMTAP	61	288	5
NMTAP	61	336	5
NMHLD	62	0	4	96
NMTAP	62	0	5
NMTHO	62	192	0	96	C	0	M1
NMHLD	62	192	5	96
NMHLD	63	0	6	96
NMTAP	63	0	7
NMTTP	63	96	2	B	0	M1
NMTTP	63	96	3	E	0	M1
NMTAP	63	192	7
NMTAP	63	240	7
NMTAP	63	288	0
NMTAP	63	336	7
BRTAP	64	0	1
NMTAP	64	48	1
NMTAP	64	96	3
NMTAP	64	144	2
NMTAP	64	192	5
NMTAP	64	240	5
NMTAP	64	288	3
NMTAP	64	336	7
NMSTR	65	0	4
NMSI_	65	0	4	96	48	2
NMTAP	65	48	4
NMTAP	65	96	6
NMTAP	65	144	6
NMSTR	65	192	1
NMSI_	65	192	1	96	48	5
NMTAP	65	240	1
NMTAP	65	288	4
BRTAP	66	0	6
NMTAP	66	48	6
NMTAP	66	96	4
NMTAP	66	144	5
NMTAP	66	192	2
NMTAP	66	240	2
NMTAP	66	288	4
NMTAP	66	336	0
NMSTR	67	0	3
NMSI_	67	0	3	96	48	5
NMTAP	67	48	3
NMTAP	67	96	1
NMTAP	67	144	1
NMSTR	67	192	6
NMSI_	67	192	6	96	48	2
NMTAP	67	240	6
NMTAP	67	288	3
BRTAP	68	0	1
NMTAP	68	48	1
NMTAP	68	96	3
NMTAP	68	144	3
NMTAP	68	192	5
NMTAP	68	240	5
NMTAP	68	288	7
NMTAP	68	336	7
NMTAP	69	0	1
NMTAP	69	48	1
NMTAP	69	96	3
NMTAP	69	144	3
NMTAP	69	192	5
NMTAP	69	240	5
NMTAP	69	288	7
NMTAP	69	336	7
NMTAP	70	0	0
NMTAP	70	0	6
NMTAP	70	48	0
NMTAP	70	96	0
NMTAP	70	96	5
NMTAP	70	144	5
NMTAP	70	192	3
NMTAP	70	192	5
NMTAP	70	240	3
NMHLD	70	288	3	48
NMHLD	70	288	7	48
NMTAP	71	0	7
NMTAP	71	24	6
NMTAP	71	48	5
NMTAP	71	72	4
NMTAP	71	96	7
NMTAP	71	120	6
NMTAP	71	144	5
NMTAP	71	168	4
NMTAP	71	192	0
NMTAP	71	216	1
NMTAP	71	240	2
NMTAP	71	264	3
NMTAP	71	288	0
NMTAP	71	312	1
NMTAP	71	336	2
NMTAP	71	360	3
NMTHO	72	0	0	1152	C	0	M1
NMTTP	73	0	0	B	0	M1
NMTTP	74	0	1	B	0	M1
NMTTP	75	0	2	B	0	M1
NMTHO	76	0	0	72	C	0	M1
NMTTP	76	0	3	B	0	M1
NMTTP	76	192	4	E	0	M1
NMTHO	77	0	0	72	C	0	M1
NMTTP	77	0	4	B	0	M1
NMTTP	77	192	5	E	0	M1
NMTHO	78	0	0	72	C	0	M1
NMTTP	78	0	5	B	0	M1
NMTTP	78	192	6	E	0	M1
NMTHO	79	0	0	72	C	0	M1
NMTTP	79	0	7	E	0	M1
NMTTP	79	0	7	D	0	M1
NMTTP	79	48	6	E	0	M1
NMTTP	79	48	6	D	0	M1
NMTTP	79	96	5	E	0	M1
NMTTP	79	96	5	D	0	M1
NMTTP	79	144	4	E	0	M1
NMTTP	79	144	4	D	0	M1
NMTTP	79	192	3	E	0	M1
NMTTP	79	192	3	D	0	M1
NMTTP	79	240	2	E	0	M1
NMTTP	79	240	2	D	0	M1
NMTTP	79	288	1	E	0	M1
NMTTP	79	288	1	D	0	M1
EXTAP	79	288	7
BRHLD	80	0	7	96
NMTAP	80	144	3
NMHLD	80	144	6	144
NMTAP	80	288	4
NMTAP	80	336	4
NMTAP	81	0	5
NMTAP	81	48	4
NMTAP	81	96	3
NMTAP	81	144	2
NMTAP	81	192	4
NMTAP	81	240	3
NMTAP	81	288	2
NMTAP	81	336	1
NMHLD	82	0	0	96
NMHLD	82	144	1	144
NMTAP	82	144	4
NMTAP	82	288	3
NMTAP	82	336	3
NMTAP	83	0	2
NMTAP	83	48	3
NMTAP	83	96	4
NMTAP	83	144	5
NMTAP	83	192	3
NMTAP	83	240	4
NMTAP	83	288	5
NMTAP	83	336	6
BRHLD	84	0	7	96
NMTAP	84	144	3
NMHLD	84	144	6	144
NMTAP	84	288	4
NMTAP	84	336	4
NMTAP	85	0	5
NMTAP	85	48	4
NMTAP	85	96	3
NMTAP	85	144	2
NMTAP	85	192	4
NMTAP	85	240	3
NMTAP	85	288	2
NMTAP	85	336	1
NMHLD	86	0	0	96
NMHLD	86	144	0	96
NMHLD	86	288	1	96
NMHLD	86	288	7	96
NMHLD	87	48	1	96
NMHLD	87	48	7	96
NMTAP	87	192	2
NMTAP	87	192	6
NMTAP	87	288	3
NMTAP	87	288	5
NMTAP	88	0	4
NMTAP	88	48	4
NMTAP	88	96	3
NMTAP	88	144	3
NMTAP	88	192	5
NMTAP	88	240	5
NMSTR	88	288	4
NMSLL	88	288	4	96	288	0
NMHLD	89	0	7	48
NMHLD	89	96	7	48
NMHLD	89	192	7	48
NMTAP	89	288	7
NMTAP	90	0	7
NMTAP	90	48	7
NMTAP	90	96	0
NMTAP	90	144	0
NMTAP	90	192	6
NMTAP	90	240	6
NMSTR	90	288	7
NMSLR	90	288	7	96	288	3
NMHLD	91	0	4	48
NMHLD	91	96	4	48
NMHLD	91	192	4	48
NMTAP	91	288	4
NMTAP	92	0	3
NMTAP	92	48	3
NMTAP	92	96	4
NMTAP	92	144	4
NMTAP	92	192	2
NMTAP	92	240	2
NMSTR	92	288	3
NMSCR	92	288	3	96	384	0
NMHLD	93	0	1	48
NMHLD	93	96	1	48
NMHLD	93	192	1	48
NMSTR	93	288	1
BRSCL	93	288	1	96	384	3
CNSSR	95	0	3	0	240	7
BRTAP	96	0	0
BRSTR	96	0	6
NMSI_	96	0	6	96	48	4
NMTAP	96	96	2
NMTAP	96	144	2
NMTAP	96	192	3
NMTAP	96	240	1
NMTAP	96	336	0
NMTAP	96	336	6
NMTAP	97	0	0
NMSTR	97	0	6
NMSI_	97	0	6	96	48	4
NMTAP	97	96	2
NMTAP	97	144	2
NMTAP	97	192	3
NMHLD	97	240	0	96
NMTAP	97	336	6
NMSTR	98	0	6
BRSI_	98	0	6	96	48	3
NMSTR	98	96	2
BRSI_	98	96	2	96	48	7
NMSTR	98	192	5
BRSI_	98	192	5	96	48	0
NMTAP	98	288	1
NMSTR	99	0	3
NMSI_	99	0	3	96	48	1
BRTAP	99	0	7
NMTAP	99	96	5
NMTAP	99	144	5
NMTAP	99	192	0
NMTAP	99	240	6
NMTAP	99	336	3
NMTAP	99	336	7
NMSTR	100	0	3
NMSI_	100	0	3	96	48	1
NMTAP	100	0	7
NMTAP	100	96	5
NMTAP	100	144	5
NMTAP	100	192	0
NMTAP	100	240	6
NMTAP	100	336	3
NMTAP	100	336	7
NMSTR	101	0	3
BRSI_	101	0	3	96	48	0
NMTAP	101	0	7
NMSTR	101	96	6
BRSI_	101	96	6	96	48	3
NMTAP	101	192	7
NMTAP	101	288	0
NMSTR	102	0	1
NMSI_	102	0	1	96	48	4
EXTAP	102	0	7
NMTAP	102	96	7
NMSTR	102	192	5
NMSI_	102	192	5	96	48	0
NMTAP	102	192	7
NMTAP	102	288	7
NMSTR	103	0	1
NMSI_	103	0	1	96	48	4
NMTAP	103	0	7
NMTAP	103	96	7
NMSTR	103	192	5
NMSI_	103	192	5	96	48	0
NMTAP	103	192	7
NMTAP	103	288	7
NMSTR	104	0	1
BRSCR	104	0	1	96	48	4
NMTAP	104	0	7
NMSTR	104	96	5
NMSI_	104	96	5	96	48	0
NMSTR	104	192	2
BRSI_	104	192	2	96	48	7
NMTAP	104	288	7
NMTAP	105	0	1
NMSTR	105	0	6
NMSI_	105	0	6	96	48	3
NMTAP	105	96	1
NMTAP	105	192	1
NMSTR	105	192	2
NMSI_	105	192	2	96	48	7
NMTAP	105	288	1
NMTAP	106	0	0
NMTAP	106	48	0
NMTAP	106	96	6
NMTAP	106	144	6
NMTAP	106	192	1
NMTAP	106	192	5
NMTAP	106	240	1
NMTAP	106	240	5
NMTAP	106	288	1
NMTAP	106	288	5
NMSTR	106	336	1
NMSUL	106	336	1	96	192	3
NMSTR	106	336	5
NMSUL	106	336	5	96	192	7
NMTAP	107	0	1
NMTAP	107	0	5
EXTAP	107	48	1
EXTAP	107	48	5
NMTAP	108	0	2
BRTAP	108	0	6
NMTAP	108	48	2
NMTAP	108	48	6
NMTAP	108	144	0
NMTAP	108	144	4
NMSTR	108	192	0
BRSI_	108	192	0	96	48	2
NMTAP	108	192	4
NMTAP	108	288	3
NMSTR	108	336	3
NMSI_	108	336	3	96	48	7
NMTAP	109	48	2
NMSTR	109	144	1
NMSI_	109	144	1	96	48	5
NMTAP	109	240	0
NMSTR	109	288	0
BRSLL	109	288	0	96	144	4
EXTAP	110	0	4
NMTAP	110	48	4
NMHLD	110	144	3	96
NMHLD	110	240	2	96
NMSTR	110	336	1
NMSCL	110	336	1	96	48	6
NMTAP	111	48	5
NMSTR	111	96	5
BRSCL	111	96	5	96	48	2
EXTAP	111	192	0
EXSTR	111	240	0
NMSI_	111	240	0	96	96	3
NMTAP	111	336	6
CNSI_	112	48	3	0	96	5
NMTAP	112	48	5
NMTAP	112	144	7
NMTAP	112	192	7
NMTAP	112	288	4
NMTAP	112	288	5
NMSTR	112	336	4
NMSCL	112	336	4	96	48	1
NMTAP	112	336	5
NMTAP	113	48	6
NMSTR	113	96	6
BRSLL	113	96	6	96	96	0
NMTAP	113	192	0
NMTAP	113	288	2
BXSTR	114	0	3
BRSLR	114	0	3	96	192	0
BXSTR	114	0	7
BRSLL	114	0	7	96	192	2
BRTAP	115	0	1
NMTAP	115	48	2
NMTAP	115	96	3
NMTAP	115	144	4
NMTAP	115	192	2
NMTAP	115	240	3
NMTAP	115	288	4
NMTAP	115	288	6
NMTAP	115	336	5
NMTAP	116	0	6
NMSTR	116	48	6
NMSCR	116	48	6	96	96	1
NMSTR	116	144	1
NMSI_	116	144	1	96	96	5
NMTAP	116	240	2
NMTAP	116	336	1
CNSCL	116	336	5	0	96	2
NMTAP	117	48	0
NMHLD	117	96	0	96
NMTAP	117	192	3
NMTAP	117	240	1
NMSTR	117	240	4
NMSI_	117	240	4	96	48	6
NMSTR	117	336	4
NMSI_	117	336	4	96	48	2
NMSTR	118	48	4
NMSI_	118	48	4	96	48	0
NMTAP	118	144	4
NMTAP	118	192	1
NMTAP	118	240	2
NMTAP	118	288	3
NMTAP	118	336	4
NMTAP	118	336	7
NMTAP	119	48	2
NMTAP	119	48	6
NMTAP	119	96	2
NMTAP	119	96	6
NMTAP	119	192	0
NMTAP	119	192	4
NMTAP	119	240	0
NMTAP	119	240	4
NMTAP	119	288	0
NMTAP	119	288	4
NMTAP	119	336	0
NMTAP	119	336	4
BRTAP	120	0	1
BRSTR	120	0	5
NMSI_	120	0	5	96	48	0
NMTAP	120	96	5
BRSTR	120	144	2
NMSCR	120	144	2	96	48	4
NMTAP	120	240	2
NMTAP	120	288	7
BRSTR	121	0	5
NMSI_	121	0	5	96	48	1
NMTAP	121	96	5
BRSTR	121	144	0
NMSI_	121	144	0	96	48	4
NMTAP	121	240	0
NMTAP	121	288	6
BRSTR	122	0	7
NMSI_	122	0	7	96	48	5
NMTAP	122	96	7
BRSTR	122	144	3
NMSI_	122	144	3	96	48	1
NMTAP	122	240	3
NMTAP	122	288	0
BRSTR	123	0	6
NMSI_	123	0	6	96	48	4
NMTAP	123	96	6
BRSTR	123	144	0
NMSI_	123	144	0	96	48	2
NMTAP	123	240	0
NMTAP	123	288	3
BRSTR	124	0	5
NMSI_	124	0	5	96	48	1
NMTAP	124	96	5
BRSTR	124	144	0
NMSI_	124	144	0	96	48	6
NMTAP	124	240	0
NMTAP	124	288	3
BRSTR	125	0	5
NMSCL	125	0	5	96	48	2
NMTAP	125	96	5
BRSTR	125	144	1
NMSI_	125	144	1	96	48	5
NMTAP	125	240	1
NMTAP	125	288	0
BXSTR	126	0	5
BRSLL	126	0	5	96	192	7
BXSTR	126	0	6
BRSLL	126	0	6	96	192	1
BRSTR	127	0	0
NMSI_	127	0	0	96	48	4
NMTAP	127	48	7
NMTAP	127	96	0
BRSTR	127	144	6
NMSCR	127	144	6	96	48	1
NMTAP	127	240	6
BRTAP	127	288	3
NMTAP	127	336	3
BRSTR	128	0	7
NMSI_	128	0	7	96	48	3
NMTAP	128	48	0
NMTAP	128	96	7
BRSTR	128	144	1
NMSCL	128	144	1	96	48	6
NMTAP	128	240	1
BRTAP	128	288	4
NMTAP	128	336	4
BRSTR	129	0	1
NMSI_	129	0	1	96	48	5
NMTAP	129	48	5
NMTAP	129	96	1
BRSTR	129	144	0
NMSCL	129	144	0	96	48	5
NMTAP	129	240	0
BRTAP	129	288	3
NMTAP	129	336	3
BRSTR	130	0	6
NMSI_	130	0	6	96	48	2
NMTAP	130	48	2
NMTAP	130	96	6
BRSTR	130	144	7
NMSCR	130	144	7	96	48	2
NMTAP	130	240	7
BRTAP	130	288	4
NMTAP	130	336	4
NMTAP	131	0	0
NMTAP	131	0	5
NMTAP	131	48	0
NMTAP	131	96	2
NMTAP	131	96	6
NMTAP	131	144	6
NMTAP	131	192	3
NMTAP	131	192	7
NMTAP	131	240	3
NMTAP	131	240	7
NMTAP	131	288	3
NMTAP	131	288	7
NMTAP	131	336	3
NMTAP	131	336	7
NMTHO	132	0	0	384	C	0	M1
NMTTP	132	0	3	B	1	M1
NMHLD	132	0	7	720
NMTAP	133	336	2
BRSTR	134	0	1
NMSI_	134	0	1	96	48	3
NMTAP	134	48	0
NMTAP	134	96	1
NMTAP	134	144	6
NMTAP	134	192	6
NMTAP	134	216	5
NMTAP	134	240	4
NMTAP	134	264	3
NMTAP	134	288	0
NMTAP	134	312	1
NMTAP	134	336	2
NMTAP	134	360	3
NMSTR	135	0	6
NMSI_	135	0	6	96	48	4
NMTAP	135	48	7
NMTAP	135	96	6
NMTAP	135	144	1
NMTAP	135	192	1
NMTAP	135	216	2
NMTAP	135	240	3
NMTAP	135	264	4
NMTAP	135	288	7
NMTAP	135	312	6
NMTAP	135	336	5
NMTAP	135	360	4
NMSTR	136	0	2
NMSI_	136	0	2	96	48	0
NMTAP	136	48	3
NMTAP	136	96	2
NMTAP	136	144	6
NMTAP	136	192	6
NMTAP	136	216	5
NMTAP	136	240	4
NMTAP	136	264	3
NMTAP	136	288	0
NMTAP	136	312	1
NMTAP	136	336	2
NMTAP	136	360	3
NMSTR	137	0	5
NMSI_	137	0	5	96	48	1
BRSI_	137	0	5	96	48	0
NMTAP	137	96	5
BRTAP	137	192	2
BRTAP	137	192	7
NMTAP	137	288	0
NMTAP	137	288	5
BRSTR	138	0	1
NMSI_	138	0	1	96	48	3
NMTAP	138	48	3
NMTAP	138	96	1
NMTAP	138	144	6
NMTAP	138	192	6
NMTAP	138	216	5
NMTAP	138	240	4
NMTAP	138	264	3
NMTAP	138	288	7
NMTAP	138	312	0
NMTAP	138	336	1
NMTAP	138	360	2
NMSTR	139	0	6
NMSI_	139	0	6	96	48	4
NMTAP	139	48	4
NMTAP	139	96	6
NMTAP	139	144	1
NMTAP	139	192	1
NMTAP	139	216	2
NMTAP	139	240	3
NMTAP	139	264	4
NMTAP	139	288	0
NMTAP	139	312	7
NMTAP	139	336	6
NMTAP	139	360	5
NMSTR	140	0	2
NMSI_	140	0	2	96	48	0
NMTAP	140	48	3
NMTAP	140	96	2
NMTAP	140	144	6
NMTAP	140	192	6
NMTAP	140	216	5
NMTAP	140	240	4
NMTAP	140	264	3
NMTAP	140	288	7
NMTAP	140	312	0
NMTAP	140	336	1
NMTAP	140	360	2
NMSTR	141	0	6
NMSI_	141	0	6	96	48	2
BRSI_	141	0	6	96	48	3
NMTAP	141	96	6
NMSTR	141	192	0
NMSF_	141	192	0	96	48	4
NMTAP	141	288	0
BRTAP	142	0	2
BRTAP	142	0	6
NMTAP	142	96	1
NMTAP	142	144	1
NMTAP	142	192	3
NMTAP	142	240	3
NMTAP	142	288	5
NMTAP	142	336	5
NMTAP	143	0	7
NMTAP	143	48	7
NMTAP	143	96	5
NMTAP	143	144	5
NMHLD	143	192	4	48
NMHLD	143	192	6	48
NMHLD	143	288	4	48
NMHLD	143	288	6	48
NMTAP	144	0	3
NMTAP	144	0	7
NMTAP	144	48	3
NMTAP	144	48	7
NMTAP	144	96	2
NMTAP	144	96	6
NMTAP	144	144	2
NMTAP	144	144	6
NMTAP	144	192	1
NMTAP	144	192	5
NMTAP	144	240	1
NMTAP	144	240	5
NMTAP	144	288	0
NMTAP	144	288	4
NMTAP	144	336	0
NMTAP	144	336	4
NMTAP	145	0	3
NMTAP	145	0	7
NMTAP	145	24	6
NMTAP	145	48	5
NMTAP	145	72	4
NMTAP	145	96	0
NMTAP	145	120	1
NMTAP	145	144	2
NMTAP	145	168	3
NMTAP	145	192	0
NMTAP	145	216	7
NMTAP	145	240	6
NMSTR	145	264	5
BRSI_	145	264	5	96	48	1
NMTAP	145	288	0
NMTAP	145	288	4
NMTAP	145	312	3
NMTAP	145	312	7
NMTAP	145	336	2
NMTAP	145	336	6

T_REC_TAP	506
T_REC_BRK	18
T_REC_XTP	19
T_REC_BXX	2
T_REC_HLD	92
T_REC_XHO	3
T_REC_BHO	5
T_REC_BXH	5
T_REC_STR	59
T_REC_BST	25
T_REC_XST	1
T_REC_XBS	4
T_REC_TTP	33
T_REC_THO	16
T_REC_SLD	72
T_REC_BSL	20
T_REC_ALL	880
T_NUM_TAP	618
T_NUM_BRK	79
T_NUM_HLD	111
T_NUM_SLD	72
T_NUM_ALL	880
T_JUDGE_TAP	667
T_JUDGE_HLD	197
T_JUDGE_SLD	92
T_JUDGE_ALL	956
TTM_EACHPAIRS	117
TTM_SCR_TAP	309000
TTM_SCR_BRK	205400
TTM_SCR_HLD	111000
TTM_SCR_SLD	108000
TTM_SCR_ALL	733400
TTM_SCR_S	703750
TTM_SCR_SS	725500
TTM_RAT_ACV	10108

