VERSION	0.00.00	1.05.00
FES_MODE	0
BPM_DEF	256.000	256.000	256.000	128.000
MET_DEF	4	4
RESOLUTION	384
CLK_DEF	384
COMPATIBLE_CODE	MA2

BPM	0	0	256.000
BPM	72	0	128.000
BPM	80	0	256.000
BPM	132	0	128.000
BPM	134	0	256.000
MET	0	0	4	4
MET	26	0	4	6
MET	44	0	4	4

NMHLD	2	0	2	192
NMHLD	2	192	3	192
NMHLD	3	0	4	192
NMTAP	3	192	5
NMTAP	4	0	4
NMTAP	4	0	6
NMTAP	4	144	3
NMTAP	4	144	5
NMTAP	4	288	2
NMTAP	4	288	4
NMTAP	5	0	1
NMTAP	5	96	1
NMTAP	5	192	3
NMTAP	5	240	3
NMTAP	6	0	5
NMTAP	6	96	5
NMTAP	6	192	4
NMTAP	6	240	4
NMTAP	7	0	6
NMTAP	7	0	7
NMTAP	7	96	6
NMTAP	7	96	7
NMTAP	7	192	0
NMTAP	7	192	5
NMHLD	8	0	5	192
NMHLD	8	192	4	192
NMHLD	9	0	3	192
NMTAP	9	192	2
NMTAP	10	0	1
NMTAP	10	0	3
NMTAP	10	144	2
NMTAP	10	144	4
NMTAP	10	288	3
NMTAP	10	288	5
NMTAP	11	0	6
NMTAP	11	96	6
NMTAP	11	192	4
NMTAP	11	240	4
NMTAP	12	0	2
NMTAP	12	96	2
NMTAP	12	192	3
NMTAP	12	240	3
NMTAP	13	0	0
NMTAP	13	0	1
NMTAP	13	96	0
NMTAP	13	96	1
NMTAP	13	192	2
NMTAP	13	192	7
NMTAP	14	0	1
NMTAP	14	96	1
NMTAP	14	192	3
NMTAP	14	288	2
NMTAP	14	336	2
NMTAP	15	0	3
NMTAP	15	96	4
NMTAP	15	192	3
NMTAP	15	192	5
NMTAP	16	0	6
NMTAP	16	96	6
NMTAP	16	192	4
NMTAP	16	288	5
NMTAP	16	336	5
NMTAP	17	0	4
NMTAP	17	96	3
NMTAP	17	192	2
NMTAP	17	192	4
NMTAP	18	0	0
NMTAP	18	0	1
NMTAP	18	96	2
NMTAP	18	192	3
NMTAP	18	192	4
NMTAP	18	288	5
NMTAP	19	0	6
NMTAP	19	0	7
NMTAP	19	96	6
NMTAP	19	96	7
NMTAP	19	192	0
NMTAP	19	192	5
NMTAP	20	0	5
NMTAP	20	96	5
NMTAP	20	192	7
NMTAP	20	288	6
NMTAP	20	336	6
NMTAP	21	0	7
NMTAP	21	96	0
NMTAP	21	192	1
NMTAP	21	192	7
NMTAP	22	0	2
NMTAP	22	96	2
NMTAP	22	192	0
NMTAP	22	288	1
NMTAP	22	336	1
NMTAP	23	0	0
NMTAP	23	96	7
NMTAP	23	192	0
NMTAP	23	192	6
NMTAP	24	0	4
NMTAP	24	0	5
NMTAP	24	96	3
NMTAP	24	96	6
NMTAP	24	192	2
NMTAP	24	192	7
NMSTR	24	288	0
NMSI_	24	288	0	96	192	3
NMSI_	24	288	0	96	192	5
NMTAP	24	288	1
EXHLD	26	0	2	576
EXTAP	26	144	4
NMTAP	26	288	3
NMTAP	27	0	3
NMTTP	27	192	2	E	0	M1
NMTTP	27	336	3	B	0	M1
NMTTP	28	96	5	E	0	M1
NMTTP	28	192	6	E	0	M1
EXHLD	29	0	5	576
EXTAP	29	144	3
NMTAP	29	288	4
NMTAP	30	0	4
NMTTP	30	192	6	E	0	M1
NMTTP	30	288	5	E	0	M1
NMTTP	31	0	4	E	0	M1
NMTTP	31	96	3	E	0	M1
NMTTP	31	192	2	E	0	M1
EXTAP	32	0	1
EXHLD	32	0	3	576
EXTAP	32	144	2
NMTAP	32	288	1
NMTAP	33	0	1
NMTTP	33	192	1	E	0	M1
NMTTP	33	336	2	B	0	M1
NMTTP	34	96	4	E	0	M1
NMTTP	34	192	5	E	0	M1
EXHLD	35	0	4	576
EXTAP	35	0	6
EXTAP	35	144	5
NMTAP	35	288	6
NMTAP	36	0	6
NMTTP	36	192	7	E	0	M1
NMTTP	36	288	6	E	0	M1
NMTTP	37	0	5	E	0	M1
NMTTP	37	96	3	E	0	M1
NMTTP	37	192	2	E	0	M1
NMTTP	37	288	1	E	0	M1
EXHLD	38	0	3	384
EXTAP	38	144	1
NMTAP	38	288	0
NMHLD	39	0	0	576
NMTTP	39	192	2	B	0	M1
NMTTP	39	336	4	E	0	M1
NMTTP	40	96	5	B	0	M1
NMTTP	40	192	5	A	0	M1
NMHLD	41	0	6	144
NMHLD	41	144	4	240
NMTAP	41	288	7
NMHLD	42	0	7	480
NMTHO	42	192	0	288	C	1	M1
NMSTR	44	0	0
NMSCR	44	0	0	96	1056	7
NMHLD	48	0	1	576
NMTAP	48	0	3
NMTAP	48	192	2
NMTAP	49	0	0
NMTAP	49	192	7
NMTAP	50	0	4
NMHLD	50	0	6	576
NMTAP	50	192	5
NMTAP	51	0	7
NMTAP	51	192	0
NMHLD	52	0	1	576
NMTAP	52	0	4
NMTAP	52	192	2
NMTAP	53	0	0
NMTAP	53	192	6
NMTAP	54	0	2
NMHLD	54	0	5	576
NMTAP	54	192	4
NMTAP	55	0	6
NMTAP	55	192	0
NMTAP	56	0	1
NMTAP	56	0	3
NMTAP	56	192	1
NMTAP	56	192	3
NMTAP	57	0	4
NMTAP	57	0	6
NMTAP	57	192	4
NMTAP	57	192	6
NMTAP	58	0	5
NMTAP	58	0	7
NMTAP	58	192	4
NMTAP	58	192	6
NMTAP	59	0	1
NMTAP	59	0	3
NMTAP	59	192	0
NMTAP	59	192	2
NMTAP	60	0	1
NMTAP	60	0	2
NMTAP	60	192	0
NMTAP	60	192	3
NMTAP	61	0	5
NMTAP	61	0	6
NMTAP	61	192	4
NMTAP	61	192	7
NMTAP	62	0	5
NMTAP	62	0	6
NMTAP	62	192	3
NMTAP	62	192	4
NMTAP	63	0	1
NMTAP	63	0	2
NMTAP	63	192	0
NMTAP	63	192	7
NMTAP	64	0	0
NMTAP	64	0	1
NMTAP	64	96	0
NMTAP	64	96	1
NMTAP	64	192	6
NMTAP	64	192	7
NMTAP	64	288	6
NMTAP	64	288	7
NMTAP	65	0	5
NMTAP	65	48	5
NMTAP	65	96	4
NMTAP	65	192	2
NMTAP	65	240	2
NMTAP	65	288	3
NMTAP	66	0	0
NMTAP	66	0	1
NMTAP	66	96	2
NMTAP	66	96	7
NMTAP	66	192	3
NMTAP	66	192	6
NMTAP	66	288	4
NMTAP	66	288	5
NMTAP	67	0	5
NMTAP	67	48	5
NMTAP	67	96	4
NMTAP	67	144	4
NMTAP	67	192	6
NMTAP	68	0	6
NMTAP	68	0	7
NMTAP	68	96	6
NMTAP	68	96	7
NMTAP	68	192	0
NMTAP	68	192	1
NMTAP	68	288	0
NMTAP	68	288	1
NMTAP	69	0	2
NMTAP	69	48	2
NMTAP	69	96	3
NMTAP	69	192	5
NMTAP	69	240	5
NMTAP	69	288	4
NMTAP	70	0	6
NMTAP	70	0	7
NMTAP	70	96	6
NMTAP	70	96	7
NMTAP	70	192	4
NMTAP	70	192	5
NMSTR	70	288	4
NMSF_	70	288	4	96	192	0
NMTAP	70	288	5
BRHLD	72	0	2	192
BRTAP	72	0	6
NMTTP	72	192	0	C	0	M1
NMHLD	73	0	2	72
NMHLD	73	72	3	72
NMTAP	73	144	1
NMHLD	73	192	1	96
NMTAP	73	288	2
NMHLD	74	0	3	72
NMHLD	74	72	2	72
NMTAP	74	144	1
NMTAP	74	192	1
NMTAP	74	288	2
NMTAP	74	288	3
NMTTP	75	0	5	E	0	M1
NMTTP	75	48	6	E	0	M1
NMTTP	75	96	7	E	0	M1
NMTTP	75	144	0	E	0	M1
NMTTP	75	192	1	E	0	M1
NMTTP	75	240	2	E	0	M1
NMTTP	75	288	3	E	0	M1
NMHLD	76	0	4	72
NMHLD	76	0	5	72
NMTAP	76	144	6
NMHLD	76	192	6	72
NMHLD	76	264	4	72
NMTAP	76	336	5
NMHLD	77	0	5	192
NMTAP	77	72	3
NMTAP	77	144	4
NMHLD	77	192	4	192
NMTAP	77	288	5
NMTAP	77	336	5
NMHLD	78	0	6	72
NMHLD	78	72	5	72
NMTAP	78	144	4
NMTAP	78	192	3
NMTAP	78	192	4
NMTAP	78	288	2
NMTAP	78	336	3
NMTAP	79	0	5
NMTAP	79	48	4
NMSTR	79	96	3
NMSI_	79	96	3	96	96	0
NMSTR	79	96	4
NMSI_	79	96	4	96	96	7
NMTAP	80	0	1
NMTAP	80	64	2
NMTAP	80	128	3
NMTAP	80	192	1
NMTAP	80	256	2
NMTAP	80	320	3
NMHLD	81	0	4	192
NMTTP	81	192	0	B	0	M1
NMTTP	81	192	0	E	0	M1
NMTAP	82	0	2
NMTAP	82	64	3
NMTAP	82	128	4
NMTAP	82	192	2
NMTAP	82	256	3
NMTAP	82	320	4
NMHLD	83	0	5	192
NMTTP	83	192	0	E	0	M1
NMTTP	83	192	7	B	0	M1
NMTAP	84	0	3
NMTAP	84	64	4
NMTAP	84	128	5
NMTAP	84	192	3
NMTAP	84	256	4
NMTAP	84	320	5
NMHLD	85	0	6	192
NMTTP	85	192	4	B	0	M1
NMTTP	85	192	4	E	0	M1
NMTAP	86	0	6
NMTAP	86	64	5
NMTAP	86	128	4
NMTAP	86	192	3
NMSTR	86	256	2
NMSUR	86	256	2	96	320	5
NMTAP	86	320	1
NMTAP	88	0	6
NMTAP	88	64	5
NMTAP	88	128	4
NMTAP	88	192	6
NMTAP	88	256	5
NMTAP	88	320	4
NMHLD	89	0	3	192
NMTTP	89	192	0	E	0	M1
NMTTP	89	192	7	B	0	M1
NMTAP	90	0	5
NMTAP	90	64	4
NMTAP	90	128	3
NMTAP	90	192	5
NMTAP	90	256	4
NMTAP	90	320	3
NMHLD	91	0	2	192
NMTTP	91	192	0	B	0	M1
NMTTP	91	192	0	E	0	M1
NMTAP	92	0	4
NMTAP	92	64	3
NMTAP	92	128	2
NMTAP	92	192	4
NMTAP	92	256	3
NMTAP	92	320	2
NMHLD	93	0	1	192
NMTTP	93	192	3	B	0	M1
NMTTP	93	192	4	E	0	M1
NMTAP	94	0	2
NMTAP	94	64	1
NMTAP	94	128	0
NMTAP	94	192	7
NMSTR	94	256	6
NMSCL	94	256	6	96	224	3
NMSUL	94	256	6	96	224	2
NMTAP	94	320	5
NMTAP	96	0	2
NMTAP	96	0	4
NMTAP	96	96	1
NMHLD	96	144	1	96
NMTAP	96	240	0
NMHLD	96	288	0	96
NMTAP	97	0	7
NMHLD	97	48	7	96
NMTAP	97	144	6
NMHLD	97	192	6	96
NMTAP	97	288	4
NMTAP	97	336	4
NMTAP	98	48	3
NMTAP	98	96	3
NMHLD	98	192	2	96
NMHLD	98	192	4	96
NMTAP	99	0	3
NMTAP	99	0	5
NMTAP	99	96	6
NMHLD	99	144	6	96
NMTAP	99	240	7
NMHLD	99	288	7	96
NMTAP	100	0	0
NMHLD	100	48	0	96
NMTAP	100	144	1
NMHLD	100	192	1	96
NMTAP	100	288	3
NMTAP	100	336	3
NMTAP	101	48	4
NMTAP	101	96	4
NMHLD	101	192	3	96
NMHLD	101	192	5	96
NMTAP	102	0	2
NMTAP	102	0	4
NMTAP	102	96	2
NMHLD	102	144	2	96
NMTAP	102	240	0
NMHLD	102	288	0	96
NMTAP	103	0	7
NMHLD	103	48	7	96
NMTAP	103	144	5
NMHLD	103	192	5	96
NMTAP	103	288	4
NMTAP	103	336	4
NMTAP	103	336	5
NMTAP	104	48	2
NMTAP	104	96	2
NMTAP	104	96	3
NMHLD	104	192	1	96
NMHLD	104	192	5	96
NMTAP	105	0	3
NMTAP	105	0	7
NMTAP	105	96	6
NMHLD	105	144	6	96
NMTAP	105	240	4
NMHLD	105	288	4	96
NMTAP	106	0	3
NMHLD	106	48	3	96
NMTAP	106	144	1
NMHLD	106	192	1	96
EXTAP	106	288	7
EXTAP	106	336	7
EXTAP	107	0	7
EXTAP	107	48	7
EXTAP	107	96	1
EXTAP	107	96	7
NMTAP	107	192	2
NMTAP	107	192	6
NMSTR	108	0	1
NMSI_	108	0	1	96	96	5
NMSTR	108	192	7
NMSI_	108	192	7	96	96	3
NMTAP	109	0	2
NMTAP	109	96	2
NMTAP	109	96	3
NMTAP	109	192	0
NMTAP	109	192	1
NMTAP	109	288	6
NMTAP	109	288	7
NMTAP	110	0	4
NMTAP	110	0	5
NMTAP	110	96	2
NMTAP	110	96	3
NMTAP	110	192	0
NMTAP	110	192	1
NMSTR	111	0	7
NMSI_	111	0	7	96	96	3
NMSTR	111	192	1
NMSI_	111	192	1	96	96	5
NMTAP	112	0	6
NMTAP	112	96	6
NMTAP	112	96	7
NMTAP	112	192	4
NMTAP	112	192	5
NMTAP	112	288	2
NMTAP	112	288	3
NMTAP	113	0	0
NMTAP	113	0	1
NMTAP	113	96	6
NMTAP	113	96	7
NMTAP	113	192	4
NMTAP	113	192	5
NMSTR	114	0	3
NMSI_	114	0	3	96	96	7
NMSTR	114	192	6
NMSCR	114	192	6	96	96	1
NMTAP	115	0	3
NMTAP	115	96	2
NMTAP	115	96	3
NMTAP	115	192	0
NMTAP	115	192	1
NMTAP	115	288	6
NMTAP	115	288	7
NMTAP	116	0	4
NMTAP	116	0	5
NMTAP	116	96	2
NMTAP	116	96	3
NMTAP	116	192	0
NMTAP	116	192	1
NMSTR	117	0	1
NMSI_	117	0	1	96	96	4
NMSTR	117	192	3
NMSI_	117	192	3	96	96	6
NMTAP	118	0	7
NMTAP	118	96	6
NMTAP	118	96	7
NMTAP	118	192	4
NMTAP	118	192	5
NMTAP	118	288	2
NMTAP	118	288	3
NMTAP	119	0	0
NMTAP	119	0	1
NMTAP	119	96	6
NMTAP	119	96	7
BRTAP	119	192	0
BRTAP	119	192	5
NMHLD	120	0	2	96
NMHLD	120	0	3	96
NMHLD	120	144	5	96
NMHLD	120	144	6	96
NMTAP	120	288	1
NMTAP	120	288	7
NMHLD	121	0	4	96
NMHLD	121	0	5	96
NMHLD	121	144	1	96
NMHLD	121	144	2	96
NMTAP	121	288	0
NMTAP	121	288	6
NMTAP	122	0	5
NMTAP	122	48	5
NMTAP	122	96	4
NMTAP	122	144	4
NMTAP	122	192	3
NMTAP	122	240	3
NMTAP	122	288	2
NMHLD	123	0	0	96
NMHLD	123	0	1	96
NMHLD	123	144	5	96
NMHLD	123	144	6	96
NMTAP	123	288	2
NMTAP	123	288	4
NMHLD	124	0	6	96
NMHLD	124	0	7	96
NMHLD	124	144	1	96
NMHLD	124	144	2	96
NMTAP	124	288	3
NMTAP	124	288	5
NMTAP	125	0	6
NMTAP	125	48	6
NMTAP	125	96	7
NMTAP	125	144	7
NMTAP	125	192	0
NMTAP	125	240	0
NMTAP	125	288	1
NMHLD	126	0	2	96
NMHLD	126	0	3	96
NMHLD	126	144	4	96
NMHLD	126	144	6	96
NMTAP	126	288	0
NMTAP	126	288	1
NMHLD	127	0	4	96
NMHLD	127	0	5	96
NMHLD	127	144	1	96
NMHLD	127	144	3	96
NMTAP	127	288	6
NMTAP	127	288	7
NMTAP	128	0	6
NMTAP	128	48	6
NMTAP	128	96	4
NMTAP	128	144	4
NMTAP	128	192	2
NMTAP	128	240	2
NMTAP	128	288	0
NMHLD	129	0	6	96
NMHLD	129	0	7	96
NMHLD	129	144	0	96
NMHLD	129	144	2	96
NMTAP	129	288	4
NMTAP	129	288	5
NMHLD	130	0	2	96
NMHLD	130	0	3	96
NMHLD	130	144	5	96
NMHLD	130	144	7	96
NMTAP	130	288	0
NMTAP	130	288	1
NMTAP	131	0	0
NMTAP	131	48	0
NMTAP	131	96	2
NMTAP	131	144	2
NMTAP	131	192	4
NMTAP	131	240	4
NMTAP	131	288	6
NMTAP	132	0	0
NMSTR	132	0	7
NMSXR	132	0	7	96	480	3
NMTAP	134	0	2
NMTAP	134	48	3
NMTAP	134	96	4
NMTAP	134	192	1
NMTAP	134	192	5
NMTAP	134	288	6
NMTAP	134	288	7
NMTAP	135	0	5
NMTAP	135	48	4
NMTAP	135	96	3
NMTAP	135	192	2
NMTAP	135	192	6
NMTAP	135	288	0
NMTAP	135	288	1
NMTAP	136	0	2
NMTAP	136	48	3
NMTAP	136	96	4
NMTAP	136	192	1
NMTAP	136	192	5
NMTAP	136	288	6
NMTAP	136	288	7
NMTAP	137	0	5
NMTAP	137	48	4
NMTAP	137	96	6
BRTAP	137	192	1
BRTAP	137	192	7
NMHLD	138	0	1	192
NMTAP	138	96	0
NMTAP	138	144	7
NMTAP	138	192	6
NMTAP	138	288	3
NMTAP	138	288	5
NMHLD	139	0	6	192
NMTAP	139	96	7
NMTAP	139	144	0
NMTAP	139	192	1
NMTAP	139	288	2
NMTAP	139	288	4
NMHLD	140	0	1	192
NMTAP	140	96	0
NMTAP	140	144	7
NMTAP	140	192	6
NMTAP	140	288	3
NMTAP	140	288	5
NMTAP	141	0	1
NMTAP	141	0	3
NMTAP	141	48	1
NMTAP	141	48	3
NMTAP	141	96	1
NMTAP	141	96	3
BRTAP	141	192	0
BRTAP	141	192	4
NMTAP	142	0	2
NMTAP	142	48	2
NMTAP	142	96	3
NMTAP	142	144	1
NMTAP	142	192	7
NMTAP	142	240	7
NMTAP	142	288	0
NMTAP	142	288	6
NMTAP	143	0	5
NMTAP	143	48	5
NMTAP	143	96	4
NMTAP	143	144	6
NMTAP	143	192	0
NMTAP	143	240	0
NMTAP	143	288	1
NMTAP	143	288	7
NMTAP	144	0	2
NMTAP	144	48	2
NMTAP	144	96	3
NMTAP	144	144	1
NMTAP	144	192	6
NMTAP	144	240	6
NMTAP	144	288	7
NMTAP	144	336	5
NMHLD	145	0	0	96
NMTAP	145	96	5
NMTAP	145	144	6
NMTAP	145	192	7
NMTAP	145	240	0
NMTAP	145	288	1
BRTAP	145	336	2

T_REC_TAP	477
T_REC_BRK	8
T_REC_XTP	13
T_REC_BXX	0
T_REC_HLD	91
T_REC_XHO	5
T_REC_BHO	1
T_REC_BXH	0
T_REC_STR	16
T_REC_BST	0
T_REC_XST	0
T_REC_XBS	0
T_REC_TTP	43
T_REC_THO	1
T_REC_SLD	18
T_REC_BSL	0
T_REC_ALL	673
T_NUM_TAP	549
T_NUM_BRK	9
T_NUM_HLD	97
T_NUM_SLD	18
T_NUM_ALL	673
T_JUDGE_TAP	557
T_JUDGE_HLD	190
T_JUDGE_SLD	18
T_JUDGE_ALL	765
TTM_EACHPAIRS	144
TTM_SCR_TAP	274500
TTM_SCR_BRK	23400
TTM_SCR_HLD	97000
TTM_SCR_SLD	27000
TTM_SCR_ALL	421900
TTM_SCR_S	408400
TTM_SCR_SS	421000
TTM_RAT_ACV	10021

