VERSION	0.00.00	1.05.00
FES_MODE	0
BPM_DEF	256.000	256.000	256.000	128.000
MET_DEF	4	4
RESOLUTION	384
CLK_DEF	384
COMPATIBLE_CODE	MA2

BPM	0	0	256.000
BPM	72	0	128.000
BPM	80	0	256.000
BPM	132	0	128.000
BPM	134	0	256.000
MET	0	0	4	4
MET	26	0	4	6
MET	44	0	4	4

NMHLD	2	0	5	384
NMHLD	3	0	4	384
NMHLD	4	0	3	384
NMTAP	5	0	2
NMHLD	6	0	2	384
NMHLD	7	0	3	384
NMHLD	8	0	4	384
NMTAP	9	0	5
NMHLD	10	0	6	384
NMHLD	11	0	5	384
NMHLD	12	0	4	384
NMTAP	13	0	3
NMTAP	14	0	2
NMTAP	14	192	2
NMTAP	15	0	1
NMTAP	15	192	1
NMTAP	16	0	0
NMTAP	16	192	0
NMTAP	17	0	7
NMTAP	17	192	7
NMTAP	18	0	6
NMTAP	18	192	6
NMTAP	19	0	4
NMTAP	19	0	5
NMTAP	20	0	5
NMTAP	20	192	5
NMTAP	21	0	6
NMTAP	21	192	6
NMTAP	22	0	7
NMTAP	22	192	7
NMTAP	23	0	0
NMTAP	23	192	0
NMTAP	24	0	1
NMTAP	24	192	1
NMTAP	25	0	2
NMTAP	25	0	3
NMSTR	26	0	2
NMSI_	26	0	2	96	384	5
NMTAP	28	0	6
NMTAP	28	192	6
NMSTR	29	0	6
NMSI_	29	0	6	96	384	3
NMTAP	31	0	2
NMTAP	31	192	2
NMSTR	32	0	1
NMSI_	32	0	1	96	384	5
NMTAP	34	0	6
NMTAP	34	192	6
NMSTR	35	0	7
NMSI_	35	0	7	96	384	3
NMTAP	37	0	2
NMTAP	37	192	2
NMSTR	38	0	2
NMSI_	38	0	2	96	384	7
NMTAP	40	0	6
NMTAP	40	192	6
NMSTR	41	0	6
NMSUL	41	0	6	96	864	3
NMHLD	44	0	2	384
NMTAP	45	0	3
NMHLD	46	0	5	384
NMTAP	47	0	4
NMTAP	48	0	6
NMTAP	48	192	6
NMTAP	49	0	5
NMTAP	49	192	5
NMTAP	50	0	4
NMTAP	50	192	4
NMTAP	51	0	2
NMTAP	51	0	3
NMTAP	52	0	1
NMTAP	52	192	1
NMTAP	53	0	2
NMTAP	53	192	2
NMTAP	54	0	3
NMTAP	54	192	3
NMTAP	55	0	4
NMTAP	55	0	5
NMTAP	56	0	4
NMTAP	56	0	5
NMTAP	56	192	4
NMTAP	56	192	5
NMTAP	57	0	6
NMTAP	57	0	7
NMTAP	57	192	6
NMTAP	57	192	7
NMTAP	58	0	0
NMTAP	58	0	1
NMTAP	58	192	0
NMTAP	58	192	1
NMTAP	59	0	2
NMTAP	59	0	3
NMTAP	60	0	2
NMTAP	60	0	3
NMTAP	60	192	2
NMTAP	60	192	3
NMTAP	61	0	0
NMTAP	61	0	1
NMTAP	61	192	0
NMTAP	61	192	1
NMTAP	62	0	6
NMTAP	62	0	7
NMTAP	62	192	6
NMTAP	62	192	7
NMTAP	63	0	4
NMTAP	63	0	5
NMTAP	64	0	5
NMTAP	64	96	5
NMTAP	64	192	4
NMTAP	64	192	5
NMTAP	65	0	6
NMTAP	65	96	6
NMTAP	65	192	6
NMTAP	65	192	7
NMTAP	66	0	0
NMTAP	66	96	0
NMTAP	66	192	0
NMTAP	66	192	1
NMTAP	67	0	2
NMTAP	67	0	3
NMTAP	67	96	2
NMTAP	67	96	3
NMTAP	67	192	2
NMTAP	67	192	3
NMTAP	68	0	2
NMTAP	68	96	2
NMTAP	68	192	2
NMTAP	68	192	3
NMTAP	69	0	1
NMTAP	69	96	1
NMTAP	69	192	0
NMTAP	69	192	1
NMTAP	70	0	7
NMTAP	70	96	7
NMTAP	70	192	6
NMTAP	70	192	7
NMTAP	71	0	4
NMTAP	71	0	5
NMTAP	71	96	4
NMTAP	71	96	5
NMTAP	71	192	4
NMTAP	71	192	5
NMTTP	72	0	6	B	0	L1
NMTTP	72	96	5	B	0	L1
NMTTP	72	192	4	B	0	L1
NMTTP	73	0	1	B	0	L1
NMTTP	73	96	2	B	0	L1
NMTTP	73	192	3	B	0	L1
NMTTP	74	0	6	B	0	L1
NMTTP	74	96	5	B	0	L1
NMTTP	74	192	4	B	0	L1
NMTTP	74	288	3	B	0	L1
NMTTP	75	0	2	B	0	L1
NMTTP	75	96	1	B	0	L1
NMTTP	75	192	0	C	0	L1
NMTTP	76	0	0	B	0	L1
NMTTP	76	96	1	B	0	L1
NMTTP	76	192	2	B	0	L1
NMTTP	76	192	3	B	0	L1
NMTTP	77	0	7	B	0	L1
NMTTP	77	96	6	B	0	L1
NMTTP	77	192	4	B	0	L1
NMTTP	77	192	5	B	0	L1
NMTTP	78	0	1	B	0	L1
NMTTP	78	96	2	B	0	L1
NMTTP	78	192	3	B	0	L1
NMTTP	78	288	4	B	0	L1
NMTTP	79	0	5	B	0	L1
NMTTP	79	96	6	B	0	L1
NMTTP	79	192	0	C	0	L1
NMHLD	80	0	1	384
NMTAP	81	0	0
NMTAP	82	0	0
NMTAP	82	0	1
NMTAP	82	192	0
NMTAP	82	192	1
NMTAP	83	0	0
NMTAP	83	0	1
NMHLD	84	0	2	384
NMTAP	85	0	3
NMTAP	86	0	2
NMTAP	86	0	3
NMTAP	86	192	2
NMTAP	86	192	3
NMTAP	87	0	2
NMTAP	87	0	3
NMHLD	88	0	5	384
NMTAP	89	0	4
NMTAP	90	0	4
NMTAP	90	0	5
NMTAP	90	192	4
NMTAP	90	192	5
NMTAP	91	0	4
NMTAP	91	0	5
NMHLD	92	0	6	384
NMTAP	93	0	7
NMTAP	94	0	6
NMTAP	94	0	7
NMTAP	94	192	6
NMTAP	94	192	7
NMTAP	95	0	6
NMTAP	95	0	7
NMTAP	96	0	5
NMTAP	96	96	5
NMTAP	96	192	5
NMTAP	97	0	6
NMTAP	97	0	7
NMTAP	97	192	0
NMTAP	97	192	7
NMTAP	98	0	0
NMTAP	98	0	1
NMTAP	99	0	2
NMTAP	99	96	2
NMTAP	99	192	2
NMTAP	100	0	0
NMTAP	100	0	1
NMTAP	100	192	0
NMTAP	100	192	7
NMTAP	101	0	6
NMTAP	101	0	7
NMTAP	102	0	6
NMTAP	102	96	6
NMTAP	102	192	6
NMTAP	103	0	4
NMTAP	103	0	5
NMTAP	103	192	3
NMTAP	103	192	4
NMTAP	104	0	2
NMTAP	104	0	3
NMTAP	105	0	1
NMTAP	105	96	1
NMTAP	105	192	1
NMTAP	106	0	2
NMTAP	106	0	3
NMTAP	106	192	3
NMTAP	106	192	4
NMTAP	107	0	4
NMTAP	107	0	5
NMTAP	108	0	6
NMTAP	108	96	6
NMTAP	108	192	6
NMTAP	108	192	7
NMTAP	109	0	5
NMTAP	109	96	5
NMTAP	109	192	4
NMTAP	109	192	5
NMTAP	110	0	2
NMTAP	110	0	3
NMTAP	110	192	2
NMTAP	110	192	3
NMTAP	111	0	1
NMTAP	111	96	1
NMTAP	111	192	0
NMTAP	111	192	1
NMTAP	112	0	2
NMTAP	112	96	2
NMTAP	112	192	2
NMTAP	112	192	3
NMTAP	113	0	4
NMTAP	113	0	5
NMTAP	113	192	4
NMTAP	113	192	5
NMTAP	114	0	5
NMTAP	114	96	5
NMTAP	114	192	4
NMTAP	114	192	5
NMTAP	115	0	6
NMTAP	115	96	6
NMTAP	115	192	6
NMTAP	115	192	7
NMTAP	116	0	0
NMTAP	116	0	1
NMTAP	116	192	0
NMTAP	116	192	1
NMTAP	117	0	2
NMTAP	117	96	2
NMTAP	117	192	2
NMTAP	117	192	3
NMTAP	118	0	1
NMTAP	118	96	1
NMTAP	118	192	0
NMTAP	118	192	1
NMTAP	119	0	6
NMTAP	119	0	7
NMTAP	120	0	0
NMTAP	120	96	0
NMTAP	120	192	1
NMTAP	120	288	1
NMTAP	121	0	2
NMTAP	121	96	2
NMTAP	121	192	3
NMTAP	121	192	4
NMTAP	122	0	3
NMTAP	122	0	4
NMTAP	123	0	4
NMTAP	123	96	4
NMTAP	123	192	5
NMTAP	123	288	5
NMTAP	124	0	6
NMTAP	124	96	6
NMTAP	124	192	0
NMTAP	124	192	7
NMTAP	125	0	0
NMTAP	125	0	7
NMTAP	126	0	7
NMTAP	126	96	7
NMTAP	126	192	6
NMTAP	126	288	6
NMTAP	127	0	5
NMTAP	127	96	5
NMTAP	127	192	3
NMTAP	127	192	4
NMTAP	128	0	3
NMTAP	128	0	4
NMTAP	129	0	3
NMTAP	129	96	3
NMTAP	129	192	2
NMTAP	129	288	2
NMTAP	130	0	1
NMTAP	130	96	1
NMTAP	130	192	0
NMTAP	130	192	7
NMTAP	131	0	0
NMTAP	131	0	7
NMSTR	132	0	0
NMSXL	132	0	0	96	480	3
NMSTR	132	0	7
NMSXR	132	0	7	96	480	4
NMTAP	134	0	5
NMTAP	134	96	5
NMTAP	134	192	5
NMTAP	134	288	4
NMTAP	134	288	5
NMTAP	135	0	6
NMTAP	135	96	6
NMTAP	135	192	6
NMTAP	135	288	6
NMTAP	135	288	7
NMTAP	136	0	0
NMTAP	136	96	0
NMTAP	136	192	0
NMTAP	136	288	0
NMTAP	136	288	1
NMTAP	137	0	2
NMTAP	137	96	2
NMTAP	137	192	2
NMTAP	137	192	3
BRTAP	138	0	2
NMTAP	138	96	2
NMTAP	138	192	2
NMTAP	138	288	2
NMTAP	138	288	3
NMTAP	139	0	1
NMTAP	139	96	1
NMTAP	139	192	1
NMTAP	139	288	0
NMTAP	139	288	1
NMTAP	140	0	7
NMTAP	140	96	7
NMTAP	140	192	7
NMTAP	140	288	6
NMTAP	140	288	7
NMTAP	141	0	5
NMTAP	141	96	5
NMTAP	141	192	4
NMTAP	141	192	5
NMTAP	142	0	2
NMTAP	142	0	3
NMTAP	142	96	2
NMTAP	142	96	3
NMTAP	142	192	2
NMTAP	142	192	3
NMTAP	143	0	4
NMTAP	143	0	5
NMTAP	143	96	4
NMTAP	143	96	5
NMTAP	143	192	4
NMTAP	143	192	5
NMTAP	144	0	3
NMTAP	144	0	4
NMTAP	144	96	3
NMTAP	144	96	4
NMTAP	144	192	2
NMTAP	144	192	5
NMTAP	144	288	2
NMTAP	144	288	5
NMTAP	145	0	1
NMTAP	145	0	6
NMTAP	145	96	1
NMTAP	145	96	6
NMTAP	145	192	0
NMTAP	145	192	7
BXTAP	145	288	0
BXTAP	145	288	7

T_REC_TAP	332
T_REC_BRK	1
T_REC_XTP	0
T_REC_BXX	2
T_REC_HLD	15
T_REC_XHO	0
T_REC_BHO	0
T_REC_BXH	0
T_REC_STR	8
T_REC_BST	0
T_REC_XST	0
T_REC_XBS	0
T_REC_TTP	28
T_REC_THO	0
T_REC_SLD	8
T_REC_BSL	0
T_REC_ALL	394
T_NUM_TAP	368
T_NUM_BRK	3
T_NUM_HLD	15
T_NUM_SLD	8
T_NUM_ALL	394
T_JUDGE_TAP	371
T_JUDGE_HLD	60
T_JUDGE_SLD	8
T_JUDGE_ALL	439
TTM_EACHPAIRS	100
TTM_SCR_TAP	184000
TTM_SCR_BRK	7800
TTM_SCR_HLD	15000
TTM_SCR_SLD	12000
TTM_SCR_ALL	218800
TTM_SCR_S	211950
TTM_SCR_SS	218500
TTM_RAT_ACV	10013

