VERSION	0.00.00	1.05.00
FES_MODE	0
BPM_DEF	256.000	256.000	256.000	128.000
MET_DEF	4	4
RESOLUTION	384
CLK_DEF	384
COMPATIBLE_CODE	MA2

BPM	0	0	256.000
BPM	72	0	128.000
BPM	80	0	256.000
BPM	132	0	128.000
BPM	134	0	256.000
MET	0	0	4	4
MET	26	0	4	6
MET	44	0	4	4

NMTAP	2	0	7
NMTAP	2	192	7
NMTAP	3	0	6
NMTAP	4	0	5
NMTAP	4	192	5
NMTAP	5	0	3
NMTAP	5	0	4
NMTAP	6	0	2
NMTAP	6	192	2
NMTAP	7	0	0
NMTAP	7	0	1
NMTAP	8	0	0
NMTAP	8	192	0
NMTAP	9	0	1
NMTAP	10	0	2
NMTAP	10	192	2
NMTAP	11	0	3
NMTAP	11	0	4
NMTAP	12	0	5
NMTAP	12	192	5
NMTAP	13	0	6
NMTAP	13	0	7
NMTAP	14	0	7
NMTAP	14	192	7
NMTAP	15	0	6
NMTAP	15	192	6
NMTAP	16	0	4
NMTAP	16	0	5
NMTAP	17	0	3
NMTAP	17	192	3
NMTAP	18	0	2
NMTAP	18	192	2
NMTAP	19	0	0
NMTAP	19	0	1
NMTAP	20	0	7
NMTAP	20	192	7
NMTAP	21	0	6
NMTAP	21	0	7
NMTAP	22	0	0
NMTAP	22	192	0
NMTAP	23	0	0
NMTAP	23	0	1
NMTAP	24	0	7
NMTAP	24	192	7
NMTAP	25	0	0
NMTAP	25	0	7
NMSTR	26	0	7
NMSI_	26	0	7	96	480	3
NMSTR	29	0	0
NMSI_	29	0	0	96	480	4
NMSTR	32	0	7
NMSI_	32	0	7	96	480	2
NMSTR	35	0	0
NMSI_	35	0	0	96	480	5
NMSTR	38	0	6
NMSI_	38	0	6	96	480	3
NMSTR	41	0	1
NMSI_	41	0	1	96	480	4
NMTTP	44	0	0	C	1	L1
NMTAP	48	0	0
NMTAP	48	192	0
NMTAP	49	0	1
NMTAP	49	192	1
NMTAP	50	0	2
NMTAP	50	192	2
NMTAP	51	0	3
NMTAP	51	192	3
NMTAP	52	0	4
NMTAP	52	192	4
NMTAP	53	0	5
NMTAP	53	192	5
NMTAP	54	0	6
NMTAP	54	192	6
NMTAP	55	0	0
NMTAP	55	0	7
NMTAP	56	0	7
NMTAP	56	192	7
NMTAP	57	0	6
NMTAP	57	192	6
NMTAP	58	0	5
NMTAP	58	192	5
NMTAP	59	0	4
NMTAP	59	192	4
NMTAP	60	0	3
NMTAP	60	192	3
NMTAP	61	0	2
NMTAP	61	192	2
NMTAP	62	0	1
NMTAP	62	192	1
NMTAP	63	0	0
NMTAP	63	0	1
BRTAP	64	0	0
NMTAP	64	96	0
NMTAP	64	192	0
NMTAP	65	0	1
NMTAP	65	192	1
NMTAP	66	0	2
NMTAP	66	96	2
NMTAP	66	192	2
NMTAP	67	0	3
NMTAP	67	192	3
NMTAP	68	0	4
NMTAP	68	96	4
NMTAP	68	192	4
NMTAP	69	0	5
NMTAP	69	192	5
NMTAP	70	0	6
NMTAP	70	96	6
NMTAP	70	192	6
EXTAP	71	0	0
EXTAP	71	0	7
NMTTP	72	0	7	B	0	L1
NMTTP	73	0	0	B	0	L1
NMTTP	74	0	6	B	0	L1
NMTTP	75	0	1	B	0	L1
NMTTP	76	0	5	B	0	L1
NMTTP	77	0	2	B	0	L1
NMTTP	78	0	4	B	0	L1
NMTTP	79	0	0	C	0	L1
NMHLD	80	0	6	384
NMHLD	80	0	7	384
NMTAP	82	0	6
NMTAP	82	0	7
NMTAP	82	192	6
NMTAP	82	192	7
NMTAP	83	0	6
NMTAP	83	0	7
NMHLD	84	0	4	384
NMHLD	84	0	5	384
NMTAP	86	0	4
NMTAP	86	0	5
NMTAP	86	192	4
NMTAP	86	192	5
NMTAP	87	0	4
NMTAP	87	0	5
NMHLD	88	0	2	384
NMHLD	88	0	3	384
NMTAP	90	0	2
NMTAP	90	0	3
NMTAP	90	192	2
NMTAP	90	192	3
NMTAP	91	0	2
NMTAP	91	0	3
NMHLD	92	0	0	384
NMHLD	92	0	1	384
NMTAP	94	0	0
NMTAP	94	0	1
NMTAP	94	192	0
NMTAP	94	192	1
NMTAP	95	0	0
NMTAP	95	0	1
BRTAP	96	0	0
NMTAP	96	96	0
NMTAP	96	192	0
NMTAP	97	0	1
NMTAP	97	96	1
NMTAP	97	192	1
NMTAP	98	0	2
NMTAP	98	96	2
NMTAP	98	192	2
NMTAP	98	192	3
NMTAP	99	0	4
NMTAP	99	96	4
NMTAP	99	192	4
NMTAP	100	0	5
NMTAP	100	96	5
NMTAP	100	192	5
NMTAP	101	0	6
NMTAP	101	96	6
NMTAP	101	192	6
NMTAP	101	192	7
NMTAP	102	0	7
NMTAP	102	96	7
NMTAP	102	192	7
NMTAP	103	0	6
NMTAP	103	96	6
NMTAP	103	192	6
NMTAP	104	0	5
NMTAP	104	96	5
NMTAP	104	192	4
NMTAP	104	192	5
NMTAP	105	0	3
NMTAP	105	96	3
NMTAP	105	192	3
NMTAP	106	0	2
NMTAP	106	96	2
NMTAP	106	192	2
EXTAP	107	0	0
EXTAP	107	0	1
NMSTR	108	0	0
NMSI_	108	0	0	96	288	5
NMTAP	110	0	6
NMSTR	111	0	7
NMSI_	111	0	7	96	288	2
NMTAP	113	0	1
NMSTR	114	0	1
NMSI_	114	0	1	96	288	4
NMTAP	116	0	5
NMSTR	117	0	6
NMSI_	117	0	6	96	288	2
NMTAP	119	0	1
NMTAP	120	0	0
NMTAP	120	96	0
NMTAP	120	192	0
NMTAP	120	288	0
NMTAP	121	0	1
NMTAP	121	96	1
NMTAP	121	192	0
NMTAP	121	192	1
NMTAP	122	0	2
NMTAP	122	96	2
NMTAP	122	192	2
NMTAP	122	288	2
NMTAP	123	0	3
NMTAP	123	96	3
NMTAP	123	192	3
NMTAP	123	192	4
NMTAP	124	0	4
NMTAP	124	96	4
NMTAP	124	192	4
NMTAP	124	288	4
NMTAP	125	0	5
NMTAP	125	96	5
NMTAP	125	192	4
NMTAP	125	192	5
NMTAP	126	0	6
NMTAP	126	96	6
NMTAP	126	192	6
NMTAP	126	288	6
NMTAP	127	0	7
NMTAP	127	96	7
NMTAP	127	192	0
NMTAP	127	192	7
NMTAP	128	0	0
NMTAP	128	96	0
NMTAP	128	192	0
NMTAP	128	288	0
NMTAP	129	0	1
NMTAP	129	96	1
NMTAP	129	192	0
NMTAP	129	192	1
NMTAP	130	0	7
NMTAP	130	96	7
NMTAP	130	192	7
NMTAP	130	288	7
NMTAP	131	0	0
NMTAP	131	0	7
NMTAP	131	96	0
NMTAP	131	96	7
NMTAP	131	192	0
NMTAP	131	192	7
NMSTR	132	0	0
NMSI_	132	0	0	96	288	3
NMSTR	132	0	7
NMSI_	132	0	7	96	288	4
NMTAP	134	0	3
NMTAP	134	96	3
NMTAP	134	192	2
NMTAP	134	288	2
NMTAP	135	0	1
NMTAP	135	96	1
NMTAP	135	192	0
NMTAP	135	192	1
NMTAP	136	0	7
NMTAP	136	96	7
NMTAP	136	192	6
NMTAP	136	288	6
NMTAP	137	0	5
NMTAP	137	96	5
NMTAP	137	192	4
NMTAP	137	192	5
NMTAP	138	0	4
NMTAP	138	96	4
NMTAP	138	192	5
NMTAP	138	288	5
NMTAP	139	0	6
NMTAP	139	96	6
NMTAP	139	192	0
NMTAP	139	192	7
NMTAP	140	0	0
NMTAP	140	96	0
NMTAP	140	192	1
NMTAP	140	288	1
NMTAP	141	0	2
NMTAP	141	96	2
NMTAP	141	192	3
NMTAP	141	192	4
NMTAP	142	0	5
NMTAP	142	96	5
NMTAP	142	192	4
NMTAP	142	288	4
NMTAP	143	0	3
NMTAP	143	96	3
NMTAP	143	192	2
NMTAP	143	288	2
NMTAP	144	0	3
NMTAP	144	0	4
NMTAP	144	96	3
NMTAP	144	96	4
NMTAP	144	192	2
NMTAP	144	192	5
NMTAP	144	288	2
NMTAP	144	288	5
NMTAP	145	0	1
NMTAP	145	0	6
NMTAP	145	96	1
NMTAP	145	96	6
NMTAP	145	192	0
NMTAP	145	192	7
BRTAP	145	288	0
BRTAP	145	288	7

T_REC_TAP	262
T_REC_BRK	4
T_REC_XTP	4
T_REC_BXX	0
T_REC_HLD	8
T_REC_XHO	0
T_REC_BHO	0
T_REC_BXH	0
T_REC_STR	12
T_REC_BST	0
T_REC_XST	0
T_REC_XBS	0
T_REC_TTP	9
T_REC_THO	0
T_REC_SLD	12
T_REC_BSL	0
T_REC_ALL	311
T_NUM_TAP	287
T_NUM_BRK	4
T_NUM_HLD	8
T_NUM_SLD	12
T_NUM_ALL	311
T_JUDGE_TAP	291
T_JUDGE_HLD	32
T_JUDGE_SLD	12
T_JUDGE_ALL	335
TTM_EACHPAIRS	53
TTM_SCR_TAP	143500
TTM_SCR_BRK	10400
TTM_SCR_HLD	8000
TTM_SCR_SLD	18000
TTM_SCR_ALL	179900
TTM_SCR_S	174150
TTM_SCR_SS	179500
TTM_RAT_ACV	10022

