VERSION	0.00.00	1.05.00
FES_MODE	0
BPM_DEF	150.000	150.000	150.000	150.000
MET_DEF	4	4
RESOLUTION	384
CLK_DEF	384
COMPATIBLE_CODE	MA2

BPM	0	0	150.000
MET	0	0	4	4
MET	40	0	4	3
MET	42	96	4	2
MET	42	288	4	4

NMHLD	1	0	3	1464
NMTAP	1	0	5
NMHLD	1	72	5	72
NMTAP	1	192	5
NMHLD	1	264	5	72
NMTAP	2	0	5
NMHLD	2	72	5	72
NMTAP	2	192	5
NMTAP	2	264	4
NMTTP	2	312	3	B	0	M1
NMTAP	3	0	5
NMHLD	3	72	5	72
NMTAP	3	192	5
NMHLD	3	264	5	72
NMTAP	4	0	5
NMHLD	4	72	5	72
NMTAP	4	192	5
NMTAP	4	264	4
NMTTP	4	312	3	B	0	M1
NMTAP	5	0	5
NMTAP	5	48	4
NMHLD	5	72	5	72
NMTAP	5	144	4
NMTAP	5	192	5
NMTAP	5	240	4
NMHLD	5	264	5	72
NMTAP	5	336	3
NMTAP	6	0	1
NMTAP	6	48	3
NMHLD	6	72	1	72
NMTAP	6	144	3
NMTAP	6	192	1
NMHLD	6	240	4	72
NMHLD	6	264	2	48
NMTAP	7	0	5
NMTAP	7	48	4
NMHLD	7	72	5	72
NMHLD	7	144	4	48
NMTAP	7	192	6
NMTAP	7	240	4
NMHLD	7	264	6	72
NMTAP	7	336	4
NMHLD	8	0	5	48
NMHLD	8	0	7	48
NMTAP	8	72	5
NMTAP	8	72	7
NMTAP	8	120	4
NMTAP	8	120	6
NMTAP	8	168	3
NMTAP	8	192	4
NMTAP	8	208	2
NMTAP	8	224	4
NMTAP	8	240	2
BRTAP	8	288	0
BRTAP	8	288	3
BRTAP	9	0	7
NMTAP	9	48	6
NMSTR	9	96	5
NMSI_	9	96	5	96	48	1
NMTAP	9	144	4
NMHLD	9	192	3	96
CNSI_	9	240	1	0	48	6
CNSI_	9	288	6	0	48	0
BRTAP	10	0	3
NMTAP	10	48	2
NMSTR	10	96	1
NMSI_	10	96	1	96	48	5
NMTAP	10	144	0
NMHLD	10	192	7	96
CNSI_	10	240	5	0	48	2
CNSI_	10	288	2	0	48	4
BRTAP	11	0	7
NMTAP	11	48	0
NMSTR	11	96	1
NMSI_	11	96	1	96	48	5
NMTAP	11	144	2
NMHLD	11	192	3	96
CNSI_	11	240	5	0	48	0
CNSI_	11	288	0	0	48	6
BRTAP	12	0	3
NMTAP	12	48	4
NMSTR	12	96	5
BRSV_	12	96	5	96	48	0
NMTAP	12	144	6
EXHLD	12	192	7	96
EXTAP	12	288	1
BRSTR	13	0	0
NMSCL	13	0	0	96	48	7
NMSTR	13	48	1
NMSI_	13	48	1	96	48	3
NMTAP	13	96	2
CNSI_	13	144	7	0	48	5
CNSCR	13	192	3	0	48	4
CNSI_	13	240	4	0	48	0
EXTAP	13	288	5
BRSTR	14	0	7
NMSCR	14	0	7	96	48	0
NMSTR	14	48	6
NMSI_	14	48	6	96	48	4
NMTAP	14	96	5
CNSI_	14	144	0	0	48	2
CNSCL	14	192	4	0	48	3
CNSI_	14	240	3	0	48	7
EXTAP	14	288	2
BRSTR	15	0	7
NMSI_	15	0	7	96	48	5
NMTAP	15	48	0
NMSTR	15	96	1
NMSI_	15	96	1	96	48	3
CNSCL	15	144	5	0	24	4
CNSI_	15	168	4	0	48	0
NMTAP	15	288	2
NMTAP	15	288	7
NMTAP	16	0	5
NMTAP	16	24	4
NMTAP	16	48	5
NMTAP	16	72	4
NMSTR	16	96	6
NMSCR	16	96	6	96	96	4
NMTAP	16	144	5
NMTAP	16	192	4
BRTAP	16	288	0
BRHLD	17	0	1	72
NMTAP	17	72	3
NMTAP	17	96	2
NMTAP	17	120	3
NMTAP	17	168	3
NMTAP	17	192	1
NMTAP	17	216	3
NMTAP	17	264	3
NMTAP	17	288	2
NMTAP	17	336	2
NMTAP	17	336	3
NMHLD	18	0	1	72
NMTAP	18	0	2
NMTAP	18	72	0
NMTAP	18	96	1
NMTAP	18	120	0
NMTAP	18	168	0
NMTAP	18	192	3
NMTAP	18	216	0
NMTAP	18	264	0
NMTAP	18	288	1
NMTAP	18	312	7
NMTAP	18	336	7
NMTAP	18	360	0
NMHLD	19	0	6	72
NMTAP	19	72	4
NMTAP	19	96	5
NMTAP	19	120	4
NMTAP	19	168	4
NMTAP	19	192	7
NMTAP	19	216	4
NMTAP	19	264	4
NMTAP	19	288	5
NMTAP	19	336	4
NMTAP	19	336	5
NMTAP	20	0	5
NMHLD	20	0	6	72
NMTAP	20	72	7
NMTAP	20	96	6
NMTAP	20	120	7
NMTAP	20	168	7
NMTAP	20	192	4
NMTAP	20	216	7
NMTAP	20	264	7
NMTAP	20	288	6
NMTAP	20	312	0
NMTAP	20	336	0
NMTAP	20	360	7
NMHLD	21	0	1	72
NMTAP	21	72	3
NMTAP	21	96	2
NMTAP	21	120	3
NMTAP	21	168	3
NMTAP	21	192	0
NMTAP	21	216	3
NMTAP	21	240	1
NMTAP	21	264	3
NMTAP	21	288	2
NMTAP	21	312	3
NMHLD	21	336	1	48
NMHLD	22	0	7	72
NMTAP	22	72	4
NMTAP	22	96	5
NMTAP	22	120	4
NMTAP	22	168	4
NMTAP	22	192	7
NMTAP	22	216	4
NMTAP	22	240	6
NMTAP	22	264	4
NMSTR	22	288	5
NMSCR	22	288	5	96	96	2
NMTAP	22	312	3
NMTAP	22	336	4
NMTAP	22	360	2
NMSTR	23	96	5
BRSCR	23	96	5	96	96	2
NMHLD	23	288	5	96
NMTAP	24	0	2
NMTAP	24	16	1
NMTAP	24	32	0
NMTAP	24	48	7
NMTAP	24	64	6
NMTAP	24	80	5
NMTAP	24	96	4
NMTAP	24	112	3
NMTAP	24	128	2
NMTAP	24	144	1
NMTAP	24	160	0
NMTAP	24	176	7
NMTAP	24	192	4
NMTAP	24	208	5
NMTAP	24	224	6
NMTAP	24	240	7
NMTAP	24	256	0
NMTAP	24	272	1
NMTAP	24	288	2
NMTAP	24	304	3
NMTAP	24	320	4
NMTAP	24	336	5
NMTAP	24	352	6
NMTAP	24	368	7
BXTAP	25	0	0
EXHLD	25	0	4	192
NMTAP	25	192	1
NMTAP	26	0	2
NMHLD	26	0	4	192
BRTAP	26	192	3
NMHLD	27	0	5	96
NMTAP	27	96	3
NMTAP	27	120	4
NMTAP	27	144	5
NMTAP	27	168	6
NMTAP	27	216	6
NMHLD	27	264	6	120
NMTAP	28	0	4
NMTAP	28	48	4
NMTAP	28	72	5
NMTAP	28	120	3
NMTAP	28	120	6
NMHLD	28	168	3	144
NMHLD	28	168	6	120
NMTTP	29	0	5	A	0	M1
NMTTP	29	16	5	D	0	M1
NMTTP	29	32	4	A	0	M1
NMTTP	29	48	4	D	0	M1
NMTTP	29	64	3	A	0	M1
NMTTP	29	80	3	D	0	M1
BXTAP	29	96	0
NMTTP	29	96	2	A	0	M1
NMTAP	29	168	1
NMTAP	29	216	1
NMHLD	29	264	1	120
NMTAP	30	0	3
NMTAP	30	48	3
NMTAP	30	72	2
NMTAP	30	120	1
NMTAP	30	120	4
NMHLD	30	168	1	120
NMHLD	30	168	4	144
NMHLD	31	0	2	96
NMTAP	31	96	4
NMTAP	31	120	3
NMTAP	31	144	2
NMTAP	31	168	1
NMTAP	31	216	1
NMTAP	31	264	1
NMTAP	31	288	3
NMTAP	31	312	2
NMTAP	31	336	4
NMTAP	31	360	3
NMHLD	32	0	5	72
NMHLD	32	72	0	72
NMHLD	32	144	2	192
NMHLD	32	216	6	120
NMSTR	33	0	3
NMSI_	33	0	3	96	48	7
NMTAP	33	24	7
NMTAP	33	72	1
NMTAP	33	96	3
NMTAP	33	144	2
NMSTR	33	192	3
NMSCL	33	192	3	96	48	0
NMTAP	33	224	7
NMTAP	33	256	6
NMTAP	33	288	5
NMTAP	33	320	4
NMTAP	33	352	3
NMHLD	34	0	2	48
NMHLD	34	72	0	48
NMHLD	34	144	5	48
NMSTR	34	192	7
NMSI_	34	192	7	96	48	1
NMTAP	34	224	6
NMTAP	34	256	6
NMTAP	34	288	5
NMTAP	34	288	7
NMSTR	35	0	4
NMSI_	35	0	4	96	48	0
NMTAP	35	24	0
NMTAP	35	72	6
NMTAP	35	96	4
NMTAP	35	144	5
NMSTR	35	192	4
NMSCR	35	192	4	96	48	7
NMTAP	35	224	0
NMTAP	35	256	1
NMTAP	35	288	2
NMTAP	35	320	3
NMTAP	35	352	4
NMHLD	36	0	5	48
NMHLD	36	72	7	48
NMHLD	36	144	2	48
NMSTR	36	192	0
NMSCL	36	192	0	96	48	5
NMTAP	36	224	1
NMTAP	36	256	1
NMTAP	36	288	0
NMTAP	36	288	2
NMTAP	37	0	4
NMTAP	37	48	6
NMHLD	37	72	6	48
NMTAP	37	120	4
NMHLD	37	144	4	48
NMTAP	37	192	3
NMHLD	37	216	3	48
NMTAP	37	264	1
NMHLD	37	288	1	48
NMSTR	37	336	6
NMSI_	37	336	6	96	48	3
NMTAP	37	360	7
NMTAP	38	24	0
NMTAP	38	48	0
NMSTR	38	96	1
NMSI_	38	96	1	96	48	4
NMTAP	38	120	2
NMTAP	38	168	4
NMTAP	38	192	4
NMSTR	38	240	5
NMSI_	38	240	5	96	48	0
NMTAP	38	264	6
NMTAP	38	312	4
NMTAP	38	336	4
NMSTR	39	0	3
NMSI_	39	0	3	96	48	6
NMTAP	39	24	2
NMTAP	39	72	7
NMTAP	39	96	7
NMSTR	39	144	0
NMSI_	39	144	0	96	48	5
NMTAP	39	168	7
NMTAP	39	216	2
NMTAP	39	240	2
NMTAP	39	288	3
NMTAP	39	312	3
NMTAP	39	360	6
NMTAP	40	0	6
NMHLD	40	48	5	36
NMHLD	40	84	3	36
NMTAP	40	120	4
NMTAP	40	144	4
NMTAP	40	168	3
NMTAP	40	192	3
NMTAP	40	216	6
NMTAP	40	240	2
NMTAP	40	240	7
NMHLD	40	288	1	12
NMHLD	40	312	0	12
NMHLD	40	336	1	12
NMHLD	40	360	0	12
NMHLD	41	0	2	12
NMHLD	41	24	3	12
NMHLD	41	48	2	12
NMHLD	41	72	3	12
NMHLD	41	96	7	12
NMHLD	41	120	6	12
NMHLD	41	144	7	12
NMHLD	41	168	6	12
NMHLD	41	192	4	12
NMHLD	41	216	5	12
NMHLD	41	240	4	12
NMHLD	41	264	5	12
NMHLD	41	288	3	12
NMHLD	41	312	5	12
NMHLD	41	336	3	12
NMHLD	41	360	5	12
NMHLD	42	0	2	12
NMHLD	42	24	6	12
NMHLD	42	48	1	12
NMHLD	42	72	7	12
NMHLD	42	96	0	12
NMHLD	42	120	0	12
NMHLD	42	144	0	12
NMHLD	42	168	0	12
NMHLD	42	192	0	12
NMHLD	42	216	0	12
NMHLD	42	240	0	12
NMHLD	42	264	0	12
BRSTR	42	288	0
NMSCR	42	288	0	96	1344	7
NMTTP	43	288	2	E	0	M1
NMTTP	43	300	2	B	0	M1
NMTTP	44	288	3	B	0	M1
NMTTP	44	300	4	E	0	M1
NMTTP	45	288	6	E	0	M1
NMTTP	45	300	5	B	0	M1
NMTAP	46	288	0
NMHLD	46	288	7	384
NMTTP	47	96	5	A	0	M1
NMTTP	47	112	5	D	0	M1
NMTTP	47	128	4	A	0	M1
NMTTP	47	144	4	D	0	M1
NMTTP	47	160	3	A	0	M1
NMHLD	47	288	1	384
NMTTP	48	96	1	B	0	M1
NMTTP	48	120	2	E	0	M1
NMTTP	48	144	2	B	0	M1
NMTTP	48	168	2	A	0	M1
NMHLD	48	288	6	384
NMTTP	49	96	6	B	0	M1
NMTTP	49	120	6	E	0	M1
NMTTP	49	144	5	B	0	M1
NMTTP	49	168	5	A	0	M1
NMSTR	49	288	4
NMSI_	49	288	4	96	288	7
NMTTP	50	96	1	B	0	M1
NMTTP	50	96	2	B	0	M1
NMHLD	50	288	0	96
NMTAP	51	96	0
NMTTP	51	96	2	A	0	M1
NMTTP	51	112	3	D	0	M1
NMTTP	51	128	3	A	0	M1
NMTTP	51	144	4	D	0	M1
NMTTP	51	160	4	A	0	M1
NMHLD	51	288	0	96
NMHLD	51	288	3	96
NMTAP	52	96	0
NMTTP	52	96	3	B	0	M1
NMTTP	52	96	4	B	0	M1
NMHLD	52	288	1	96
NMTTP	53	96	0	C	0	M1
NMTAP	53	96	1
NMHLD	53	288	1	96
NMSTR	53	288	7
NMSSR	53	288	7	96	96	3
NMSTR	54	96	1
BRSI_	54	96	1	96	48	5
NMHLD	54	288	7	48
NMTAP	54	336	4
NMTAP	55	0	3
NMSTR	55	0	6
NMSCR	55	0	6	96	96	1
EXTAP	55	96	4
CNSCL	55	192	1	0	96	6
NMTAP	55	192	2
NMHLD	55	288	0	48
NMTAP	55	336	5
NMSTR	56	0	1
NMSCL	56	0	1	96	96	6
NMTAP	56	0	4
EXTAP	56	96	3
NMTAP	56	192	5
CNSCR	56	192	6	0	96	1
NMHLD	56	288	7	48
NMTAP	56	336	1
NMTAP	57	0	2
NMTAP	57	0	6
NMTAP	57	48	5
NMHLD	57	96	0	48
NMTAP	57	144	4
NMTAP	57	192	2
NMHLD	57	192	3	96
NMTTP	57	288	4	E	0	M1
NMTTP	57	300	5	E	0	M1
NMTTP	57	312	6	E	0	M1
NMTTP	57	324	7	E	0	M1
NMTTP	57	336	0	E	0	M1
NMTTP	57	348	1	E	0	M1
NMTTP	57	360	2	E	0	M1
NMTTP	57	372	3	E	0	M1
NMTTP	58	0	4	E	0	M1
NMTTP	58	12	5	E	0	M1
NMTTP	58	24	6	E	0	M1
NMTTP	58	36	7	E	0	M1
NMTTP	58	48	0	E	0	M1
NMTTP	58	60	1	E	0	M1
NMTTP	58	72	2	E	0	M1
NMTTP	58	84	3	E	0	M1
NMTTP	58	96	4	E	0	M1
EXHLD	58	96	5	192
BRTAP	58	288	2
NMTAP	58	312	4
NMTAP	58	336	2
NMTAP	58	360	4
NMTAP	59	0	2
NMTAP	59	24	4
NMTAP	59	48	3
NMTAP	59	72	5
NMTAP	59	96	4
NMTAP	59	120	5
NMTAP	59	144	3
NMTAP	59	168	4
NMTAP	59	192	2
NMTAP	59	216	3
NMTAP	59	240	2
NMTAP	59	264	3
BRTAP	59	288	2
NMTAP	59	312	4
NMTAP	59	336	2
NMTAP	59	360	4
NMTAP	60	0	2
NMTAP	60	24	4
NMTAP	60	48	3
NMTAP	60	72	5
NMTAP	60	96	4
NMTAP	60	120	5
NMTAP	60	144	3
NMTAP	60	168	4
NMTAP	60	192	2
NMTAP	60	216	3
NMTAP	60	240	2
NMTAP	60	264	3
BRTAP	60	288	1
NMTAP	60	312	4
NMTAP	60	336	1
NMTAP	60	360	4
NMTAP	61	0	2
NMTAP	61	24	3
NMTAP	61	48	2
NMTAP	61	72	3
EXTAP	61	96	1
NMTAP	61	120	2
NMTAP	61	144	1
NMTAP	61	168	2
EXTAP	61	192	0
NMTAP	61	216	2
NMTAP	61	240	0
NMTAP	61	264	2
NMSTR	61	288	1
NMSXR	61	288	1	96	96	1
NMTAP	61	312	3
NMTAP	61	336	1
NMTAP	61	360	3
NMSTR	62	0	1
NMSI_	62	0	1	96	48	3
NMSI_	62	0	1	96	48	4
CNSI_	62	144	3	0	48	6
CNSI_	62	144	4	0	48	6
BRTAP	62	288	5
NMTAP	62	312	3
NMTAP	62	336	5
NMTAP	62	360	3
NMTAP	63	0	5
NMTAP	63	24	3
NMTAP	63	48	4
NMTAP	63	72	2
NMTAP	63	96	3
NMTAP	63	120	2
NMTAP	63	144	4
NMTAP	63	168	3
NMTAP	63	192	5
NMTAP	63	216	4
NMTAP	63	240	5
NMTAP	63	264	4
BRTAP	63	288	5
NMTAP	63	312	3
NMTAP	63	336	5
NMTAP	63	360	3
NMTAP	64	0	5
NMTAP	64	24	3
NMTAP	64	48	4
NMTAP	64	72	2
NMTAP	64	96	3
NMTAP	64	120	2
NMTAP	64	144	4
NMTAP	64	168	3
NMTAP	64	192	5
NMTAP	64	216	4
NMTAP	64	240	5
NMTAP	64	264	4
BRTAP	64	288	6
NMTAP	64	312	3
NMTAP	64	336	6
NMTAP	64	360	3
NMTAP	65	0	5
NMTAP	65	24	4
NMTAP	65	48	5
NMTAP	65	72	4
EXTAP	65	96	6
NMTAP	65	120	5
NMTAP	65	144	6
NMTAP	65	168	5
EXTAP	65	192	7
NMTAP	65	216	5
NMTAP	65	240	7
NMTAP	65	264	5
NMSTR	65	288	6
NMSXL	65	288	6	96	96	6
NMTAP	65	312	3
NMTAP	65	336	6
NMTAP	65	360	3
NMSTR	66	0	6
NMSI_	66	0	6	96	48	3
NMSI_	66	0	6	96	48	4
CNSI_	66	144	3	0	48	1
CNSI_	66	144	4	0	48	1
NMTAP	66	288	3
NMTAP	66	288	5
NMSTR	66	336	2
NMSCL	66	336	2	96	24	1
NMTAP	66	360	3
NMTAP	67	0	1
NMTAP	67	48	7
CNSV_	67	72	1	0	48	4
NMTAP	67	96	7
NMTAP	67	144	6
NMTAP	67	192	3
NMTAP	67	192	5
NMTAP	67	240	6
NMTAP	67	288	3
NMTAP	67	288	5
NMSTR	67	336	5
NMSCR	67	336	5	96	24	6
NMTAP	67	360	4
NMTAP	68	0	6
NMTAP	68	48	0
CNSV_	68	72	6	0	48	3
NMTAP	68	96	0
NMTAP	68	144	1
NMTAP	68	168	0
NMHLD	68	192	2	96
NMTAP	68	288	3
NMSTR	68	336	2
NMSCR	68	336	2	96	24	3
NMTAP	68	360	3
NMTAP	69	0	1
NMTAP	69	48	4
CNSV_	69	72	3	0	48	0
NMTAP	69	96	6
NMTAP	69	144	5
NMTAP	69	192	0
NMTAP	69	192	6
NMTAP	69	240	6
NMTAP	69	288	3
NMTAP	69	288	5
NMSTR	69	336	5
NMSCR	69	336	5	96	24	6
NMTAP	69	360	4
NMTAP	70	0	6
NMTAP	70	48	0
CNSV_	70	72	6	0	48	3
NMTAP	70	96	0
NMTAP	70	144	0
NMTAP	70	168	2
NMHLD	70	192	1	96
EXTAP	70	288	4
NMTAP	70	336	2
NMTAP	70	360	3
NMSTR	71	0	1
NMSV_	71	0	1	96	48	6
NMTAP	71	48	2
NMTAP	71	48	4
NMTAP	71	96	5
NMSTR	71	144	3
NMSV_	71	144	3	96	48	0
NMTAP	71	192	4
NMTAP	71	240	6
NMTAP	71	288	5
NMTAP	71	336	6
NMTAP	71	360	0
NMSTR	72	0	7
NMSV_	72	0	7	96	48	2
NMTAP	72	48	0
NMTAP	72	48	1
NMTAP	72	96	1
NMTAP	72	144	3
NMHLD	72	192	4	96
NMTAP	72	288	6
NMTAP	72	336	5
NMTAP	72	360	4
NMSTR	73	0	6
NMSCL	73	0	6	96	24	5
NMTAP	73	48	3
NMTAP	73	48	5
NMTAP	73	96	2
CNSV_	73	120	5	0	48	0
NMSTR	73	144	3
NMSCR	73	144	3	96	24	4
NMTAP	73	192	2
NMTAP	73	240	1
CNSV_	73	264	4	0	48	7
NMHLD	73	288	0	192
NMSTR	74	96	4
NMSF_	74	96	4	96	48	0
NMTAP	74	144	3
NMTAP	74	144	5
BRTAP	74	288	6
NMSTR	74	312	2
NMSI_	74	312	2	96	48	6
NMTAP	74	360	4
NMTAP	75	24	2
NMTAP	75	48	7
NMSTR	75	96	0
NMSI_	75	96	0	96	48	4
NMTAP	75	128	4
NMTAP	75	160	4
NMSTR	75	192	0
NMSCL	75	192	0	96	48	5
NMTAP	75	224	2
NMTAP	75	256	2
NMTAP	75	288	0
NMTAP	75	336	3
NMTAP	75	360	2
NMTAP	76	0	1
NMSTR	76	48	1
NMSI_	76	48	1	96	48	5
NMTAP	76	96	7
NMTAP	76	128	7
NMTAP	76	144	1
NMHLD	76	192	6	96
NMTAP	76	288	3
NMSTR	76	312	5
NMSI_	76	312	5	96	48	1
NMTAP	76	360	1
NMTAP	77	24	5
NMTAP	77	48	0
NMSTR	77	96	7
NMSI_	77	96	7	96	48	3
NMTAP	77	128	3
NMTAP	77	160	3
NMSTR	77	192	7
NMSCR	77	192	7	96	48	2
NMTAP	77	224	5
NMTAP	77	256	5
NMTAP	77	288	7
NMTAP	77	336	5
NMTAP	77	360	6
NMTAP	78	0	7
NMTAP	78	48	7
NMTAP	78	96	0
NMTAP	78	96	7
NMTAP	78	112	6
NMTAP	78	128	5
NMTAP	78	144	3
NMTAP	78	160	2
NMTAP	78	176	1
NMTAP	78	192	7
NMTAP	78	208	6
NMTAP	78	224	5
BRTAP	78	240	0
BRTAP	78	240	4
NMTAP	78	288	3
NMSTR	78	312	1
NMSI_	78	312	1	96	48	5
NMTAP	78	360	0
NMTAP	79	24	1
NMTAP	79	48	7
NMSTR	79	96	6
NMSCR	79	96	6	96	48	1
NMTAP	79	128	3
NMTAP	79	160	3
NMSTR	79	192	6
NMSI_	79	192	6	96	48	3
NMTAP	79	224	4
NMTAP	79	256	4
NMTAP	79	288	6
NMTAP	79	336	2
NMTAP	79	360	1
NMTAP	80	0	0
NMSTR	80	48	0
NMSI_	80	48	0	96	48	4
NMTAP	80	96	7
NMTAP	80	128	7
NMTAP	80	144	0
NMHLD	80	192	6	96
NMSTR	80	288	7
NMSI_	80	288	7	96	48	4
NMTAP	80	336	6
NMTAP	80	360	0
NMTAP	81	0	7
NMTAP	81	48	2
NMTAP	81	96	3
NMTAP	81	96	5
NMTAP	81	128	3
NMTAP	81	128	5
NMTAP	81	160	3
NMTAP	81	160	5
NMTAP	81	192	2
NMTAP	81	192	4
NMTAP	81	224	2
NMTAP	81	224	4
NMTAP	81	256	2
NMTAP	81	256	4
NMTAP	81	288	3
NMTAP	81	304	2
NMTAP	81	320	1
NMTAP	81	336	0
NMTAP	81	352	7
NMTAP	81	368	6
NMTAP	82	0	5
NMTAP	82	16	4
NMTAP	82	32	3
NMTAP	82	48	2
NMTAP	82	64	1
NMTAP	82	80	0
NMTAP	82	96	7
NMTAP	82	112	0
NMTAP	82	128	1
NMTAP	82	144	2
NMTAP	82	160	3
NMTAP	82	176	4
NMTAP	82	192	5
NMTAP	82	208	6
NMTAP	82	224	7
NMHLD	82	240	0	48
NMSTR	82	288	3
NMSCR	82	288	3	96	48	6
NMTAP	82	336	4
NMTAP	82	360	1
NMSTR	83	0	3
NMSI_	83	0	3	96	48	1
NMTAP	83	48	2
NMSTR	83	96	7
NMSI_	83	96	7	96	48	3
NMTAP	83	128	6
NMTAP	83	160	6
NMTAP	83	192	0
NMTAP	83	224	1
NMTAP	83	256	1
NMSTR	83	288	0
NMSCL	83	288	0	96	48	5
NMTAP	83	336	1
NMTAP	83	360	3
NMSTR	84	0	0
NMSI_	84	0	0	96	24	2
NMTAP	84	48	2
NMSTR	84	96	0
NMSLL	84	96	0	96	48	4
NMTAP	84	128	4
NMTAP	84	160	4
BRTAP	84	192	0
NMSTR	84	288	3
NMSI_	84	288	3	96	24	1
NMTAP	84	336	0
NMTAP	84	360	7
NMSTR	85	0	3
NMSI_	85	0	3	96	48	7
NMTAP	85	48	5
NMTAP	85	96	3
NMTAP	85	128	6
NMTAP	85	160	6
NMSTR	85	192	1
NMSCL	85	192	1	96	48	6
NMTAP	85	224	2
NMTAP	85	256	2
NMTAP	85	288	6
NMTAP	85	336	4
NMTAP	85	360	3
NMTAP	86	0	2
NMTAP	86	48	1
NMTAP	86	48	5
NMTAP	86	96	7
NMTAP	86	112	0
NMTAP	86	128	6
NMTAP	86	144	7
BRTAP	86	192	0
BRTAP	86	192	5
BRSTR	86	288	4
NMSCL	86	288	4	96	48	1
BRTAP	86	288	7
NMTAP	86	336	3
NMTAP	86	360	6
NMSTR	87	0	4
NMSI_	87	0	4	96	24	6
NMTAP	87	48	5
NMSTR	87	96	0
NMSI_	87	96	0	96	48	4
NMTAP	87	128	1
NMTAP	87	160	1
NMTAP	87	192	7
NMTAP	87	224	6
NMTAP	87	256	6
NMSTR	87	288	7
NMSCR	87	288	7	96	48	2
NMTAP	87	336	6
NMTAP	87	360	4
NMSTR	88	0	7
NMSI_	88	0	7	96	24	5
NMTAP	88	48	5
NMSTR	88	96	7
NMSLR	88	96	7	96	48	3
NMTAP	88	128	3
NMTAP	88	160	3
BRTAP	88	192	7
NMSTR	88	288	4
NMSI_	88	288	4	96	24	6
NMTAP	88	336	7
NMTAP	88	360	0
NMSTR	89	0	4
NMSI_	89	0	4	96	48	0
NMTAP	89	48	2
NMTAP	89	72	3
NMTAP	89	96	4
NMTAP	89	128	1
NMTAP	89	160	1
NMTAP	89	192	2
NMTAP	89	192	6
NMTAP	89	224	2
NMTAP	89	224	6
NMTAP	89	256	2
NMTAP	89	256	6
NMHLD	89	288	7	48
NMTAP	89	336	0
NMHLD	89	360	1	48
NMTAP	90	24	2
NMHLD	90	48	3	48
NMTAP	90	96	4
NMTAP	90	108	5
NMTAP	90	120	6
NMTAP	90	132	7
NMTAP	90	144	0
NMTAP	90	156	1
NMTAP	90	168	2
NMSTR	90	180	3
BRSI_	90	180	3	96	60	0
NMHLD	90	192	4	48
NMHLD	90	192	7	48
NMTTP	90	288	7	B	0	M1
NMTTP	90	288	7	E	1	M1
NMTTP	90	296	6	B	0	M1
NMTTP	90	304	5	B	0	M1
NMTTP	90	312	5	E	0	M1

T_REC_TAP	550
T_REC_BRK	22
T_REC_XTP	10
T_REC_BXX	2
T_REC_HLD	109
T_REC_XHO	3
T_REC_BHO	1
T_REC_BXH	0
T_REC_STR	69
T_REC_BST	5
T_REC_XST	0
T_REC_XBS	0
T_REC_TTP	60
T_REC_THO	0
T_REC_SLD	72
T_REC_BSL	4
T_REC_ALL	907
T_NUM_TAP	689
T_NUM_BRK	34
T_NUM_HLD	112
T_NUM_SLD	72
T_NUM_ALL	907
T_JUDGE_TAP	718
T_JUDGE_HLD	231
T_JUDGE_SLD	76
T_JUDGE_ALL	1025
TTM_EACHPAIRS	50
TTM_SCR_TAP	344500
TTM_SCR_BRK	88400
TTM_SCR_HLD	112000
TTM_SCR_SLD	108000
TTM_SCR_ALL	652900
TTM_SCR_S	630050
TTM_SCR_SS	649500
TTM_RAT_ACV	10052

