VERSION	0.00.00	1.05.00
FES_MODE	0
BPM_DEF	150.000	150.000	150.000	150.000
MET_DEF	4	4
RESOLUTION	384
CLK_DEF	384
COMPATIBLE_CODE	MA2

BPM	0	0	150.000
MET	0	0	4	4
MET	40	0	4	3
MET	42	96	4	2
MET	42	288	4	4

NMTHO	1	0	0	576	C	0	M1
NMTHO	3	0	0	576	C	0	M1
NMHLD	5	0	1	384
NMHLD	6	0	5	768
NMTHO	7	0	0	384	C	0	M1
NMHLD	8	192	0	96
EXTAP	8	288	6
BRTAP	9	0	1
BRTAP	9	0	4
NMTAP	9	96	1
NMTAP	9	96	4
NMTAP	9	192	2
NMTAP	9	192	4
NMTAP	9	288	2
NMTAP	9	288	4
NMTAP	10	0	3
NMTAP	10	0	4
NMTAP	10	96	3
NMTAP	10	96	4
NMTAP	10	192	4
NMTAP	10	192	5
NMTAP	10	240	5
NMTAP	10	288	4
NMTAP	10	288	5
NMHLD	11	0	3	96
NMTAP	11	0	4
NMTAP	11	96	4
NMTAP	11	192	4
NMTAP	11	192	6
NMTAP	11	288	4
NMTAP	11	288	6
NMHLD	12	0	2	96
NMSTR	12	0	4
NMSCR	12	0	4	96	96	7
NMTAP	12	192	0
NMTAP	12	240	0
NMTAP	12	288	0
NMTAP	12	288	7
NMHLD	13	0	0	96
NMTAP	13	0	1
NMTAP	13	96	1
NMTAP	13	192	1
NMTAP	13	192	2
NMTAP	13	288	1
NMTAP	13	288	2
NMHLD	14	0	0	96
NMTAP	14	0	1
NMTAP	14	96	1
NMTAP	14	192	1
NMTAP	14	192	3
NMTAP	14	240	3
NMTAP	14	288	1
NMTAP	14	288	3
NMHLD	15	0	0	96
NMTAP	15	0	1
NMTAP	15	96	1
NMTAP	15	192	1
NMTAP	15	192	2
NMSTR	15	288	2
NMSCL	15	288	2	96	96	7
NMTAP	15	288	3
NMSTR	16	96	6
NMSCL	16	96	6	96	96	3
BXTAP	16	288	0
NMTAP	17	0	1
NMTAP	17	48	1
NMTAP	17	96	3
NMTAP	17	144	3
NMHLD	17	192	2	96
NMTAP	17	288	0
NMTAP	18	0	3
NMTAP	18	0	7
NMSTR	18	96	4
NMSI_	18	96	4	96	96	0
NMSTR	18	96	6
NMSI_	18	96	6	96	96	3
NMTAP	19	0	1
NMTAP	19	48	1
NMTAP	19	96	3
NMTAP	19	144	3
EXHLD	19	192	2	96
BXHLD	19	288	0	96
NMHLD	20	0	7	96
NMSTR	20	96	5
NMSUL	20	96	5	96	192	3
NMHLD	21	0	2	72
NMHLD	21	144	2	72
NMTAP	21	288	1
NMTAP	21	288	3
NMTAP	21	336	1
NMTAP	21	336	3
NMHLD	22	0	0	72
NMHLD	22	144	0	72
NMTAP	22	288	1
NMTAP	22	288	7
NMTAP	22	336	1
NMTAP	22	336	7
NMHLD	23	0	6	72
NMHLD	23	144	6	72
NMTAP	23	288	5
NMTAP	23	288	7
NMTAP	24	0	6
NMTAP	24	48	5
NMTAP	24	96	4
NMTAP	24	144	3
NMTAP	24	192	2
NMTAP	24	240	1
NMTAP	24	288	0
NMTAP	24	336	7
BRTAP	25	0	0
BRSTR	25	0	6
NMSUL	25	0	6	96	288	3
NMSTR	26	0	2
NMSUL	26	0	2	96	288	7
NMSTR	27	0	6
NMSUR	27	0	6	96	288	1
NMSTR	28	0	2
NMSUR	28	0	2	96	288	5
NMSTR	29	0	6
BRSCR	29	0	6	96	96	0
NMSTR	29	192	1
NMSCR	29	192	1	96	96	3
NMSTR	30	0	4
NMSCR	30	0	4	96	96	6
EXSTR	30	192	7
NMSCR	30	192	7	96	96	1
NMHLD	31	0	2	96
NMTAP	31	192	3
NMTAP	31	192	4
NMSTR	31	288	4
NMSSL	31	288	4	96	192	0
NMTAP	31	288	5
NMHLD	33	0	1	72
NMHLD	33	72	2	72
NMTAP	33	144	3
NMSTR	33	192	3
NMSI_	33	192	3	96	48	1
NMSI_	33	192	3	96	48	5
NMHLD	34	0	6	72
NMHLD	34	72	5	72
NMTAP	34	144	4
NMSTR	34	192	4
NMSI_	34	192	4	96	48	2
NMSI_	34	192	4	96	48	6
NMHLD	35	0	1	72
NMHLD	35	72	0	72
NMTAP	35	144	7
NMSTR	35	192	7
NMSI_	35	192	7	96	48	1
NMSI_	35	192	7	96	48	5
NMHLD	36	0	6	72
NMHLD	36	72	7	72
NMTAP	36	144	0
NMSTR	36	192	0
NMSI_	36	192	0	96	48	2
NMSI_	36	192	0	96	48	6
NMHLD	37	0	1	72
NMHLD	37	72	0	72
NMHLD	37	144	7	72
NMHLD	37	216	6	72
NMHLD	37	288	5	72
NMHLD	37	360	6	72
NMHLD	38	48	7	72
NMHLD	38	120	0	72
BXHLD	38	192	1	72
BXHLD	38	264	2	72
BXHLD	38	336	0	72
BXHLD	39	24	7	72
BXHLD	39	96	5	72
BXHLD	39	168	7	72
BXHLD	39	240	0	72
BXHLD	39	312	2	72
BXTAP	40	0	3
NMTAP	40	72	1
NMTAP	40	120	0
NMTAP	40	168	7
NMSTR	40	216	6
NMSI_	40	216	6	96	72	3
CNSI_	41	0	3	0	96	0
CNSI_	41	96	0	0	96	5
CNSI_	41	192	5	0	96	2
CNSI_	41	288	2	0	96	7
CNSI_	42	0	7	0	96	4
NMTHO	42	96	0	192	C	1	M1
NMTTP	43	288	0	C	0	M1
NMTTP	44	288	4	E	0	M1
NMHLD	45	288	2	192
NMHLD	45	288	4	384
NMTTP	46	288	4	E	0	M1
NMTTP	47	96	0	C	0	M1
NMTTP	47	288	3	E	0	M1
NMTTP	48	96	0	C	0	M1
NMTTP	48	288	6	E	0	M1
NMTTP	49	96	0	C	0	M1
NMSTR	49	288	0
NMSCR	49	288	0	96	192	3
NMSTR	49	288	7
NMSCL	49	288	7	96	192	4
NMTHO	50	288	0	192	C	0	M1
NMTTP	50	288	6	B	0	M1
NMTTP	50	288	7	B	0	M1
NMTTP	50	288	7	E	0	M1
NMTTP	51	288	0	B	0	M1
NMTHO	51	288	0	192	C	0	M1
NMTTP	51	288	1	B	0	M1
NMTTP	51	288	1	E	0	M1
NMTHO	52	288	0	192	C	0	M1
NMTTP	52	288	2	B	0	M1
NMTTP	52	288	3	B	0	M1
NMTTP	52	288	3	E	0	M1
NMTHO	53	288	0	192	C	0	M1
NMTTP	53	288	4	B	0	M1
NMTTP	53	288	5	B	0	M1
NMTTP	53	288	5	E	0	M1
NMHLD	54	288	0	384
NMTAP	55	96	2
NMTAP	55	192	2
NMHLD	55	288	3	384
NMTAP	56	96	2
NMTAP	56	192	2
NMHLD	56	288	4	384
NMTAP	57	96	6
NMTAP	57	192	6
NMHLD	57	288	7	192
NMTTP	58	96	0	B	0	M1
NMTTP	58	96	0	E	1	M1
NMTTP	58	96	7	B	0	M1
NMTAP	58	288	6
NMTAP	58	336	6
NMTAP	59	0	4
NMTAP	59	48	4
NMTAP	59	96	5
NMTAP	59	144	5
NMTAP	59	192	3
NMTAP	59	240	3
NMTAP	59	288	6
NMTAP	59	336	6
NMTAP	60	0	4
NMTAP	60	48	5
NMTAP	60	96	3
NMTAP	60	144	3
NMTAP	60	192	6
NMTAP	60	240	6
NMTAP	60	288	2
NMTAP	60	336	2
NMTAP	61	0	3
NMTAP	61	48	1
NMTAP	61	96	4
NMTAP	61	144	4
NMTAP	61	192	2
NMTAP	61	240	3
NMTAP	61	288	0
NMTAP	61	336	0
NMTAP	62	0	2
NMTAP	62	48	2
NMTAP	62	96	1
NMTAP	62	144	1
NMTAP	62	192	3
NMTAP	62	240	3
BRTAP	62	288	2
NMTAP	62	336	2
NMTAP	63	0	0
NMTAP	63	48	0
NMTAP	63	96	1
NMTAP	63	144	1
NMTAP	63	192	7
NMTAP	63	240	7
NMTAP	63	288	2
NMTAP	63	336	2
NMTAP	64	0	6
NMTAP	64	48	6
NMTAP	64	96	0
NMTAP	64	144	0
NMTAP	64	192	5
NMTAP	64	240	5
NMTAP	64	288	7
NMTAP	64	336	7
NMTAP	65	0	6
NMTAP	65	48	0
NMTAP	65	96	5
NMTAP	65	144	5
NMTAP	65	192	4
NMTAP	65	240	6
NMTAP	65	288	0
NMTAP	65	336	0
NMTAP	66	0	7
NMTAP	66	48	1
NMTAP	66	96	3
NMTAP	66	144	3
NMTAP	66	192	2
NMTAP	66	192	4
BRTAP	66	288	1
NMTAP	66	336	1
NMTAP	67	0	3
NMTAP	67	48	2
NMTAP	67	96	4
NMTAP	67	144	5
NMTAP	67	192	3
NMTAP	67	240	2
NMTAP	67	288	7
NMTAP	67	336	6
NMTAP	68	0	0
NMTAP	68	48	1
NMTAP	68	96	4
NMTAP	68	144	5
NMTAP	68	192	3
NMTAP	68	240	2
NMHLD	68	288	1	72
NMHLD	68	360	3	72
NMHLD	69	48	4	72
NMHLD	69	120	6	72
NMHLD	69	192	4	72
NMHLD	69	264	3	72
NMHLD	69	336	1	72
NMTAP	70	24	0
NMTAP	70	96	0
NMTAP	70	96	1
NMTAP	70	144	0
NMTAP	70	144	1
NMTAP	70	192	2
NMTAP	70	192	7
NMTAP	70	288	6
NMTAP	70	336	6
NMTAP	71	0	4
NMTAP	71	48	5
NMTAP	71	96	3
NMTAP	71	144	3
NMTAP	71	192	1
NMTAP	71	240	1
NMTAP	71	288	7
NMTAP	71	336	7
NMTAP	72	0	6
NMTAP	72	48	0
NMTAP	72	96	2
NMTAP	72	144	2
NMTAP	72	192	4
NMTAP	72	240	4
NMHLD	72	288	5	72
NMHLD	72	360	7	72
NMHLD	73	48	0	72
NMHLD	73	120	2	72
NMHLD	73	192	0	72
NMHLD	73	264	7	72
NMHLD	73	336	5	72
NMSTR	74	24	4
NMSI_	74	24	4	96	72	2
NMSCR	74	24	4	96	72	7
NMHLD	74	288	0	48
NMHLD	74	288	1	48
NMHLD	74	360	0	48
NMHLD	74	360	7	48
NMTAP	75	48	6
NMTAP	75	48	7
NMSTR	75	96	6
NMSCL	75	96	6	96	48	4
NMTAP	75	96	7
NMHLD	75	288	2	48
NMHLD	75	288	3	48
NMHLD	75	360	3	48
NMHLD	75	360	4	48
NMTAP	76	48	4
NMTAP	76	48	5
NMTAP	76	96	4
NMSTR	76	96	5
NMSI_	76	96	5	96	48	2
NMHLD	76	288	0	48
NMHLD	76	288	1	48
NMHLD	76	360	1	48
NMHLD	76	360	2	48
NMTAP	77	48	2
NMTAP	77	48	3
NMSTR	77	96	2
NMSCL	77	96	2	96	48	0
NMTAP	77	96	3
NMHLD	77	288	7	72
NMHLD	77	360	6	72
NMTAP	78	48	5
NMTAP	78	96	4
NMTAP	78	128	4
NMTAP	78	160	4
BXTAP	78	192	3
BXTAP	78	192	5
NMHLD	78	288	6	48
NMHLD	78	288	7	48
NMHLD	78	360	5	48
NMHLD	78	360	6	48
NMTAP	79	48	4
NMTAP	79	48	5
NMTAP	79	96	4
NMSTR	79	96	5
NMSI_	79	96	5	96	48	2
NMTAP	79	192	1
NMHLD	79	288	0	48
NMHLD	79	288	1	48
NMHLD	79	360	1	48
NMHLD	79	360	2	48
NMTAP	80	48	2
NMTAP	80	48	3
NMSTR	80	96	2
NMSI_	80	96	2	96	48	5
NMTAP	80	96	3
NMTAP	80	192	6
NMHLD	80	288	7	72
NMHLD	80	360	0	72
NMTAP	81	48	1
NMTAP	81	96	2
NMTAP	81	128	2
NMTAP	81	160	2
NMTAP	81	192	1
NMSTR	81	192	3
NMSCR	81	192	3	96	192	1
BRTAP	82	96	3
NMTAP	82	192	2
NMTAP	82	192	4
NMSTR	82	288	1
NMSI_	82	288	1	96	48	5
NMSTR	83	0	0
NMSLL	83	0	0	96	96	4
EXTAP	83	96	3
EXTAP	83	128	3
EXTAP	83	160	3
EXTAP	83	192	3
NMSTR	83	288	6
NMSI_	83	288	6	96	48	2
NMSTR	84	0	7
NMSLR	84	0	7	96	96	3
EXTAP	84	96	4
EXTAP	84	128	4
EXTAP	84	160	4
EXTAP	84	192	4
NMSTR	84	288	2
NMSI_	84	288	2	96	48	6
NMSTR	85	0	3
NMSLR	85	0	3	96	96	7
EXTAP	85	96	0
EXTAP	85	128	0
EXTAP	85	160	0
EXTAP	85	192	0
NMHLD	85	288	1	72
NMHLD	85	360	2	72
NMTAP	86	48	3
NMSTR	86	96	3
NMSI_	86	96	3	96	48	7
NMTAP	86	192	5
EXSTR	86	288	6
BRSCL	86	288	6	96	48	3
BRTAP	87	0	0
NMTAP	87	96	1
NMTAP	87	128	1
NMTAP	87	160	1
NMTAP	87	192	3
NMTAP	87	224	3
NMTAP	87	256	3
NMSTR	87	288	2
NMSCL	87	288	2	96	48	7
NMTAP	88	0	4
NMTAP	88	96	6
NMTAP	88	128	6
NMTAP	88	160	6
NMTAP	88	192	5
NMTAP	88	192	7
NMTAP	88	288	0
NMSTR	88	288	7
NMSI_	88	288	7	96	48	2
NMSTR	89	0	1
NMSI_	89	0	1	96	48	4
NMTAP	89	96	5
NMTAP	89	128	5
NMTAP	89	160	5
NMTAP	89	192	3
NMTAP	89	224	3
NMTAP	89	256	3
NMSTR	89	288	4
NMSI_	89	288	4	96	48	7
NMSTR	90	0	0
NMSI_	90	0	0	96	48	5
NMSTR	90	96	6
NMSCL	90	96	6	96	48	3
NMSTR	90	192	2
BRSF_	90	192	2	96	48	6

T_REC_TAP	238
T_REC_BRK	7
T_REC_XTP	13
T_REC_BXX	4
T_REC_HLD	79
T_REC_XHO	1
T_REC_BHO	0
T_REC_BXH	9
T_REC_STR	41
T_REC_BST	1
T_REC_XST	2
T_REC_XBS	0
T_REC_TTP	23
T_REC_THO	8
T_REC_SLD	46
T_REC_BSL	3
T_REC_ALL	475
T_NUM_TAP	317
T_NUM_BRK	24
T_NUM_HLD	88
T_NUM_SLD	46
T_NUM_ALL	475
T_JUDGE_TAP	329
T_JUDGE_HLD	258
T_JUDGE_SLD	49
T_JUDGE_ALL	636
TTM_EACHPAIRS	63
TTM_SCR_TAP	158500
TTM_SCR_BRK	62400
TTM_SCR_HLD	88000
TTM_SCR_SLD	69000
TTM_SCR_ALL	377900
TTM_SCR_S	364250
TTM_SCR_SS	375500
TTM_RAT_ACV	10063

