VERSION	0.00.00	1.05.00
FES_MODE	0
BPM_DEF	150.000	150.000	150.000	150.000
MET_DEF	4	4
RESOLUTION	384
CLK_DEF	384
COMPATIBLE_CODE	MA2

BPM	0	0	150.000
MET	0	0	4	4
MET	40	0	4	3
MET	42	96	4	2
MET	42	288	4	4

NMHLD	1	0	2	192
NMHLD	1	192	3	192
NMHLD	2	0	4	192
NMTAP	2	192	5
NMHLD	3	0	5	192
NMHLD	3	192	4	192
NMHLD	4	0	3	192
NMTAP	4	192	2
NMHLD	5	0	1	192
NMHLD	5	192	2	192
NMHLD	6	0	3	192
NMTAP	6	192	4
NMHLD	7	0	6	192
NMHLD	7	192	5	192
NMHLD	8	0	4	192
NMTAP	8	192	3
NMTAP	9	0	4
NMTAP	9	96	4
NMTAP	9	192	5
NMTAP	10	0	6
NMTAP	10	96	6
NMTAP	10	192	7
NMTAP	11	0	0
NMTAP	11	96	0
NMTAP	11	192	1
NMTAP	12	0	2
NMTAP	12	96	2
NMTAP	12	192	2
NMTAP	12	192	3
NMTAP	13	0	3
NMTAP	13	96	3
NMTAP	13	192	2
NMTAP	14	0	1
NMTAP	14	96	1
NMTAP	14	192	0
NMTAP	15	0	7
NMTAP	15	96	7
NMTAP	15	192	6
NMTAP	16	0	5
NMTAP	16	96	5
NMTAP	16	192	4
NMTAP	16	192	5
NMTAP	17	0	5
NMTAP	17	96	5
NMTAP	17	192	4
NMTAP	17	192	5
NMTAP	18	0	6
NMTAP	18	96	6
NMTAP	18	192	6
NMTAP	18	192	7
NMTAP	19	0	0
NMTAP	19	96	0
NMTAP	19	192	0
NMTAP	19	192	1
NMTAP	20	0	2
NMTAP	20	0	3
NMTAP	20	96	2
NMTAP	20	96	3
NMTAP	20	192	2
NMTAP	20	192	3
NMTAP	21	0	2
NMTAP	21	96	2
NMTAP	21	192	2
NMTAP	21	192	3
NMTAP	22	0	1
NMTAP	22	96	1
NMTAP	22	192	0
NMTAP	22	192	1
NMTAP	23	0	7
NMTAP	23	96	7
NMTAP	23	192	6
NMTAP	23	192	7
NMTAP	24	0	4
NMTAP	24	0	5
NMTAP	24	96	4
NMTAP	24	96	5
NMTAP	24	192	4
NMTAP	24	192	5
NMSTR	25	0	5
NMSI_	25	0	5	96	192	2
NMSTR	26	0	1
NMSI_	26	0	1	96	192	4
NMSTR	27	0	6
NMSI_	27	0	6	96	192	3
NMSTR	28	0	1
NMSI_	28	0	1	96	192	5
NMSTR	29	0	7
NMSI_	29	0	7	96	192	3
NMSTR	30	0	2
NMSI_	30	0	2	96	192	5
NMSTR	31	0	6
NMSI_	31	0	6	96	192	3
NMTAP	32	0	2
NMTAP	32	192	2
NMTAP	32	192	3
NMTAP	33	0	2
NMTAP	33	96	2
NMTAP	33	192	0
NMTAP	33	192	1
NMTAP	33	288	0
NMTAP	33	288	1
NMTAP	34	0	7
NMTAP	34	96	7
NMTAP	34	192	6
NMTAP	34	192	7
NMTAP	35	0	5
NMTAP	35	96	5
NMTAP	35	192	6
NMTAP	35	192	7
NMTAP	35	288	6
NMTAP	35	288	7
NMTAP	36	0	0
NMTAP	36	96	0
NMTAP	36	192	0
NMTAP	36	192	1
NMTAP	37	0	0
NMTAP	37	96	0
NMTAP	37	192	1
NMTAP	37	288	1
NMTAP	38	0	2
NMTAP	38	96	2
NMTAP	38	192	3
NMTAP	38	288	3
NMTAP	39	0	4
NMTAP	39	96	4
NMTAP	39	192	5
NMTAP	39	288	5
NMTAP	40	0	6
NMTAP	40	96	6
NMTAP	40	192	7
NMSTR	40	288	7
NMSUR	40	288	7	96	480	0
NMHLD	42	288	1	192
NMHLD	43	96	0	192
NMHLD	43	288	7	192
NMTAP	44	96	6
NMHLD	44	288	6	192
NMHLD	45	96	7	192
NMHLD	45	288	0	192
NMTAP	46	96	1
NMHLD	46	288	2	192
NMHLD	47	96	3	192
NMHLD	47	288	4	192
NMTAP	48	96	5
NMHLD	48	288	5	192
NMHLD	49	96	4	192
NMHLD	49	288	3	192
NMTAP	50	96	2
NMTAP	50	288	4
NMTAP	51	0	4
NMTAP	51	96	5
NMTAP	51	192	5
NMTAP	51	288	6
NMTAP	52	0	6
NMTAP	52	96	0
NMTAP	52	96	7
NMTAP	52	288	0
NMTAP	53	0	0
NMTAP	53	96	1
NMTAP	53	192	1
NMTAP	53	288	2
NMTAP	54	0	2
NMTAP	54	96	3
NMTAP	54	96	4
NMTAP	54	288	3
NMTAP	55	0	3
NMTAP	55	96	2
NMTAP	55	192	2
NMTAP	55	288	1
NMTAP	56	0	1
NMTAP	56	96	0
NMTAP	56	96	7
NMTAP	56	288	7
NMTAP	57	0	7
NMTAP	57	96	6
NMTAP	57	192	6
NMTAP	57	288	5
NMTAP	58	0	5
BXTAP	58	96	3
BXTAP	58	96	4
NMTTP	58	288	1	B	0	L1
NMTTP	59	0	2	B	0	L1
NMTTP	59	96	3	B	0	L1
NMTTP	59	288	6	B	0	L1
NMTTP	60	0	5	B	0	L1
NMTTP	60	96	4	B	0	L1
NMTTP	60	288	1	B	0	L1
NMTTP	61	0	2	B	0	L1
NMTTP	61	96	3	B	0	L1
NMTTP	61	192	4	B	0	L1
NMTTP	61	288	0	C	0	L1
NMTTP	62	288	7	B	0	L1
NMTTP	63	0	6	B	0	L1
NMTTP	63	96	4	B	0	L1
NMTTP	63	96	5	B	0	L1
NMTTP	63	288	0	B	0	L1
NMTTP	64	0	1	B	0	L1
NMTTP	64	96	2	B	0	L1
NMTTP	64	96	3	B	0	L1
NMTTP	64	288	6	B	0	L1
NMTTP	65	0	5	B	0	L1
NMTTP	65	96	4	B	0	L1
NMTTP	65	192	3	B	0	L1
NMTTP	65	288	0	C	1	L1
NMTAP	66	288	1
NMTAP	67	0	1
NMTAP	67	96	1
NMTAP	67	192	0
NMTAP	67	192	1
NMTAP	67	288	2
NMTAP	68	0	2
NMTAP	68	96	2
NMTAP	68	192	2
NMTAP	68	192	3
NMTAP	68	288	4
NMTAP	69	0	4
NMTAP	69	96	4
NMTAP	69	192	4
NMTAP	69	192	5
NMTAP	69	288	6
NMTAP	69	288	7
NMTAP	70	0	6
NMTAP	70	0	7
NMTAP	70	96	6
NMTAP	70	96	7
NMTAP	70	288	6
NMTAP	71	0	6
NMTAP	71	96	6
NMTAP	71	192	6
NMTAP	71	192	7
NMTAP	71	288	5
NMTAP	72	0	5
NMTAP	72	96	5
NMTAP	72	192	4
NMTAP	72	192	5
NMTAP	72	288	3
NMTAP	73	0	3
NMTAP	73	96	3
NMTAP	73	192	2
NMTAP	73	192	3
NMTAP	73	288	0
NMTAP	73	288	1
NMTAP	74	0	0
NMTAP	74	0	1
BXTAP	74	96	0
BXTAP	74	96	1
NMHLD	74	288	1	192
NMTAP	75	96	0
NMTAP	75	288	0
NMTAP	75	288	1
NMTAP	76	0	0
NMTAP	76	0	1
NMTAP	76	96	0
NMTAP	76	96	1
NMHLD	76	288	2	192
NMTAP	77	96	3
NMTAP	77	288	2
NMTAP	77	288	3
NMTAP	78	0	2
NMTAP	78	0	3
NMTAP	78	96	2
NMTAP	78	96	3
NMHLD	78	288	5	192
NMTAP	79	96	4
NMTAP	79	288	4
NMTAP	79	288	5
NMTAP	80	0	4
NMTAP	80	0	5
NMTAP	80	96	4
NMTAP	80	96	5
NMHLD	80	288	6	192
NMTAP	81	96	7
NMTAP	81	288	6
NMTAP	81	288	7
NMTAP	82	0	6
NMTAP	82	0	7
NMTAP	82	96	6
NMTAP	82	96	7
NMTAP	82	288	5
NMTAP	82	336	5
NMTAP	83	0	5
NMTAP	83	96	6
NMTAP	83	96	7
NMTAP	83	192	6
NMTAP	83	192	7
NMTAP	83	288	0
NMTAP	83	336	0
NMTAP	84	0	0
NMTAP	84	96	0
NMTAP	84	96	1
NMTAP	84	288	2
NMTAP	84	336	2
NMTAP	85	0	2
NMTAP	85	96	0
NMTAP	85	96	1
NMTAP	85	192	0
NMTAP	85	192	1
NMTAP	85	288	7
NMTAP	85	336	7
NMTAP	86	0	7
NMTAP	86	96	6
NMTAP	86	96	7
NMTAP	86	288	6
NMTAP	86	336	6
NMTAP	87	0	6
NMTAP	87	96	4
NMTAP	87	96	5
NMTAP	87	192	4
NMTAP	87	192	5
NMTAP	87	288	3
NMTAP	87	336	3
NMTAP	88	0	3
NMTAP	88	96	2
NMTAP	88	96	3
NMTAP	88	288	1
NMTAP	88	336	1
NMTAP	89	0	1
NMTAP	89	96	2
NMTAP	89	96	3
NMTAP	89	192	2
NMTAP	89	192	3
NMTAP	89	288	4
NMTAP	89	336	4
NMTAP	90	0	4
NMTAP	90	96	4
NMTAP	90	96	5
BRTAP	90	288	3
BRTAP	90	288	4

T_REC_TAP	254
T_REC_BRK	2
T_REC_XTP	0
T_REC_BXX	4
T_REC_HLD	28
T_REC_XHO	0
T_REC_BHO	0
T_REC_BXH	0
T_REC_STR	8
T_REC_BST	0
T_REC_XST	0
T_REC_XBS	0
T_REC_TTP	24
T_REC_THO	0
T_REC_SLD	8
T_REC_BSL	0
T_REC_ALL	328
T_NUM_TAP	286
T_NUM_BRK	6
T_NUM_HLD	28
T_NUM_SLD	8
T_NUM_ALL	328
T_JUDGE_TAP	292
T_JUDGE_HLD	112
T_JUDGE_SLD	8
T_JUDGE_ALL	412
TTM_EACHPAIRS	62
TTM_SCR_TAP	143000
TTM_SCR_BRK	15600
TTM_SCR_HLD	28000
TTM_SCR_SLD	12000
TTM_SCR_ALL	198600
TTM_SCR_S	192100
TTM_SCR_SS	198000
TTM_RAT_ACV	10030

