VERSION	0.00.00	1.05.00
FES_MODE	0
BPM_DEF	150.000	150.000	150.000	150.000
MET_DEF	4	4
RESOLUTION	384
CLK_DEF	384
COMPATIBLE_CODE	MA2

BPM	0	0	150.000
MET	0	0	4	4
MET	40	0	4	3
MET	42	96	4	2
MET	42	288	4	4

NMTAP	1	0	3
NMTAP	2	0	2
NMTAP	3	0	1
NMTAP	4	0	0
NMTAP	5	0	7
NMTAP	6	0	6
NMTAP	7	0	5
NMTAP	8	0	3
NMTAP	8	0	4
NMTAP	9	0	4
NMTAP	9	192	4
NMTAP	10	0	5
NMTAP	10	192	5
NMTAP	11	0	6
NMTAP	11	192	6
NMTAP	12	0	6
NMTAP	12	0	7
NMTAP	13	0	0
NMTAP	13	192	0
NMTAP	14	0	1
NMTAP	14	192	1
NMTAP	15	0	2
NMTAP	15	192	2
NMTAP	16	0	2
NMTAP	16	0	3
NMTAP	17	0	3
NMTAP	17	192	3
NMTAP	18	0	2
NMTAP	18	192	2
NMTAP	19	0	1
NMTAP	19	192	1
NMTAP	20	0	0
NMTAP	20	0	7
NMTAP	20	192	0
NMTAP	20	192	7
NMTAP	21	0	7
NMTAP	21	192	7
NMTAP	22	0	6
NMTAP	22	192	6
NMTAP	23	0	5
NMTAP	23	192	5
NMTAP	24	0	3
NMTAP	24	0	4
NMHLD	25	0	4	192
NMHLD	25	0	5	192
NMTAP	26	0	4
NMTAP	26	0	5
NMHLD	27	0	6	192
NMHLD	27	0	7	192
NMTAP	28	0	6
NMTAP	28	0	7
NMHLD	29	0	0	192
NMHLD	29	0	1	192
NMTAP	30	0	0
NMTAP	30	0	1
NMHLD	31	0	2	192
NMHLD	31	0	3	192
NMTAP	32	0	2
NMTAP	32	0	3
NMTAP	33	0	2
NMTAP	33	96	2
NMTAP	33	192	2
NMTAP	34	0	0
NMTAP	34	0	1
NMTAP	34	192	0
NMTAP	34	192	1
NMTAP	35	0	7
NMTAP	35	96	7
NMTAP	35	192	7
NMTAP	36	0	6
NMTAP	36	0	7
NMTAP	36	192	6
NMTAP	36	192	7
NMTAP	37	0	5
NMTAP	37	96	5
NMSTR	37	192	5
NMSI_	37	192	5	96	480	2
NMTHO	40	72	0	984	C	1	L1
NMTTP	46	288	7	B	0	L1
NMTTP	47	288	0	B	0	L1
NMTTP	48	288	6	B	0	L1
NMTTP	49	288	1	B	0	L1
NMTTP	50	288	5	B	0	L1
NMTTP	51	288	2	B	0	L1
NMTHO	52	288	0	384	C	0	L1
NMTAP	54	288	0
NMTAP	55	96	1
NMTAP	55	288	2
NMTAP	56	96	3
NMTAP	56	96	4
NMTAP	56	288	4
NMTAP	57	96	5
NMTAP	57	288	6
EXTAP	58	96	0
EXTAP	58	96	7
BRTAP	58	288	7
NMTAP	59	0	7
NMTAP	59	96	7
NMTAP	59	288	6
NMTAP	60	0	6
NMTAP	60	96	6
NMTAP	60	288	5
NMTAP	61	0	5
NMTAP	61	96	5
NMTAP	61	288	4
NMTAP	61	288	5
NMTAP	62	96	4
NMTAP	62	96	5
NMTAP	62	288	3
NMTAP	63	0	3
NMTAP	63	96	3
NMTAP	63	288	2
NMTAP	64	0	2
NMTAP	64	96	2
NMTAP	64	288	1
NMTAP	65	0	1
NMTAP	65	96	1
NMTAP	65	288	0
NMTAP	65	288	1
NMTAP	66	96	0
NMTAP	66	96	1
BRTAP	66	288	0
NMTAP	67	0	0
NMTAP	67	96	0
NMTAP	67	288	1
NMTAP	68	0	1
NMTAP	68	96	1
NMTAP	68	288	2
NMTAP	69	0	2
NMTAP	69	96	2
NMTAP	69	288	3
NMTAP	70	0	3
NMTAP	70	96	3
NMTAP	70	96	4
NMTAP	70	288	4
NMTAP	71	0	4
NMTAP	71	96	4
NMTAP	71	288	5
NMTAP	72	0	5
NMTAP	72	96	5
NMTAP	72	288	6
NMTAP	73	0	6
NMTAP	73	96	6
NMTAP	73	288	7
NMTAP	74	0	7
NMTAP	74	96	0
NMTAP	74	96	7
NMSTR	74	288	7
NMSI_	74	288	7	96	288	3
NMSTR	76	288	2
NMSI_	76	288	2	96	288	5
NMSTR	78	288	6
NMSI_	78	288	6	96	288	2
NMSTR	80	288	1
NMSI_	80	288	1	96	288	5
NMTAP	82	288	6
NMTAP	83	0	6
NMTAP	83	96	6
NMTAP	83	192	6
NMTAP	83	288	6
NMTAP	83	288	7
NMTAP	84	0	6
NMTAP	84	0	7
NMTAP	84	96	6
NMTAP	84	96	7
NMTAP	84	288	5
NMTAP	85	0	5
NMTAP	85	96	5
NMTAP	85	192	5
NMTAP	85	288	3
NMTAP	85	288	4
NMTAP	86	0	3
NMTAP	86	0	4
NMTAP	86	96	3
NMTAP	86	96	4
NMTAP	86	288	2
NMTAP	87	0	2
NMTAP	87	96	2
NMTAP	87	192	2
NMTAP	87	288	2
NMTAP	87	288	3
NMTAP	88	0	2
NMTAP	88	0	3
NMTAP	88	96	2
NMTAP	88	96	3
NMTAP	88	288	1
NMTAP	89	0	1
NMTAP	89	96	1
NMTAP	89	192	1
NMTAP	89	288	0
NMTAP	89	288	7
NMTAP	90	0	0
NMTAP	90	0	7
NMTAP	90	96	0
NMTAP	90	96	7
BXTAP	90	288	1
BXTAP	90	288	6

T_REC_TAP	165
T_REC_BRK	2
T_REC_XTP	2
T_REC_BXX	2
T_REC_HLD	8
T_REC_XHO	0
T_REC_BHO	0
T_REC_BXH	0
T_REC_STR	5
T_REC_BST	0
T_REC_XST	0
T_REC_XBS	0
T_REC_TTP	6
T_REC_THO	2
T_REC_SLD	5
T_REC_BSL	0
T_REC_ALL	197
T_NUM_TAP	178
T_NUM_BRK	4
T_NUM_HLD	10
T_NUM_SLD	5
T_NUM_ALL	197
T_JUDGE_TAP	182
T_JUDGE_HLD	61
T_JUDGE_SLD	5
T_JUDGE_ALL	248
TTM_EACHPAIRS	39
TTM_SCR_TAP	89000
TTM_SCR_BRK	10400
TTM_SCR_HLD	10000
TTM_SCR_SLD	7500
TTM_SCR_ALL	116900
TTM_SCR_S	113050
TTM_SCR_SS	116500
TTM_RAT_ACV	10034

